<?xml version="1.0" encoding="UTF-8"?>
<svg xmlns="http://www.w3.org/2000/svg" xmlns:xlink="http://www.w3.org/1999/xlink" version="1.2" >
<font id="Overpass-Bold">
<font-face  font-family="Overpass" units-per-em="2048" ascent="1536" descent="-512" font-style="normal" font-weight="700" font-stretch="normal" cap-height="1434" x-height="1047" underline-position="-270" underline-thickness="184" />
<missing-glyph  horiz-adv-x="471" d="" />
<glyph glyph-name="Eth" unicode="&#xd0;" horiz-adv-x="1495" d="M184 588 L57 588 L57 846 L184 846 L184 1434 L668 1434 Q793 1434 893 1405.5 Q993 1377 1070.5 1327 Q1148 1277 1203 1208.5 Q1258 1140 1293.5 1060.5 Q1329 981 1345.5 893 Q1362 805 1362 717 Q1362 635 1346.5 549.5 Q1331 464 1297 384.5 Q1263 305 1208.5 235 Q1154 165 1075.5 112.5 Q997 60 894 30 Q791 0 659 0 L184 0 L184 588 Z M692 262 Q799 262 872 303.5 Q945 345 990 410.5 Q1035 476 1055 557 Q1075 638 1075 717 Q1075 801 1054 882.5 Q1033 964 989.5 1028 Q946 1092 877.5 1131.5 Q809 1171 715 1171 L461 1171 L461 846 L754 846 L754 588 L461 588 L461 262 L692 262 Z " />
<glyph glyph-name="eth" unicode="&#xf0;" horiz-adv-x="1167" d="M584 -25 Q480 -25 392 11 Q304 47 239.5 111 Q175 175 138.5 262.5 Q102 350 102 453 Q102 550 135.5 637.5 Q169 725 229.5 791 Q290 857 375 895.5 Q460 934 563 934 Q620 934 670 917.5 Q720 901 758 872 Q751 902 738 933.5 Q725 965 707.5 994.5 Q690 1024 669.5 1050 Q649 1076 627 1096 L508 973 L360 1110 L442 1194 Q402 1206 357 1213.5 Q312 1221 264 1221 L264 1458 Q374 1458 463.5 1438.5 Q553 1419 625 1386 L741 1507 L887 1368 L797 1274 Q867 1213 917.5 1132.5 Q968 1052 1001 958 Q1034 864 1049.5 760 Q1065 656 1065 549 Q1065 430 1036 325.5 Q1007 221 947.5 143 Q888 65 797.5 20 Q707 -25 584 -25 Z M584 231 Q629 231 668.5 248 Q708 265 737 294.5 Q766 324 782.5 364 Q799 404 799 451 Q799 502 782.5 543.5 Q766 585 737 615 Q708 645 668.5 661.5 Q629 678 582 678 Q536 678 497 662 Q458 646 429.5 617 Q401 588 385 546 Q369 504 369 453 Q369 405 386 364.5 Q403 324 432 294.5 Q461 265 500 248 Q539 231 584 231 Z " />
<glyph glyph-name="Lslash" unicode="&#x141;" horiz-adv-x="1184" d="M184 0 L184 428 L49 324 L49 627 L184 729 L184 1434 L461 1434 L461 936 L758 1161 L758 860 L461 637 L461 266 L1153 266 L1153 0 L184 0 Z " />
<glyph glyph-name="lslash" unicode="&#x142;" horiz-adv-x="594" d="M162 0 L162 428 L49 342 L49 606 L162 692 L162 1354 L428 1479 L428 895 L545 983 L545 719 L428 631 L428 0 L162 0 Z " />
<glyph glyph-name="Scaron" unicode="&#x160;" horiz-adv-x="1300" d="M872 1044 Q859 1076 837 1104 Q815 1132 784.5 1152.5 Q754 1173 714.5 1184.5 Q675 1196 627 1196 Q537 1196 486.5 1160 Q436 1124 436 1059 Q436 1016 468 987 Q500 958 552 934.5 Q604 911 670.5 890 Q737 869 807 843.5 Q877 818 943.5 783.5 Q1010 749 1062 698.5 Q1114 648 1146 578.5 Q1178 509 1178 412 Q1178 307 1138 226 Q1098 145 1028.5 89 Q959 33 864 4 Q769 -25 659 -25 Q558 -25 470 2.5 Q382 30 310.5 81 Q239 132 186 205 Q133 278 102 369 L354 463 Q377 413 409.5 371.5 Q442 330 482 300.5 Q522 271 568.5 254.5 Q615 238 668 238 Q720 238 762.5 249 Q805 260 835.5 282 Q866 304 882.5 336.5 Q899 369 899 412 Q899 464 867 499.5 Q835 535 783 561.5 Q731 588 664.5 609.5 Q598 631 528.5 655 Q459 679 392.5 711 Q326 743 274 790 Q222 837 190 903 Q158 969 158 1063 Q158 1144 190.5 1215.5 Q223 1287 285 1341 Q347 1395 437 1426.5 Q527 1458 643 1458 Q740 1458 818.5 1433 Q897 1408 957 1363.5 Q1017 1319 1058 1258.5 Q1099 1198 1120 1126 L872 1044 Z M770 1569 L514 1569 L226 1888 L471 1888 L643 1747 L815 1888 L1061 1888 L770 1569 Z " />
<glyph glyph-name="scaron" unicode="&#x161;" horiz-adv-x="1012" d="M698 758 Q683 773 663.5 789 Q644 805 619 817.5 Q594 830 562.5 838 Q531 846 494 846 Q434 846 397 826 Q360 806 360 768 Q360 747 377 729 Q394 711 422.5 696 Q451 681 488 667.5 Q525 654 565 641 Q632 619 694.5 591 Q757 563 804.5 523 Q852 483 880.5 427 Q909 371 909 293 Q909 216 880 157 Q851 98 797.5 57.5 Q744 17 668.5 -4 Q593 -25 500 -25 Q436 -25 374.5 -11.5 Q313 2 258 26.5 Q203 51 158 86 Q113 121 82 164 L258 313 Q275 297 299.5 277.5 Q324 258 355.5 241 Q387 224 424.5 212.5 Q462 201 504 201 Q573 201 617.5 221.5 Q662 242 662 293 Q662 318 646.5 338 Q631 358 602 375.5 Q573 393 531 410 Q489 427 436 446 Q362 473 302 502 Q242 531 200 568.5 Q158 606 135.5 656 Q113 706 113 776 Q113 848 143 903 Q173 958 224.5 995.5 Q276 1033 345.5 1052 Q415 1071 494 1071 Q561 1071 619 1057 Q677 1043 724.5 1020 Q772 997 810 966.5 Q848 936 877 903 L698 758 Z M622 1180 L366 1180 L78 1499 L323 1499 L495 1358 L667 1499 L913 1499 L622 1180 Z " />
<glyph glyph-name="Yacute" unicode="&#xdd;" horiz-adv-x="1458" d="M592 0 L592 559 L61 1434 L375 1434 L729 848 L1083 1434 L1397 1434 L866 559 L866 0 L592 0 Z M751 1569 L493 1569 L784 1888 L1116 1888 L751 1569 Z " />
<glyph glyph-name="yacute" unicode="&#xfd;" horiz-adv-x="1167" d="M561 -397 L285 -397 L444 14 L51 1047 L324 1047 L553 442 Q571 395 584 346 Q590 371 598 395 Q606 419 614 442 L844 1047 L1116 1047 L561 -397 Z M567 1180 L309 1180 L600 1499 L932 1499 L567 1180 Z " />
<glyph glyph-name="Thorn" unicode="&#xde;" horiz-adv-x="1370" d="M184 0 L184 1434 L461 1434 L461 1182 L801 1182 Q937 1182 1030 1142.5 Q1123 1103 1180.5 1038.5 Q1238 974 1263 893 Q1288 812 1288 729 Q1288 651 1261 570 Q1234 489 1175.5 424 Q1117 359 1024.5 317.5 Q932 276 801 276 L461 276 L461 0 L184 0 Z M811 539 Q864 539 900 556 Q936 573 958.5 600 Q981 627 991 661 Q1001 695 1001 729 Q1001 760 992.5 793.5 Q984 827 962.5 855 Q941 883 904 901.5 Q867 920 811 920 L461 920 L461 539 L811 539 Z " />
<glyph glyph-name="thorn" unicode="&#xfe;" horiz-adv-x="1169" d="M633 -25 Q555 -25 499.5 3 Q444 31 410 76 L410 -279 L143 -403 L143 1331 L410 1458 L410 971 Q444 1016 500 1043.5 Q556 1071 635 1071 Q732 1071 812 1035 Q892 999 948.5 929.5 Q1005 860 1036 757.5 Q1067 655 1067 522 Q1067 394 1034.5 292.5 Q1002 191 944 120.5 Q886 50 806.5 12.5 Q727 -25 633 -25 Z M592 231 Q692 231 746.5 306.5 Q801 382 801 522 Q801 589 787.5 643 Q774 697 747.5 735 Q721 773 682 794 Q643 815 592 815 Q527 815 483 793 Q439 771 410 731 L410 317 Q420 302 437 286.5 Q454 271 477 258.5 Q500 246 529 238.5 Q558 231 592 231 Z " />
<glyph glyph-name="Zcaron" unicode="&#x17d;" horiz-adv-x="1362" d="M113 0 L113 211 L862 1171 L158 1171 L158 1434 L1229 1434 L1229 1223 L473 262 L1229 262 L1229 0 L113 0 Z M817 1569 L561 1569 L273 1888 L518 1888 L690 1747 L862 1888 L1108 1888 L817 1569 Z " />
<glyph glyph-name="zcaron" unicode="&#x17e;" horiz-adv-x="1114" d="M113 0 L113 209 L653 809 L152 809 L152 1047 L991 1047 L991 844 L453 238 L989 238 L989 0 L113 0 Z M700 1180 L444 1180 L156 1499 L401 1499 L573 1358 L745 1499 L991 1499 L700 1180 Z " />
<glyph glyph-name="onehalf" unicode="&#xbd;" horiz-adv-x="1554" d="M28 -25 L1007 1458 L1263 1458 L284 -25 L28 -25 Z M125 580 L125 1214 L20 1214 L20 1384 Q55 1384 80 1388 Q105 1392 122.5 1400 Q140 1408 152 1419 Q164 1430 172 1444 L350 1444 L350 580 L125 580 Z M848 623 Q865 680 895 727 Q925 774 966.5 807.5 Q1008 841 1061 860 Q1114 879 1176 879 Q1244 879 1299.5 859.5 Q1355 840 1394.5 804.5 Q1434 769 1455.5 720 Q1477 671 1477 612 Q1477 552 1459 509 Q1441 466 1410.5 434 Q1380 402 1339 378 Q1298 354 1252 330 Q1201 302 1165 272.5 Q1129 243 1112 209 L1475 209 L1475 0 L846 0 Q846 100 869 179 Q892 258 932.5 319.5 Q973 381 1028 427 Q1083 473 1147 506 Q1165 516 1182.5 526 Q1200 536 1213.5 548 Q1227 560 1235 573.5 Q1243 587 1243 604 Q1243 633 1223.5 653.5 Q1204 674 1166 674 Q1119 674 1092 647.5 Q1065 621 1051 573 L848 623 Z " />
<glyph glyph-name="onequarter" unicode="&#xbc;" horiz-adv-x="1473" d="M28 -25 L1007 1458 L1263 1458 L284 -25 L28 -25 Z M125 580 L125 1214 L20 1214 L20 1384 Q55 1384 80 1388 Q105 1392 122.5 1400 Q140 1408 152 1419 Q164 1430 172 1444 L350 1444 L350 580 L125 580 Z M1102 0 L1102 164 L682 164 L682 311 L1106 864 L1311 864 L1311 352 L1426 352 L1426 164 L1311 164 L1311 0 L1102 0 Z M1102 352 L1102 590 L922 352 L1102 352 Z " />
<glyph glyph-name="onesuperior" unicode="&#xb9;" horiz-adv-x="459" d="M125 909 L125 1544 L20 1544 L20 1714 Q55 1714 80 1718 Q105 1722 122.5 1730 Q140 1738 152 1749 Q164 1760 172 1774 L350 1774 L350 909 L125 909 Z " />
<glyph glyph-name="threequarters" unicode="&#xbe;" horiz-adv-x="1712" d="M268 -25 L1247 1458 L1503 1458 L524 -25 L268 -25 Z M53 1253 Q93 1350 172 1404 Q251 1458 356 1458 Q421 1458 472 1438 Q523 1418 558.5 1384 Q594 1350 612.5 1305.5 Q631 1261 631 1212 Q631 1180 622 1152 Q613 1124 598 1100 Q583 1076 563.5 1058 Q544 1040 522 1028 Q585 1005 622 955.5 Q659 906 659 831 Q659 773 638.5 724 Q618 675 578 640 Q538 605 480.5 585 Q423 565 348 565 Q227 565 144.5 631.5 Q62 698 25 817 L231 870 Q245 816 276.5 791 Q308 766 350 766 Q392 766 415 789.5 Q438 813 438 848 Q438 885 413 907.5 Q388 930 328 930 L250 930 L250 1118 L326 1118 Q372 1118 391 1139 Q410 1160 410 1188 Q410 1217 391 1237 Q372 1257 338 1257 Q298 1257 277 1237.5 Q256 1218 242 1184 L53 1253 Z M1341 0 L1341 164 L921 164 L921 311 L1345 864 L1550 864 L1550 352 L1665 352 L1665 164 L1550 164 L1550 0 L1341 0 Z M1341 352 L1341 590 L1161 352 L1341 352 Z " />
<glyph glyph-name="threesuperior" unicode="&#xb3;" horiz-adv-x="727" d="M53 1583 Q93 1680 172 1734 Q251 1788 356 1788 Q421 1788 472 1768 Q523 1748 558.5 1714 Q594 1680 612.5 1635.5 Q631 1591 631 1542 Q631 1510 622 1482 Q613 1454 598 1430 Q583 1406 563.5 1388 Q544 1370 522 1358 Q585 1335 622 1285.5 Q659 1236 659 1161 Q659 1103 638.5 1054 Q618 1005 578 970 Q538 935 480.5 915 Q423 895 348 895 Q227 895 144.5 961.5 Q62 1028 25 1147 L231 1200 Q245 1146 276.5 1121 Q308 1096 350 1096 Q392 1096 415 1119 Q438 1142 438 1178 Q438 1215 413 1237.5 Q388 1260 328 1260 L250 1260 L250 1448 L326 1448 Q372 1448 391 1469 Q410 1490 410 1518 Q410 1547 391 1567 Q372 1587 338 1587 Q298 1587 277 1567.5 Q256 1548 242 1513 L53 1583 Z " />
<glyph glyph-name="twosuperior" unicode="&#xb2;" horiz-adv-x="758" d="M49 909 Q49 1009 72 1088.5 Q95 1168 135.5 1229.5 Q176 1291 231 1336.5 Q286 1382 350 1415 Q368 1425 385.5 1435.5 Q403 1446 416.5 1457.5 Q430 1469 438 1482.5 Q446 1496 446 1513 Q446 1542 426.5 1562.5 Q407 1583 369 1583 Q322 1583 295 1557 Q268 1531 254 1483 L51 1532 Q68 1589 98 1636 Q128 1683 169.5 1716.5 Q211 1750 264 1769 Q317 1788 379 1788 Q447 1788 502.5 1768.5 Q558 1749 597.5 1714 Q637 1679 658.5 1630 Q680 1581 680 1522 Q680 1461 662 1418.5 Q644 1376 613.5 1344 Q583 1312 542 1287.5 Q501 1263 455 1239 Q404 1211 368 1181.5 Q332 1152 315 1118 L678 1118 L678 909 L49 909 Z " />
<glyph glyph-name="brokenbar" unicode="&#xa6;" horiz-adv-x="614" d="M174 756 L174 1475 L440 1475 L440 756 L174 756 Z M174 -246 L174 473 L440 473 L440 -246 L174 -246 Z " />
<glyph glyph-name="minus" unicode="&#x2212;" horiz-adv-x="1290" d="M164 573 L164 831 L1126 831 L1126 573 L164 573 Z " />
<glyph glyph-name="multiply" unicode="&#xd7;" horiz-adv-x="1290" d="M647 514 L344 209 L152 403 L455 705 L154 1008 L340 1194 L643 893 L944 1196 L1139 1004 L834 700 L1137 399 L948 211 L647 514 Z " />
<glyph glyph-name="space" unicode="&#x20;" horiz-adv-x="471" d="" />
<glyph glyph-name="exclam" unicode="&#x21;" horiz-adv-x="614" d="M229 395 L172 995 L172 1458 L438 1458 L438 995 L381 395 L229 395 Z M305 -25 Q267 -25 235 -11.5 Q203 2 179.5 26 Q156 50 142.5 82 Q129 114 129 150 Q129 186 142.5 218 Q156 250 179.5 274 Q203 298 235 312 Q267 326 305 326 Q343 326 376 312 Q409 298 433 274 Q457 250 471 218 Q485 186 485 150 Q485 114 471 82 Q457 50 433 26 Q409 2 376 -11.5 Q343 -25 305 -25 Z " />
<glyph glyph-name="quotedbl" unicode="&#x22;" horiz-adv-x="918" d="M92 1434 L412 1434 L362 838 L141 838 L92 1434 Z M506 1434 L825 1434 L776 838 L555 838 L506 1434 Z " />
<glyph glyph-name="numbersign" unicode="&#x23;" horiz-adv-x="1434" d="M248 0 L303 360 L86 360 L119 590 L338 590 L381 879 L164 879 L197 1108 L418 1108 L465 1434 L698 1434 L649 1108 L897 1108 L948 1434 L1180 1434 L1130 1108 L1348 1108 L1315 879 L1096 879 L1053 590 L1270 590 L1235 360 L1018 360 L963 0 L729 0 L784 360 L537 360 L481 0 L248 0 Z M571 590 L819 590 L862 879 L614 879 L571 590 Z " />
<glyph glyph-name="dollar" unicode="&#x24;" horiz-adv-x="1231" d="M807 1047 Q795 1077 775.5 1104.5 Q756 1132 730 1152 Q704 1172 670.5 1184 Q637 1196 596 1196 Q525 1196 483.5 1163 Q442 1130 442 1071 Q442 1027 470.5 997 Q499 967 546 943 Q593 919 653 897.5 Q713 876 775 849.5 Q837 823 897 788 Q957 753 1004 702.5 Q1051 652 1079.5 581.5 Q1108 511 1108 414 Q1108 324 1080 252 Q1052 180 1003.5 126.5 Q955 73 889.5 38 Q824 3 748 -12 L748 -188 L479 -188 L479 -6 Q340 28 244.5 124.5 Q149 221 102 365 L354 457 Q375 409 403.5 368.5 Q432 328 467.5 299 Q503 270 544 254 Q585 238 631 238 Q719 238 772 283 Q825 328 825 412 Q825 466 796.5 502.5 Q768 539 721 567 Q674 595 614.5 617.5 Q555 640 492.5 665.5 Q430 691 370.5 723 Q311 755 264 802 Q217 849 188.5 914 Q160 979 160 1071 Q160 1137 181 1197 Q202 1257 242.5 1306.5 Q283 1356 342.5 1391.5 Q402 1427 479 1444 L479 1608 L748 1608 L748 1442 Q810 1426 859.5 1396 Q909 1366 947 1325.5 Q985 1285 1012 1235 Q1039 1185 1055 1128 L807 1047 Z " />
<glyph glyph-name="percent" unicode="&#x25;" horiz-adv-x="1729" d="M440 709 Q345 709 278.5 742.5 Q212 776 170.5 830 Q129 884 110.5 950.5 Q92 1017 92 1083 Q92 1124 100 1167.5 Q108 1211 125.5 1253 Q143 1295 170 1332 Q197 1369 236 1397 Q275 1425 325.5 1441.5 Q376 1458 440 1458 Q535 1458 601.5 1424.5 Q668 1391 709.5 1337 Q751 1283 769.5 1216 Q788 1149 788 1083 Q788 1022 770 956 Q752 890 711.5 835 Q671 780 604 744.5 Q537 709 440 709 Z M440 930 Q471 930 493.5 942.5 Q516 955 530.5 976 Q545 997 552 1024.5 Q559 1052 559 1083 Q559 1152 529.5 1194.5 Q500 1237 440 1237 Q409 1237 387 1224.5 Q365 1212 350.5 1191 Q336 1170 329 1142 Q322 1114 322 1083 Q322 1015 351 972.5 Q380 930 440 930 Z M508 -25 L244 -25 L1221 1458 L1485 1458 L508 -25 Z M1288 -25 Q1192 -25 1125.5 9 Q1059 43 1018 96.5 Q977 150 958.5 217 Q940 284 940 350 Q940 391 948 434.5 Q956 478 973.5 520 Q991 562 1018 599 Q1045 636 1084 664 Q1123 692 1173.5 708.5 Q1224 725 1288 725 Q1383 725 1449.5 691 Q1516 657 1557.5 603.5 Q1599 550 1617.5 483 Q1636 416 1636 350 Q1636 288 1618 222 Q1600 156 1559.5 101 Q1519 46 1452 10.5 Q1385 -25 1288 -25 Z M1288 197 Q1319 197 1341.5 209.5 Q1364 222 1378.5 243 Q1393 264 1400 291.5 Q1407 319 1407 350 Q1407 418 1377.5 461 Q1348 504 1288 504 Q1257 504 1234.5 491.5 Q1212 479 1197.5 458 Q1183 437 1176 409 Q1169 381 1169 350 Q1169 282 1197.5 239.5 Q1226 197 1288 197 Z " />
<glyph glyph-name="ampersand" unicode="&#x26;" horiz-adv-x="1473" d="M1079 0 L969 137 Q890 60 789.5 17.5 Q689 -25 559 -25 Q460 -25 379.5 4.5 Q299 34 242 88 Q185 142 154 218.5 Q123 295 123 389 Q123 467 147.5 530.5 Q172 594 214 645 Q256 696 311 735.5 Q366 775 428 807 Q390 852 364.5 891 Q339 930 323 967.5 Q307 1005 300 1042.5 Q293 1080 293 1122 Q293 1204 321 1267 Q349 1330 398.5 1372.5 Q448 1415 514 1436.5 Q580 1458 657 1458 Q735 1458 800.5 1434.5 Q866 1411 913.5 1368 Q961 1325 987.5 1263.5 Q1014 1202 1014 1126 Q1014 1061 996 1008 Q978 955 947 911.5 Q916 868 874.5 832 Q833 796 786 766 L944 578 Q952 610 956.5 646 Q961 682 961 717 L1223 717 Q1222 668 1215.5 618 Q1209 568 1197.5 521 Q1186 474 1169 431 Q1152 388 1130 354 L1425 0 L1079 0 Z M588 231 Q654 231 711 255.5 Q768 280 817 324 L571 627 Q486 580 442.5 524.5 Q399 469 399 397 Q399 361 412 330.5 Q425 300 449 278 Q473 256 508 243.5 Q543 231 588 231 Z M543 1139 Q543 1088 570 1039 Q597 990 645 936 Q698 968 731 1013.5 Q764 1059 764 1122 Q764 1156 755 1180.5 Q746 1205 730 1221 Q714 1237 693.5 1245 Q673 1253 651 1253 Q605 1253 574 1222 Q543 1191 543 1139 Z " />
<glyph glyph-name="quotesingle" unicode="&#x27;" horiz-adv-x="504" d="M92 1434 L412 1434 L362 838 L141 838 L92 1434 Z " />
<glyph glyph-name="parenleft" unicode="&#x28;" horiz-adv-x="762" d="M393 -266 Q346 -205 301 -120.5 Q256 -36 221 70 Q186 176 164.5 303.5 Q143 431 143 580 Q143 729 166.5 861.5 Q190 994 228 1105.5 Q266 1217 315.5 1306.5 Q365 1396 416 1458 L680 1458 Q647 1417 601 1336 Q555 1255 513 1141 Q471 1027 441.5 885 Q412 743 412 580 Q412 419 439.5 281.5 Q467 144 506 35.5 Q545 -73 587 -150 Q629 -227 657 -266 L393 -266 Z " />
<glyph glyph-name="parenright" unicode="&#x29;" horiz-adv-x="762" d="M104 -266 Q123 -240 148.5 -197 Q174 -154 201.5 -95.5 Q229 -37 255.5 35.5 Q282 108 303 193.5 Q324 279 337 376 Q350 473 350 580 Q350 743 320.5 885 Q291 1027 249 1141 Q207 1255 161 1336 Q115 1417 82 1458 L346 1458 Q397 1396 446 1306.5 Q495 1217 533.5 1105.5 Q572 994 595 861.5 Q618 729 618 580 Q618 431 596.5 303.5 Q575 176 540 70 Q505 -36 460.5 -120.5 Q416 -205 369 -266 L104 -266 Z " />
<glyph glyph-name="asterisk" unicode="&#x2a;" horiz-adv-x="1126" d="M588 776 L563 872 L539 776 L387 573 L188 717 L340 922 L420 961 L324 963 L102 1036 L178 1274 L403 1200 L471 1149 L438 1231 L438 1475 L688 1475 L688 1231 L655 1149 L723 1200 L948 1274 L1024 1036 L803 963 L707 961 L786 922 L938 717 L739 573 L588 776 Z " />
<glyph glyph-name="plus" unicode="&#x2b;" horiz-adv-x="1290" d="M778 573 L778 221 L512 221 L512 573 L164 573 L164 831 L512 831 L512 1184 L778 1184 L778 831 L1126 831 L1126 573 L778 573 Z " />
<glyph glyph-name="comma" unicode="&#x2c;" horiz-adv-x="506" d="M72 -205 Q86 -193 105 -171 Q124 -149 143.5 -123 Q163 -97 179.5 -69 Q196 -41 205 -16 Q155 -1 121.5 39.5 Q88 80 88 143 Q88 182 102 213 Q116 244 140 266.5 Q164 289 195 301 Q226 313 260 313 Q296 313 327.5 300 Q359 287 383 262.5 Q407 238 420.5 201.5 Q434 165 434 117 Q434 57 413.5 -2 Q393 -61 358.5 -114.5 Q324 -168 279 -213 Q234 -258 184 -289 L72 -205 Z " />
<glyph glyph-name="hyphen" unicode="&#x2d;" horiz-adv-x="844" d="M154 477 L154 733 L690 733 L690 477 L154 477 Z " />
<glyph glyph-name="period" unicode="&#x2e;" horiz-adv-x="494" d="M246 -25 Q209 -25 177.5 -12 Q146 1 123 23.5 Q100 46 87 77 Q74 108 74 143 Q74 179 87 210 Q100 241 123 264 Q146 287 177.5 300 Q209 313 246 313 Q283 313 314.5 300 Q346 287 369.5 264 Q393 241 406.5 210 Q420 179 420 143 Q420 108 406.5 77 Q393 46 369.5 23.5 Q346 1 314.5 -12 Q283 -25 246 -25 Z " />
<glyph glyph-name="slash" unicode="&#x2f;" horiz-adv-x="1069" d="M-31 -266 L774 1458 L1049 1458 L244 -266 L-31 -266 Z " />
<glyph glyph-name="zero" unicode="0" horiz-adv-x="1364" d="M682 -25 Q579 -25 500 5.5 Q421 36 362 89 Q303 142 263.5 214 Q224 286 199.5 368.5 Q175 451 164.5 540 Q154 629 154 717 Q154 805 164.5 894.5 Q175 984 199.5 1066.5 Q224 1149 263.5 1220.5 Q303 1292 362 1344.5 Q421 1397 500 1427.5 Q579 1458 682 1458 Q785 1458 864 1428 Q943 1398 1002 1345 Q1061 1292 1100.5 1221 Q1140 1150 1164.5 1067.5 Q1189 985 1199.5 895.5 Q1210 806 1210 717 Q1210 629 1199.5 540 Q1189 451 1164.5 368.5 Q1140 286 1100.5 214 Q1061 142 1002 89 Q943 36 864 5.5 Q785 -25 682 -25 Z M682 238 Q755 238 803.5 279 Q852 320 881 387.5 Q910 455 922 541 Q934 627 934 717 Q934 807 922 893 Q910 979 881 1046.5 Q852 1114 803.5 1155 Q755 1196 682 1196 Q609 1196 560.5 1155 Q512 1114 483 1046.5 Q454 979 442 893 Q430 807 430 717 Q430 627 442 541 Q454 455 483 387.5 Q512 320 560.5 279 Q609 238 682 238 Z " />
<glyph glyph-name="one" unicode="1" horiz-adv-x="854" d="M291 0 L291 1061 L72 1061 L72 1280 Q123 1280 166.5 1287.5 Q210 1295 245.5 1313 Q281 1331 306.5 1360.5 Q332 1390 346 1434 L567 1434 L567 0 L291 0 Z " />
<glyph glyph-name="two" unicode="2" horiz-adv-x="1266" d="M133 0 Q133 159 172.5 282.5 Q212 406 280 501 Q348 596 439 667.5 Q530 739 633 795 Q672 816 709 839 Q746 862 774.5 890 Q803 918 820.5 952 Q838 986 838 1028 Q838 1107 787 1151.5 Q736 1196 651 1196 Q561 1196 500 1153 Q439 1110 403 1034 L156 1147 Q187 1219 237 1276.5 Q287 1334 350 1374.5 Q413 1415 488 1436.5 Q563 1458 645 1458 Q756 1458 843 1425 Q930 1392 990 1335 Q1050 1278 1082 1200.5 Q1114 1123 1114 1034 Q1114 936 1087 865 Q1060 794 1012 740 Q964 686 897 642.5 Q830 599 750 555 Q638 493 564 423.5 Q490 354 461 266 L1126 266 L1126 0 L133 0 Z " />
<glyph glyph-name="three" unicode="3" horiz-adv-x="1241" d="M606 -25 Q514 -25 435.5 -1.5 Q357 22 293 66 Q229 110 180.5 172 Q132 234 100 311 L350 412 Q374 364 404 330.5 Q434 297 468 276.5 Q502 256 539 247 Q576 238 614 238 Q662 238 701.5 250.5 Q741 263 770 286.5 Q799 310 815 344 Q831 378 831 422 Q831 462 818.5 496.5 Q806 531 779 556.5 Q752 582 710 597 Q668 612 610 612 L471 612 L471 877 L610 877 Q688 877 735 919.5 Q782 962 782 1036 Q782 1070 770.5 1099 Q759 1128 737 1149.5 Q715 1171 682 1183.5 Q649 1196 606 1196 Q568 1196 537 1186 Q506 1176 480 1158.5 Q454 1141 433.5 1117 Q413 1093 397 1065 L147 1161 Q178 1228 223 1283 Q268 1338 326.5 1377 Q385 1416 456 1437 Q527 1458 610 1458 Q710 1458 792.5 1427.5 Q875 1397 934.5 1344 Q994 1291 1026.5 1218 Q1059 1145 1059 1061 Q1059 958 1012 879 Q965 800 885 754 Q931 736 971.5 704.5 Q1012 673 1042.5 630.5 Q1073 588 1090.5 535.5 Q1108 483 1108 422 Q1108 315 1071.5 232 Q1035 149 969 92 Q903 35 810.5 5 Q718 -25 606 -25 Z " />
<glyph glyph-name="four" unicode="4" horiz-adv-x="1348" d="M780 0 L780 287 L31 287 L31 463 L764 1434 L1051 1434 L1051 543 L1225 543 L1225 287 L1051 287 L1051 0 L780 0 Z M780 543 L780 1069 L391 543 L780 543 Z " />
<glyph glyph-name="five" unicode="5" horiz-adv-x="1249" d="M272 330 Q298 313 328 296.5 Q358 280 393.5 267 Q429 254 472 246 Q515 238 567 238 Q628 238 678.5 254.5 Q729 271 765.5 302.5 Q802 334 822 379 Q842 424 842 481 Q842 580 788.5 636 Q735 692 639 692 Q565 692 513.5 665 Q462 638 420 592 L164 713 L201 1434 L1028 1434 L1028 1167 L457 1167 L440 907 Q485 927 536.5 940.5 Q588 954 651 954 Q768 954 855.5 916 Q943 878 1001.5 813.5 Q1060 749 1089 663 Q1118 577 1118 481 Q1118 364 1076.5 270 Q1035 176 961.5 110.5 Q888 45 787 10 Q686 -25 567 -25 Q486 -25 418 -12.5 Q350 0 294.5 19.5 Q239 39 196.5 63.5 Q154 88 123 113 L272 330 Z " />
<glyph glyph-name="six" unicode="6" horiz-adv-x="1270" d="M655 -25 Q526 -25 428.5 17.5 Q331 60 265 134 Q199 208 166 309.5 Q133 411 133 528 Q133 702 181 856 Q229 1010 331 1132 Q433 1254 592 1338.5 Q751 1423 973 1458 L973 1196 Q894 1184 816 1158 Q738 1132 670 1088.5 Q602 1045 548 983 Q494 921 463 838 Q501 867 561 888 Q621 909 698 909 Q800 909 886.5 875 Q973 841 1035 779 Q1097 717 1132 631 Q1167 545 1167 440 Q1167 336 1129.5 250.5 Q1092 165 1024 104 Q956 43 862 9 Q768 -25 655 -25 Z M655 238 Q706 238 749 251.5 Q792 265 823.5 291 Q855 317 873 354.5 Q891 392 891 440 Q891 489 873 527.5 Q855 566 823.5 592.5 Q792 619 749 633 Q706 647 655 647 Q604 647 560.5 633 Q517 619 485.5 592 Q454 565 436 526.5 Q418 488 418 440 Q418 392 436 354.5 Q454 317 485.5 291 Q517 265 560.5 251.5 Q604 238 655 238 Z " />
<glyph glyph-name="seven" unicode="7" horiz-adv-x="1120" d="M348 0 Q349 175 372.5 331 Q396 487 442 630 Q488 773 557 906 Q626 1039 719 1167 L51 1167 L51 1434 L1038 1434 L1038 1190 Q963 1104 903.5 1003.5 Q844 903 798.5 796.5 Q753 690 720 581 Q687 472 666.5 368.5 Q646 265 635.5 171 Q625 77 625 0 L348 0 Z " />
<glyph glyph-name="eight" unicode="8" horiz-adv-x="1300" d="M649 -25 Q530 -25 434.5 8 Q339 41 272 101.5 Q205 162 169 246 Q133 330 133 432 Q133 558 198 646 Q263 734 371 784 Q336 802 303.5 829.5 Q271 857 246 894 Q221 931 205.5 977.5 Q190 1024 190 1079 Q190 1163 221.5 1232.5 Q253 1302 312 1352.5 Q371 1403 456 1430.5 Q541 1458 649 1458 Q756 1458 841.5 1430.5 Q927 1403 986.5 1352.5 Q1046 1302 1078 1232.5 Q1110 1163 1110 1079 Q1110 1025 1095 979.5 Q1080 934 1054.5 897 Q1029 860 996 832.5 Q963 805 928 786 Q982 761 1026 726 Q1070 691 1101.5 646.5 Q1133 602 1150 548 Q1167 494 1167 432 Q1167 330 1131 246 Q1095 162 1027.5 101.5 Q960 41 864 8 Q768 -25 649 -25 Z M649 225 Q702 225 746.5 241 Q791 257 823 285.5 Q855 314 873 352.5 Q891 391 891 436 Q891 483 873 522 Q855 561 823 589.5 Q791 618 746.5 633.5 Q702 649 649 649 Q595 649 550.5 633.5 Q506 618 475 589.5 Q444 561 427 522 Q410 483 410 436 Q410 391 427 352.5 Q444 314 475 285.5 Q506 257 550.5 241 Q595 225 649 225 Z M649 903 Q691 903 725.5 915 Q760 927 784.5 948 Q809 969 822.5 998 Q836 1027 836 1061 Q836 1093 822.5 1120.5 Q809 1148 784.5 1168.5 Q760 1189 725.5 1200.5 Q691 1212 649 1212 Q606 1212 572 1200.5 Q538 1189 514 1168.5 Q490 1148 477.5 1120.5 Q465 1093 465 1061 Q465 1027 477.5 998 Q490 969 514 948 Q538 927 572 915 Q606 903 649 903 Z " />
<glyph glyph-name="nine" unicode="9" horiz-adv-x="1270" d="M336 238 Q413 240 489 258 Q565 276 631 318 Q697 360 749 431 Q801 502 829 610 Q791 578 729 555 Q667 532 586 532 Q481 532 392.5 563.5 Q304 595 239.5 655 Q175 715 138.5 801 Q102 887 102 997 Q102 1102 140 1187.5 Q178 1273 246.5 1333 Q315 1393 410.5 1425.5 Q506 1458 621 1458 Q755 1458 852.5 1416.5 Q950 1375 1013 1301 Q1076 1227 1106.5 1125.5 Q1137 1024 1137 903 Q1137 696 1089 527.5 Q1041 359 942 238.5 Q843 118 692 49.5 Q541 -19 336 -25 L336 238 Z M618 795 Q731 795 795.5 847.5 Q860 900 860 999 Q860 1044 843 1081.5 Q826 1119 794.5 1145 Q763 1171 719 1185.5 Q675 1200 621 1200 Q565 1200 520 1185.5 Q475 1171 443.5 1145 Q412 1119 395.5 1081.5 Q379 1044 379 999 Q379 900 443 847.5 Q507 795 618 795 Z " />
<glyph glyph-name="colon" unicode="&#x3a;" horiz-adv-x="494" d="M246 657 Q209 657 177.5 670 Q146 683 123 705.5 Q100 728 87 759 Q74 790 74 825 Q74 861 87 892 Q100 923 123 946 Q146 969 177.5 982 Q209 995 246 995 Q283 995 314.5 982 Q346 969 369.5 946 Q393 923 406.5 892 Q420 861 420 825 Q420 790 406.5 759 Q393 728 369.5 705.5 Q346 683 314.5 670 Q283 657 246 657 Z M246 -25 Q209 -25 177.5 -12 Q146 1 123 23.5 Q100 46 87 77 Q74 108 74 143 Q74 179 87 210 Q100 241 123 264 Q146 287 177.5 300 Q209 313 246 313 Q283 313 314.5 300 Q346 287 369.5 264 Q393 241 406.5 210 Q420 179 420 143 Q420 108 406.5 77 Q393 46 369.5 23.5 Q346 1 314.5 -12 Q283 -25 246 -25 Z " />
<glyph glyph-name="semicolon" unicode="&#x3b;" horiz-adv-x="494" d="M254 657 Q217 657 185.5 670 Q154 683 131 705.5 Q108 728 95 759 Q82 790 82 825 Q82 861 95 892 Q108 923 131 946 Q154 969 185.5 982 Q217 995 254 995 Q291 995 322.5 982 Q354 969 377.5 946 Q401 923 414.5 892 Q428 861 428 825 Q428 790 414.5 759 Q401 728 377.5 705.5 Q354 683 322.5 670 Q291 657 254 657 Z M66 -205 Q79 -193 98.5 -172.5 Q118 -152 137.5 -127 Q157 -102 173.5 -73.5 Q190 -45 199 -16 Q149 -1 115.5 39.5 Q82 80 82 143 Q82 182 96 213 Q110 244 134 266.5 Q158 289 189 301 Q220 313 254 313 Q290 313 321.5 300 Q353 287 377 262.5 Q401 238 414.5 201.5 Q428 165 428 117 Q428 52 407.5 -8 Q387 -68 352.5 -120 Q318 -172 273 -215 Q228 -258 178 -289 L66 -205 Z " />
<glyph glyph-name="less" unicode="&#x3c;" horiz-adv-x="1290" d="M1126 201 L164 594 L164 811 L1126 1204 L1126 926 L561 702 L1126 477 L1126 201 Z " />
<glyph glyph-name="equal" unicode="&#x3d;" horiz-adv-x="1290" d="M164 346 L164 604 L1126 604 L1126 346 L164 346 Z M164 801 L164 1059 L1126 1059 L1126 801 L164 801 Z " />
<glyph glyph-name="greater" unicode="&#x3e;" horiz-adv-x="1290" d="M1126 594 L164 201 L164 479 L729 702 L164 928 L164 1204 L1126 811 L1126 594 Z " />
<glyph glyph-name="question" unicode="&#x3f;" horiz-adv-x="1034" d="M367 387 L367 461 Q367 556 391.5 621 Q416 686 452.5 733 Q489 780 531.5 814.5 Q574 849 610.5 882 Q647 915 671.5 952 Q696 989 696 1042 Q696 1112 650.5 1157 Q605 1202 518 1202 Q416 1202 361.5 1139 Q307 1076 307 961 L41 961 Q41 1081 76 1173.5 Q111 1266 174.5 1329 Q238 1392 325.5 1425 Q413 1458 518 1458 Q626 1458 709.5 1426 Q793 1394 849 1338 Q905 1282 934 1206 Q963 1130 963 1042 Q963 979 949 931 Q935 883 911.5 845.5 Q888 808 858.5 778 Q829 748 798 721.5 Q767 695 737.5 669 Q708 643 684.5 612.5 Q661 582 647 545 Q633 508 633 459 L633 387 L367 387 Z M502 -25 Q465 -25 433.5 -12 Q402 1 379 23.5 Q356 46 343 77 Q330 108 330 143 Q330 179 343 210 Q356 241 379 264 Q402 287 433.5 300 Q465 313 502 313 Q539 313 570.5 300 Q602 287 625.5 264 Q649 241 662.5 210 Q676 179 676 143 Q676 108 662.5 77 Q649 46 625.5 23.5 Q602 1 570.5 -12 Q539 -25 502 -25 Z " />
<glyph glyph-name="at" unicode="&#x40;" horiz-adv-x="1714" d="M872 -25 Q705 -25 567.5 22.5 Q430 70 331 161.5 Q232 253 177.5 386.5 Q123 520 123 692 Q123 804 150 904.5 Q177 1005 227 1090 Q277 1175 346.5 1243 Q416 1311 501.5 1359 Q587 1407 685.5 1432.5 Q784 1458 891 1458 Q1051 1458 1180.5 1409.5 Q1310 1361 1401.5 1277.5 Q1493 1194 1542 1082.5 Q1591 971 1591 844 Q1591 731 1558 635.5 Q1525 540 1466.5 471 Q1408 402 1328.5 363 Q1249 324 1155 324 Q1132 324 1106.5 330 Q1081 336 1057.5 348.5 Q1034 361 1016 381 Q998 401 989 430 Q955 370 902 347 Q849 324 786 324 Q721 324 667 348.5 Q613 373 574 418.5 Q535 464 513.5 528.5 Q492 593 492 674 Q492 752 519 828 Q546 904 595.5 964 Q645 1024 715 1061 Q785 1098 872 1098 Q934 1098 976.5 1073.5 Q1019 1049 1040 1014 L1051 1071 L1253 1071 L1186 707 Q1173 645 1166 601.5 Q1159 558 1159 543 Q1159 527 1167 517.5 Q1175 508 1194 508 Q1231 508 1266 530 Q1301 552 1329 594.5 Q1357 637 1374 699 Q1391 761 1391 840 Q1391 926 1361.5 1002 Q1332 1078 1271.5 1134.5 Q1211 1191 1118.5 1224 Q1026 1257 901 1257 Q775 1257 671 1215 Q567 1173 492.5 1097.5 Q418 1022 377 918 Q336 814 336 690 Q336 565 374.5 469 Q413 373 484 308 Q555 243 655.5 209.5 Q756 176 881 176 Q947 176 1016.5 186 Q1086 196 1161 215 L1102 -8 Q1043 -16 986 -20.5 Q929 -25 872 -25 Z M811 524 Q853 524 885.5 545 Q918 566 940.5 599 Q963 632 975 673 Q987 714 987 754 Q987 819 958 858 Q929 897 877 897 Q838 897 805.5 879 Q773 861 749.5 830 Q726 799 713 757.5 Q700 716 700 670 Q700 605 730 564.5 Q760 524 811 524 Z " />
<glyph glyph-name="A" unicode="A" horiz-adv-x="1520" d="M1147 0 L1036 297 L483 297 L373 0 L76 0 L625 1434 L895 1434 L1444 0 L1147 0 Z M805 922 Q794 948 781.5 984 Q769 1020 760 1051 Q752 1020 739 984 Q726 948 715 922 L573 549 L946 549 L805 922 Z " />
<glyph glyph-name="B" unicode="B" horiz-adv-x="1460" d="M184 1434 L813 1434 Q944 1434 1033 1401 Q1122 1368 1176.5 1314 Q1231 1260 1254.5 1191 Q1278 1122 1278 1049 Q1278 1003 1268.5 960 Q1259 917 1238 879.5 Q1217 842 1184 810.5 Q1151 779 1104 756 Q1165 733 1207.5 696.5 Q1250 660 1276.5 616 Q1303 572 1315 523 Q1327 474 1327 426 Q1327 350 1301.5 274 Q1276 198 1218.5 137 Q1161 76 1068.5 38 Q976 0 842 0 L184 0 L184 1434 Z M856 258 Q912 258 949 273.5 Q986 289 1007.5 313 Q1029 337 1038 367 Q1047 397 1047 426 Q1047 461 1036.5 494.5 Q1026 528 998 554 Q970 580 922 596 Q874 612 799 612 L461 612 L461 258 L856 258 Z M780 870 Q890 870 943.5 912.5 Q997 955 997 1024 Q997 1051 990 1078 Q983 1105 963.5 1127 Q944 1149 909 1162.5 Q874 1176 817 1176 L461 1176 L461 870 L780 870 Z " />
<glyph glyph-name="C" unicode="C" horiz-adv-x="1352" d="M735 -23 Q623 -23 535 7 Q447 37 380 90 Q313 143 266 214 Q219 285 189.5 367.5 Q160 450 146.5 539 Q133 628 133 717 Q133 799 147 885.5 Q161 972 190.5 1054 Q220 1136 267.5 1209 Q315 1282 381.5 1337 Q448 1392 536 1424 Q624 1456 735 1456 Q838 1456 922 1428 Q1006 1400 1070 1354.5 Q1134 1309 1178.5 1251 Q1223 1193 1247 1133 L999 1020 Q973 1060 946 1092 Q919 1124 888 1145.5 Q857 1167 819.5 1178.5 Q782 1190 735 1190 Q675 1190 628 1169.5 Q581 1149 546 1114 Q511 1079 487 1032 Q463 985 448 932.5 Q433 880 426.5 824.5 Q420 769 420 717 Q420 633 438 549 Q456 465 494 397 Q532 329 591.5 286.5 Q651 244 735 244 Q779 244 816 257.5 Q853 271 884.5 295 Q916 319 943.5 353 Q971 387 995 428 L1249 332 Q1215 253 1167 187.5 Q1119 122 1055.5 75.5 Q992 29 912 3 Q832 -23 735 -23 Z " />
<glyph glyph-name="D" unicode="D" horiz-adv-x="1495" d="M184 1434 L668 1434 Q793 1434 893 1405.5 Q993 1377 1070.5 1327 Q1148 1277 1203 1208.5 Q1258 1140 1293.5 1060.5 Q1329 981 1345.5 893 Q1362 805 1362 717 Q1362 635 1346.5 549.5 Q1331 464 1297 384.5 Q1263 305 1208.5 235 Q1154 165 1075.5 112.5 Q997 60 894 30 Q791 0 659 0 L184 0 L184 1434 Z M692 262 Q799 262 872 303.5 Q945 345 990 410.5 Q1035 476 1055 557 Q1075 638 1075 717 Q1075 801 1054 882.5 Q1033 964 989.5 1028 Q946 1092 877.5 1131.5 Q809 1171 715 1171 L461 1171 L461 262 L692 262 Z " />
<glyph glyph-name="E" unicode="E" horiz-adv-x="1319" d="M184 0 L184 1434 L1163 1434 L1163 1171 L461 1171 L461 870 L874 870 L874 608 L461 608 L461 262 L1206 262 L1206 0 L184 0 Z " />
<glyph glyph-name="F" unicode="F" horiz-adv-x="1217" d="M184 0 L184 1434 L1145 1434 L1145 1171 L461 1171 L461 870 L895 870 L895 608 L461 608 L461 0 L184 0 Z " />
<glyph glyph-name="G" unicode="G" horiz-adv-x="1419" d="M764 -25 Q653 -25 563 4 Q473 33 403 84 Q333 135 282 205.5 Q231 276 198 358 Q165 440 149 531.5 Q133 623 133 717 Q133 804 149.5 893 Q166 982 200.5 1064.5 Q235 1147 286.5 1219 Q338 1291 408.5 1344 Q479 1397 567.5 1427.5 Q656 1458 764 1458 Q868 1458 947.5 1432 Q1027 1406 1088.5 1363.5 Q1150 1321 1195.5 1265.5 Q1241 1210 1278 1151 L1034 1012 Q1010 1048 982 1080.5 Q954 1113 921.5 1138 Q889 1163 850 1177.5 Q811 1192 764 1192 Q697 1192 646 1171.5 Q595 1151 556.5 1115.5 Q518 1080 492 1033 Q466 986 450 933 Q434 880 427 824.5 Q420 769 420 717 Q420 626 439 540.5 Q458 455 499.5 388.5 Q541 322 606.5 282 Q672 242 764 242 Q816 242 861.5 260.5 Q907 279 941 310.5 Q975 342 994.5 385 Q1014 428 1014 477 L1014 489 L770 489 L770 752 L1296 752 L1296 541 Q1296 403 1255 297.5 Q1214 192 1142.5 120.5 Q1071 49 974 12 Q877 -25 764 -25 Z " />
<glyph glyph-name="H" unicode="H" horiz-adv-x="1522" d="M1061 0 L1061 606 L461 606 L461 0 L184 0 L184 1434 L461 1434 L461 868 L1061 868 L1061 1434 L1337 1434 L1337 0 L1061 0 Z " />
<glyph glyph-name="I" unicode="I" horiz-adv-x="666" d="M195 0 L195 1434 L471 1434 L471 0 L195 0 Z " />
<glyph glyph-name="J" unicode="J" horiz-adv-x="1198" d="M532 -25 Q454 -25 382.5 -3.5 Q311 18 249.5 58.5 Q188 99 137.5 157.5 Q87 216 51 291 L293 403 Q333 326 392.5 284 Q452 242 532 242 Q574 242 613 253.5 Q652 265 682 296 Q712 327 730 381.5 Q748 436 748 522 L748 1434 L1024 1434 L1024 498 Q1024 396 1003 317 Q982 238 946 180 Q910 122 862 82.5 Q814 43 759 19.5 Q704 -4 646 -14.5 Q588 -25 532 -25 Z " />
<glyph glyph-name="K" unicode="K" horiz-adv-x="1501" d="M1096 0 L727 686 L461 358 L461 0 L184 0 L184 1434 L461 1434 L461 750 L1004 1434 L1331 1434 L913 920 L1419 0 L1096 0 Z " />
<glyph glyph-name="L" unicode="L" horiz-adv-x="1184" d="M184 0 L184 1434 L461 1434 L461 266 L1153 266 L1153 0 L184 0 Z " />
<glyph glyph-name="M" unicode="M" horiz-adv-x="1698" d="M1237 0 L1237 737 Q1237 749 1237.5 765 Q1238 781 1238.5 797.5 Q1239 814 1239.5 828 Q1240 842 1241 850 Q1230 816 1219.5 789 Q1209 762 1198 737 L850 -25 L500 737 Q489 762 478.5 789 Q468 816 457 850 Q458 842 458.5 828 Q459 814 459.5 797.5 Q460 781 460.5 765 Q461 749 461 737 L461 0 L184 0 L184 1434 L465 1434 L817 643 Q828 617 837 593.5 Q846 570 854 545 Q862 570 871 593.5 Q880 617 891 643 L1249 1434 L1513 1434 L1513 0 L1237 0 Z " />
<glyph glyph-name="N" unicode="N" horiz-adv-x="1511" d="M1081 0 L512 836 Q498 857 481.5 887.5 Q465 918 453 944 Q456 921 457.5 890 Q459 859 459 836 L459 0 L184 0 L184 1434 L444 1434 L999 608 Q1012 588 1029 558 Q1046 528 1059 500 Q1056 529 1054.5 558.5 Q1053 588 1053 608 L1053 1434 L1327 1434 L1327 0 L1081 0 Z " />
<glyph glyph-name="O" unicode="O" horiz-adv-x="1530" d="M766 -25 Q650 -25 558 5.5 Q466 36 395.5 88.5 Q325 141 275 212.5 Q225 284 193.5 366.5 Q162 449 147.5 538.5 Q133 628 133 717 Q133 805 147.5 894.5 Q162 984 193.5 1066.5 Q225 1149 275 1220.5 Q325 1292 395.5 1344.5 Q466 1397 558 1427.5 Q650 1458 766 1458 Q882 1458 973.5 1427.5 Q1065 1397 1135 1344.5 Q1205 1292 1255 1220.5 Q1305 1149 1336.5 1066.5 Q1368 984 1382.5 894.5 Q1397 805 1397 717 Q1397 628 1382.5 538.5 Q1368 449 1336.5 366.5 Q1305 284 1255 212.5 Q1205 141 1135 88.5 Q1065 36 973.5 5.5 Q882 -25 766 -25 Z M766 242 Q862 242 927.5 287 Q993 332 1033.5 402 Q1074 472 1092 555.5 Q1110 639 1110 717 Q1110 772 1102.5 828.5 Q1095 885 1078 937.5 Q1061 990 1034 1036.5 Q1007 1083 969 1117.5 Q931 1152 880.5 1172 Q830 1192 766 1192 Q701 1192 650.5 1171 Q600 1150 561.5 1114.5 Q523 1079 496 1032 Q469 985 452 932 Q435 879 427.5 824 Q420 769 420 717 Q420 635 438 550.5 Q456 466 496.5 397.5 Q537 329 603 285.5 Q669 242 766 242 Z " />
<glyph glyph-name="P" unicode="P" horiz-adv-x="1370" d="M184 0 L184 1434 L799 1434 Q935 1434 1028 1394.5 Q1121 1355 1179 1290.5 Q1237 1226 1262.5 1145 Q1288 1064 1288 981 Q1288 929 1276 875.5 Q1264 822 1239 771.5 Q1214 721 1175 677 Q1136 633 1081.5 599.5 Q1027 566 956.5 547 Q886 528 799 528 L461 528 L461 0 L184 0 Z M811 791 Q864 791 900 808 Q936 825 958.5 852 Q981 879 991 913 Q1001 947 1001 981 Q1001 1012 992.5 1045.5 Q984 1079 962.5 1107 Q941 1135 904 1153 Q867 1171 811 1171 L461 1171 L461 791 L811 791 Z " />
<glyph glyph-name="Q" unicode="Q" horiz-adv-x="1530" d="M766 -25 Q650 -25 558 5.5 Q466 36 395.5 88.5 Q325 141 275 212.5 Q225 284 193.5 366.5 Q162 449 147.5 538.5 Q133 628 133 717 Q133 805 147.5 894.5 Q162 984 193.5 1066.5 Q225 1149 275 1220.5 Q325 1292 395.5 1344.5 Q466 1397 558 1427.5 Q650 1458 766 1458 Q882 1458 973.5 1427.5 Q1065 1397 1135 1344.5 Q1205 1292 1255 1220.5 Q1305 1149 1336.5 1066.5 Q1368 984 1382.5 894.5 Q1397 805 1397 717 Q1397 637 1385 556.5 Q1373 476 1347.5 400 Q1322 324 1282.5 256 Q1243 188 1188 133 L1282 -6 L1077 -141 L977 6 Q929 -8 877 -16.5 Q825 -25 766 -25 Z M766 242 Q778 242 791.5 243 Q805 244 817 246 L711 403 L920 539 L1022 383 Q1046 418 1062.5 459 Q1079 500 1089.5 543.5 Q1100 587 1105 631 Q1110 675 1110 717 Q1110 772 1102.5 828.5 Q1095 885 1078 937.5 Q1061 990 1034 1036.5 Q1007 1083 969 1117.5 Q931 1152 880.5 1172 Q830 1192 766 1192 Q701 1192 650.5 1171 Q600 1150 561.5 1114.5 Q523 1079 496 1032 Q469 985 452 932 Q435 879 427.5 824 Q420 769 420 717 Q420 635 438 550.5 Q456 466 496.5 397.5 Q537 329 603 285.5 Q669 242 766 242 Z " />
<glyph glyph-name="R" unicode="R" horiz-adv-x="1462" d="M184 0 L184 1434 L850 1434 Q986 1434 1077.5 1396.5 Q1169 1359 1225 1297 Q1281 1235 1305 1154 Q1329 1073 1329 985 Q1329 924 1311.5 861.5 Q1294 799 1259 743 Q1224 687 1172 641.5 Q1120 596 1051 571 L1329 0 L1018 0 L750 535 L461 535 L461 0 L184 0 Z M854 797 Q907 797 943 812.5 Q979 828 1001 854 Q1023 880 1032.5 914 Q1042 948 1042 985 Q1042 1019 1033.5 1052.5 Q1025 1086 1004 1112.5 Q983 1139 946.5 1155 Q910 1171 854 1171 L461 1171 L461 797 L854 797 Z " />
<glyph glyph-name="S" unicode="S" horiz-adv-x="1300" d="M872 1044 Q859 1076 837 1104 Q815 1132 784.5 1152.5 Q754 1173 714.5 1184.5 Q675 1196 627 1196 Q537 1196 486.5 1160 Q436 1124 436 1059 Q436 1016 468 987 Q500 958 552 934.5 Q604 911 670.5 890 Q737 869 807 843.5 Q877 818 943.5 783.5 Q1010 749 1062 698.5 Q1114 648 1146 578.5 Q1178 509 1178 412 Q1178 307 1138 226 Q1098 145 1028.5 89 Q959 33 864 4 Q769 -25 659 -25 Q558 -25 470 2.5 Q382 30 310.5 81 Q239 132 186 205 Q133 278 102 369 L354 463 Q377 413 409.5 371.5 Q442 330 482 300.5 Q522 271 568.5 254.5 Q615 238 668 238 Q720 238 762.5 249 Q805 260 835.5 282 Q866 304 882.5 336.5 Q899 369 899 412 Q899 464 867 499.5 Q835 535 783 561.5 Q731 588 664.5 609.5 Q598 631 528.5 655 Q459 679 392.5 711 Q326 743 274 790 Q222 837 190 903 Q158 969 158 1063 Q158 1144 190.5 1215.5 Q223 1287 285 1341 Q347 1395 437 1426.5 Q527 1458 643 1458 Q740 1458 818.5 1433 Q897 1408 957 1363.5 Q1017 1319 1058 1258.5 Q1099 1198 1120 1126 L872 1044 Z " />
<glyph glyph-name="T" unicode="T" horiz-adv-x="1280" d="M778 1167 L778 0 L502 0 L502 1167 L92 1167 L92 1434 L1188 1434 L1188 1167 L778 1167 Z " />
<glyph glyph-name="U" unicode="U" horiz-adv-x="1503" d="M752 -25 Q679 -25 607.5 -12.5 Q536 0 472 28 Q408 56 353.5 100.5 Q299 145 259 209 Q219 273 196.5 357 Q174 441 174 549 L174 1434 L451 1434 L451 549 Q451 460 471.5 400.5 Q492 341 531 306 Q570 271 626 256.5 Q682 242 752 242 Q821 242 876.5 256.5 Q932 271 971.5 306 Q1011 341 1032 400.5 Q1053 460 1053 549 L1053 1434 L1329 1434 L1329 549 Q1329 389 1281 279.5 Q1233 170 1152.5 102.5 Q1072 35 968 5 Q864 -25 752 -25 Z " />
<glyph glyph-name="V" unicode="V" horiz-adv-x="1444" d="M856 0 L590 0 L82 1434 L381 1434 L696 496 Q704 473 711.5 446.5 Q719 420 725 397 Q730 419 737 445 Q744 471 752 496 L1067 1434 L1362 1434 L856 0 Z " />
<glyph glyph-name="W" unicode="W" horiz-adv-x="1786" d="M1694 1434 L1384 0 L1126 0 L909 844 Q900 878 896 904.5 Q892 931 889 952 Q886 931 881 904.5 Q876 878 868 846 L657 0 L399 0 L92 1434 L377 1434 L537 627 Q545 590 548.5 566 Q552 542 555 520 Q558 542 562 566.5 Q566 591 575 629 L772 1434 L1012 1434 L1212 629 Q1222 591 1226 566.5 Q1230 542 1233 520 Q1236 542 1239.5 566 Q1243 590 1251 627 L1411 1434 L1694 1434 Z " />
<glyph glyph-name="X" unicode="X" horiz-adv-x="1458" d="M1032 0 L729 481 L426 0 L102 0 L567 739 L131 1434 L455 1434 L729 995 L1004 1434 L1327 1434 L891 739 L1356 0 L1032 0 Z " />
<glyph glyph-name="Y" unicode="Y" horiz-adv-x="1458" d="M592 0 L592 559 L61 1434 L375 1434 L729 848 L1083 1434 L1397 1434 L866 559 L866 0 L592 0 Z " />
<glyph glyph-name="Z" unicode="Z" horiz-adv-x="1362" d="M113 0 L113 211 L862 1171 L158 1171 L158 1434 L1229 1434 L1229 1223 L473 262 L1229 262 L1229 0 L113 0 Z " />
<glyph glyph-name="bracketleft" unicode="&#x5b;" horiz-adv-x="799" d="M205 -266 L205 1458 L717 1458 L717 1202 L471 1202 L471 -10 L717 -10 L717 -266 L205 -266 Z " />
<glyph glyph-name="backslash" unicode="&#x5c;" horiz-adv-x="1069" d="M774 -266 L-31 1458 L244 1458 L1049 -266 L774 -266 Z " />
<glyph glyph-name="bracketright" unicode="&#x5d;" horiz-adv-x="799" d="M594 -266 L82 -266 L82 -10 L326 -10 L326 1202 L82 1202 L82 1458 L594 1458 L594 -266 Z " />
<glyph glyph-name="asciicircum" unicode="&#x5e;" horiz-adv-x="1290" d="M895 696 L645 1112 L395 696 L119 696 L545 1458 L745 1458 L1171 696 L895 696 Z " />
<glyph glyph-name="underscore" unicode="&#x5f;" horiz-adv-x="1024" d="M-10 -362 L-10 -158 L1034 -158 L1034 -362 L-10 -362 Z " />
<glyph glyph-name="grave" unicode="&#x60;" horiz-adv-x="973" d="M539 1180 L174 1499 L506 1499 L797 1180 L539 1180 Z " />
<glyph glyph-name="a" unicode="a" horiz-adv-x="1143" d="M748 0 L748 76 Q730 57 704.5 39 Q679 21 645 6.5 Q611 -8 569.5 -16.5 Q528 -25 477 -25 Q396 -25 326 -3 Q256 19 204 63 Q152 107 122 171.5 Q92 236 92 322 Q92 412 128 477.5 Q164 543 222.5 585.5 Q281 628 355.5 648 Q430 668 508 668 Q583 668 641.5 654.5 Q700 641 748 618 L748 672 Q748 758 699 798 Q650 838 559 838 Q466 838 388 811 Q310 784 236 733 L154 948 Q191 973 237.5 995.5 Q284 1018 338 1035 Q392 1052 453.5 1061.5 Q515 1071 582 1071 Q629 1071 679 1066 Q729 1061 776.5 1046 Q824 1031 866.5 1003 Q909 975 941 930.5 Q973 886 991.5 821.5 Q1010 757 1010 668 L1010 0 L748 0 Z M528 209 Q601 209 655 234.5 Q709 260 748 295 L748 408 Q707 423 656.5 432.5 Q606 442 553 442 Q512 442 475.5 435.5 Q439 429 411.5 414.5 Q384 400 368 377 Q352 354 352 322 Q352 271 397 240 Q442 209 528 209 Z " />
<glyph glyph-name="b" unicode="b" horiz-adv-x="1180" d="M633 -25 Q557 -25 505.5 0.5 Q454 26 420 76 L420 0 L154 0 L154 1358 L420 1479 L420 971 Q454 1016 510 1043.5 Q566 1071 643 1071 Q737 1071 816.5 1033.5 Q896 996 954 925.5 Q1012 855 1044.5 753.5 Q1077 652 1077 524 Q1077 391 1046 288.5 Q1015 186 957 116.5 Q899 47 817 11 Q735 -25 633 -25 Z M602 231 Q653 231 692 251.5 Q731 272 757.5 310.5 Q784 349 797.5 403 Q811 457 811 524 Q811 665 756.5 740 Q702 815 602 815 Q568 815 539 807.5 Q510 800 487 787.5 Q464 775 447 759.5 Q430 744 420 729 L420 315 Q449 275 493 253 Q537 231 602 231 Z " />
<glyph glyph-name="c" unicode="c" horiz-adv-x="1120" d="M580 -25 Q471 -25 382.5 12.5 Q294 50 232 120.5 Q170 191 136 292.5 Q102 394 102 522 Q102 650 136 752 Q170 854 232 925 Q294 996 382.5 1033.5 Q471 1071 580 1071 Q740 1071 852.5 997.5 Q965 924 1016 764 L762 680 Q739 740 694 777.5 Q649 815 586 815 Q537 815 497.5 794 Q458 773 430.5 735 Q403 697 388 643 Q373 589 373 522 Q373 455 388 401.5 Q403 348 430 310 Q457 272 495 251.5 Q533 231 580 231 Q648 231 695 270 Q742 309 764 383 L1018 307 Q971 142 860.5 58.5 Q750 -25 580 -25 Z " />
<glyph glyph-name="d" unicode="d" horiz-adv-x="1180" d="M535 -25 Q437 -25 357 11 Q277 47 220.5 116.5 Q164 186 133 288.5 Q102 391 102 524 Q102 652 135 753.5 Q168 855 226 925.5 Q284 996 363.5 1033.5 Q443 1071 537 1071 Q614 1071 670 1043.5 Q726 1016 760 971 L760 1358 L1026 1479 L1026 0 L760 0 L760 76 Q728 28 671.5 1.5 Q615 -25 535 -25 Z M578 231 Q643 231 687 253 Q731 275 760 315 L760 729 Q750 744 733 759.5 Q716 775 692.5 787.5 Q669 800 640.5 807.5 Q612 815 578 815 Q477 815 423 740 Q369 665 369 524 Q369 457 382.5 403 Q396 349 422.5 310.5 Q449 272 488 251.5 Q527 231 578 231 Z " />
<glyph glyph-name="e" unicode="e" horiz-adv-x="1147" d="M592 -25 Q478 -25 387.5 12.5 Q297 50 233.5 121 Q170 192 136 294 Q102 396 102 524 Q102 652 136 753.5 Q170 855 234 925.5 Q298 996 388.5 1033.5 Q479 1071 592 1071 Q689 1071 774 1041 Q859 1011 921 950 Q983 889 1019 796.5 Q1055 704 1055 578 Q1055 547 1054 504.5 Q1053 462 1047 420 L365 420 Q369 369 389 330 Q409 291 439.5 264 Q470 237 509 223 Q548 209 592 209 Q664 209 718 234.5 Q772 260 817 317 L981 152 Q915 71 819 23 Q723 -25 592 -25 Z M592 838 Q498 838 438.5 791 Q379 744 367 645 L795 645 Q782 738 727 788 Q672 838 592 838 Z " />
<glyph glyph-name="f" unicode="f" horiz-adv-x="739" d="M483 813 L483 0 L217 0 L217 813 L72 813 L72 1047 L217 1047 L217 1206 Q217 1284 239.5 1333 Q262 1382 298.5 1409.5 Q335 1437 381 1447.5 Q427 1458 475 1458 Q538 1458 595 1446.5 Q652 1435 709 1407 L709 1190 Q678 1202 655 1208.5 Q632 1215 614 1219 Q596 1223 583 1224 Q570 1225 559 1225 Q525 1225 504 1207.5 Q483 1190 483 1153 L483 1047 L709 1047 L709 813 L483 813 Z " />
<glyph glyph-name="g" unicode="g" horiz-adv-x="1180" d="M385 -188 Q490 -181 562 -168 Q634 -155 678 -130 Q722 -105 741 -67 Q760 -29 760 27 L760 55 Q713 9 654.5 -8 Q596 -25 535 -25 Q440 -25 361 9.5 Q282 44 224 113 Q166 182 134 284.5 Q102 387 102 524 Q102 652 133.5 753.5 Q165 855 222.5 925.5 Q280 996 360 1033.5 Q440 1071 537 1071 Q677 1071 760 991 L760 1047 L1026 1047 L1026 131 Q1026 72 1020.5 13.5 Q1015 -45 1002.5 -97 Q990 -149 970 -193 Q950 -237 920 -268 Q880 -308 834 -333.5 Q788 -359 738.5 -375 Q689 -391 636.5 -398.5 Q584 -406 532 -410 L385 -188 Z M578 231 Q643 231 686 253 Q729 275 760 315 L760 729 Q748 744 732 759.5 Q716 775 693.5 787.5 Q671 800 642.5 807.5 Q614 815 578 815 Q477 815 423 740 Q369 665 369 524 Q369 460 381.5 406.5 Q394 353 420 314 Q446 275 485.5 253 Q525 231 578 231 Z " />
<glyph glyph-name="h" unicode="h" horiz-adv-x="1210" d="M801 0 L801 614 Q801 667 787 705 Q773 743 748 767.5 Q723 792 690 803.5 Q657 815 618 815 Q577 815 541 804.5 Q505 794 478 770.5 Q451 747 435.5 709.5 Q420 672 420 618 L420 0 L154 0 L154 1356 L420 1479 L420 948 Q468 1007 538.5 1039 Q609 1071 700 1071 Q767 1071 833 1051 Q899 1031 951 983 Q1003 935 1035 856 Q1067 777 1067 659 L1067 0 L801 0 Z " />
<glyph glyph-name="i" unicode="i" horiz-adv-x="578" d="M156 0 L156 1047 L422 1047 L422 0 L156 0 Z M289 1169 Q257 1169 228.5 1181.5 Q200 1194 179 1215 Q158 1236 145.5 1264.5 Q133 1293 133 1325 Q133 1357 145.5 1385 Q158 1413 179 1434 Q200 1455 228.5 1467 Q257 1479 289 1479 Q321 1479 349.5 1467 Q378 1455 399 1434 Q420 1413 432 1385 Q444 1357 444 1325 Q444 1293 432 1264.5 Q420 1236 399 1215 Q378 1194 349.5 1181.5 Q321 1169 289 1169 Z " />
<glyph glyph-name="j" unicode="j" horiz-adv-x="578" d="M-137 -227 Q-56 -209 0 -189.5 Q56 -170 90.5 -144.5 Q125 -119 140.5 -86 Q156 -53 156 -8 L156 1047 L422 1047 L422 57 Q422 12 418 -32.5 Q414 -77 403 -119.5 Q392 -162 372 -201 Q352 -240 319 -274 Q282 -313 241.5 -340.5 Q201 -368 159.5 -387 Q118 -406 76.5 -418 Q35 -430 -2 -438 L-137 -227 Z M289 1169 Q257 1169 228.5 1181.5 Q200 1194 179 1215 Q158 1236 145.5 1264.5 Q133 1293 133 1325 Q133 1357 145.5 1385 Q158 1413 179 1434 Q200 1455 228.5 1467 Q257 1479 289 1479 Q321 1479 349.5 1467 Q378 1455 399 1434 Q420 1413 432 1385 Q444 1357 444 1325 Q444 1293 432 1264.5 Q420 1236 399 1215 Q378 1194 349.5 1181.5 Q321 1169 289 1169 Z " />
<glyph glyph-name="k" unicode="k" horiz-adv-x="1159" d="M807 0 L518 553 L420 459 L420 0 L154 0 L154 1354 L420 1479 L420 762 L700 1047 L1020 1047 L713 743 L1098 0 L807 0 Z " />
<glyph glyph-name="l" unicode="l" horiz-adv-x="594" d="M164 0 L164 1354 L430 1479 L430 0 L164 0 Z " />
<glyph glyph-name="m" unicode="m" horiz-adv-x="1792" d="M1382 0 L1382 616 Q1382 682 1366 721.5 Q1350 761 1326 782 Q1302 803 1273 809 Q1244 815 1217 815 Q1187 815 1154.5 808.5 Q1122 802 1095.5 781.5 Q1069 761 1051.5 722 Q1034 683 1034 618 L1034 0 L768 0 L768 616 Q768 682 752 721.5 Q736 761 712 782 Q688 803 658.5 809 Q629 815 602 815 Q573 815 541 808.5 Q509 802 482 781.5 Q455 761 437.5 722 Q420 683 420 618 L420 0 L154 0 L154 1047 L420 1047 L420 950 Q462 1006 523 1038.5 Q584 1071 668 1071 Q767 1071 833 1033.5 Q899 996 936 924 Q992 1001 1076 1036 Q1160 1071 1257 1071 Q1340 1071 1412 1050.5 Q1484 1030 1536.5 982 Q1589 934 1619 854.5 Q1649 775 1649 657 L1649 0 L1382 0 Z " />
<glyph glyph-name="n" unicode="n" horiz-adv-x="1210" d="M801 0 L801 614 Q801 667 787 705 Q773 743 748 767.5 Q723 792 690 803.5 Q657 815 618 815 Q577 815 541 804.5 Q505 794 478 770.5 Q451 747 435.5 709.5 Q420 672 420 618 L420 0 L154 0 L154 1047 L420 1047 L420 948 Q468 1007 538.5 1039 Q609 1071 700 1071 Q767 1071 833 1051 Q899 1031 951 983 Q1003 935 1035 856 Q1067 777 1067 659 L1067 0 L801 0 Z " />
<glyph glyph-name="o" unicode="o" horiz-adv-x="1167" d="M584 -25 Q473 -25 384 12.5 Q295 50 232.5 120.5 Q170 191 136 292.5 Q102 394 102 522 Q102 650 136 752 Q170 854 232.5 925 Q295 996 384 1033.5 Q473 1071 584 1071 Q695 1071 784 1033.5 Q873 996 935.5 925 Q998 854 1031.5 752 Q1065 650 1065 522 Q1065 394 1031.5 292.5 Q998 191 935.5 120.5 Q873 50 784 12.5 Q695 -25 584 -25 Z M584 231 Q634 231 674 251 Q714 271 741.5 308.5 Q769 346 784 400 Q799 454 799 522 Q799 591 784 645 Q769 699 741.5 737 Q714 775 674 795 Q634 815 584 815 Q534 815 494 795 Q454 775 426.5 737 Q399 699 384 645 Q369 591 369 522 Q369 454 384 400 Q399 346 426.5 308.5 Q454 271 494 251 Q534 231 584 231 Z " />
<glyph glyph-name="p" unicode="p" horiz-adv-x="1180" d="M643 -25 Q566 -25 510 3 Q454 31 420 76 L420 -289 L154 -410 L154 1047 L420 1047 L420 971 Q454 1016 510.5 1043.5 Q567 1071 645 1071 Q742 1071 822 1035 Q902 999 958.5 929.5 Q1015 860 1046 757.5 Q1077 655 1077 522 Q1077 394 1044.5 292.5 Q1012 191 954 120.5 Q896 50 816.5 12.5 Q737 -25 643 -25 Z M602 231 Q702 231 756.5 306.5 Q811 382 811 522 Q811 589 797.5 643 Q784 697 757.5 735 Q731 773 692 794 Q653 815 602 815 Q537 815 493 793 Q449 771 420 731 L420 317 Q430 302 447 286.5 Q464 271 487 258.5 Q510 246 539 238.5 Q568 231 602 231 Z " />
<glyph glyph-name="q" unicode="q" horiz-adv-x="1180" d="M537 -25 Q443 -25 363.5 12.5 Q284 50 226 120.5 Q168 191 135 292.5 Q102 394 102 522 Q102 655 134.5 757.5 Q167 860 226 929.5 Q285 999 367 1035 Q449 1071 547 1071 Q622 1071 674 1045.5 Q726 1020 760 971 L760 1047 L1026 1047 L1026 -289 L760 -410 L760 76 Q726 31 670 3 Q614 -25 537 -25 Z M578 231 Q612 231 640.5 238.5 Q669 246 692.5 258.5 Q716 271 733 286.5 Q750 302 760 317 L760 731 Q731 771 687 793 Q643 815 578 815 Q527 815 488 794 Q449 773 422.5 735 Q396 697 382.5 643 Q369 589 369 522 Q369 382 423 306.5 Q477 231 578 231 Z " />
<glyph glyph-name="r" unicode="r" horiz-adv-x="879" d="M154 0 L154 1047 L420 1047 L420 954 Q442 1004 489.5 1037.5 Q537 1071 614 1071 Q679 1071 730.5 1050 Q782 1029 827 991 L791 748 Q753 774 707.5 791.5 Q662 809 600 809 Q565 809 532.5 799 Q500 789 475 764 Q450 739 435 695 Q420 651 420 584 L420 0 L154 0 Z " />
<glyph glyph-name="s" unicode="s" horiz-adv-x="1012" d="M698 758 Q683 773 663.5 789 Q644 805 619 817.5 Q594 830 562.5 838 Q531 846 494 846 Q434 846 397 826 Q360 806 360 768 Q360 747 377 729 Q394 711 422.5 696 Q451 681 488 667.5 Q525 654 565 641 Q632 619 694.5 591 Q757 563 804.5 523 Q852 483 880.5 427 Q909 371 909 293 Q909 216 880 157 Q851 98 797.5 57.5 Q744 17 668.5 -4 Q593 -25 500 -25 Q436 -25 374.5 -11.5 Q313 2 258 26.5 Q203 51 158 86 Q113 121 82 164 L258 313 Q275 297 299.5 277.5 Q324 258 355.5 241 Q387 224 424.5 212.5 Q462 201 504 201 Q573 201 617.5 221.5 Q662 242 662 293 Q662 318 646.5 338 Q631 358 602 375.5 Q573 393 531 410 Q489 427 436 446 Q362 473 302 502 Q242 531 200 568.5 Q158 606 135.5 656 Q113 706 113 776 Q113 848 143 903 Q173 958 224.5 995.5 Q276 1033 345.5 1052 Q415 1071 494 1071 Q561 1071 619 1057 Q677 1043 724.5 1020 Q772 997 810 966.5 Q848 936 877 903 L698 758 Z " />
<glyph glyph-name="t" unicode="t" horiz-adv-x="805" d="M465 -25 Q397 -25 349 -6 Q301 13 270.5 48.5 Q240 84 225.5 135.5 Q211 187 211 252 L211 813 L61 813 L61 1047 L211 1047 L211 1352 L477 1479 L477 1047 L711 1047 L711 813 L477 813 L477 291 Q477 251 496.5 230 Q516 209 551 209 Q591 209 634 220.5 Q677 232 723 254 L692 23 Q646 0 588 -12.5 Q530 -25 465 -25 Z " />
<glyph glyph-name="u" unicode="u" horiz-adv-x="1210" d="M791 0 L791 98 Q743 39 672 7 Q601 -25 510 -25 Q443 -25 377.5 -4.5 Q312 16 260 64 Q208 112 175.5 191 Q143 270 143 387 L143 1047 L410 1047 L410 432 Q410 379 424 341 Q438 303 462.5 278.5 Q487 254 520 242.5 Q553 231 592 231 Q633 231 669.5 241.5 Q706 252 733 275.5 Q760 299 775.5 336.5 Q791 374 791 428 L791 1047 L1057 1047 L1057 0 L791 0 Z " />
<glyph glyph-name="v" unicode="v" horiz-adv-x="1145" d="M711 0 L434 0 L51 1047 L326 1047 L545 426 Q553 403 560 378.5 Q567 354 573 330 Q586 378 602 426 L819 1047 L1094 1047 L711 0 Z " />
<glyph glyph-name="w" unicode="w" horiz-adv-x="1538" d="M1171 0 L936 0 L803 522 Q799 536 794.5 555.5 Q790 575 785 596.5 Q780 618 775.5 639 Q771 660 768 678 Q765 660 760.5 639 Q756 618 751 596.5 Q746 575 741.5 555.5 Q737 536 733 522 L600 0 L365 0 L72 1047 L334 1047 L457 537 Q465 506 471 468.5 Q477 431 483 399 Q490 431 498 468.5 Q506 506 514 537 L647 1047 L889 1047 L1020 537 Q1028 506 1036 468.5 Q1044 431 1051 399 Q1057 431 1063 468.5 Q1069 506 1077 537 L1204 1047 L1466 1047 L1171 0 Z " />
<glyph glyph-name="x" unicode="x" horiz-adv-x="1210" d="M829 0 L664 236 Q648 259 631.5 285.5 Q615 312 604 332 Q595 312 578.5 286 Q562 260 545 236 L381 0 L72 0 L451 543 L98 1047 L408 1047 L545 848 Q562 823 578.5 797.5 Q595 772 604 752 Q615 772 631.5 798.5 Q648 825 664 848 L803 1047 L1112 1047 L760 543 L1139 0 L829 0 Z " />
<glyph glyph-name="y" unicode="y" horiz-adv-x="1167" d="M561 -397 L285 -397 L444 14 L51 1047 L324 1047 L553 442 Q571 395 584 346 Q590 371 598 395 Q606 419 614 442 L844 1047 L1116 1047 L561 -397 Z " />
<glyph glyph-name="z" unicode="z" horiz-adv-x="1114" d="M113 0 L113 209 L653 809 L152 809 L152 1047 L991 1047 L991 844 L453 238 L989 238 L989 0 L113 0 Z " />
<glyph glyph-name="braceleft" unicode="&#x7b;" horiz-adv-x="778" d="M696 -266 Q589 -264 502.5 -233 Q416 -202 354 -142 Q292 -82 258.5 7 Q225 96 225 213 L225 348 Q225 405 204.5 440 Q184 475 143 475 L82 475 L82 717 L143 717 Q184 717 204.5 752.5 Q225 788 225 844 L225 977 Q225 1094 258.5 1183 Q292 1272 354 1332 Q416 1392 502.5 1423.5 Q589 1455 696 1458 L696 1214 Q594 1209 543 1157.5 Q492 1106 492 1012 L492 864 Q492 804 482 759.5 Q472 715 453.5 682.5 Q435 650 408.5 629 Q382 608 350 596 Q415 571 453.5 503 Q492 435 492 326 L492 178 Q492 84 543 32 Q594 -20 696 -25 L696 -266 Z " />
<glyph glyph-name="bar" unicode="&#x7c;" horiz-adv-x="614" d="M174 -420 L174 1649 L440 1649 L440 -420 L174 -420 Z " />
<glyph glyph-name="braceright" unicode="&#x7d;" horiz-adv-x="778" d="M82 -25 Q184 -20 235.5 32 Q287 84 287 178 L287 326 Q287 435 325 503 Q363 571 428 596 Q396 608 370 629 Q344 650 325.5 682.5 Q307 715 297 759.5 Q287 804 287 864 L287 1012 Q287 1106 235.5 1157.5 Q184 1209 82 1214 L82 1458 Q189 1455 276 1423.5 Q363 1392 424.5 1332 Q486 1272 519.5 1183 Q553 1094 553 977 L553 844 Q553 788 574 752.5 Q595 717 635 717 L696 717 L696 475 L635 475 Q595 475 574 440 Q553 405 553 348 L553 213 Q553 96 519.5 7 Q486 -82 424.5 -142 Q363 -202 276 -233 Q189 -264 82 -266 L82 -25 Z " />
<glyph glyph-name="asciitilde" unicode="&#x7e;" horiz-adv-x="1290" d="M838 518 Q772 518 719.5 535.5 Q667 553 623 573.5 Q579 594 540.5 611.5 Q502 629 465 629 Q418 629 397 597.5 Q376 566 371 518 L160 518 Q160 591 176 658 Q192 725 227 776.5 Q262 828 317.5 858.5 Q373 889 451 889 Q516 889 567 871.5 Q618 854 661.5 833.5 Q705 813 743.5 795.5 Q782 778 823 778 Q870 778 891.5 808.5 Q913 839 918 889 L1128 889 Q1128 816 1112.5 749 Q1097 682 1062.5 630.5 Q1028 579 972.5 548.5 Q917 518 838 518 Z " />
<glyph glyph-name="Adieresis" unicode="&#xc4;" horiz-adv-x="1520" d="M1147 0 L1036 297 L483 297 L373 0 L76 0 L625 1434 L895 1434 L1444 0 L1147 0 Z M805 922 Q794 948 781.5 984 Q769 1020 760 1051 Q752 1020 739 984 Q726 948 715 922 L573 549 L946 549 L805 922 Z M565 1579 Q533 1579 506 1590.5 Q479 1602 458.5 1622 Q438 1642 426.5 1669 Q415 1696 415 1728 Q415 1759 426.5 1786.5 Q438 1814 458.5 1834.5 Q479 1855 506 1866.5 Q533 1878 565 1878 Q596 1878 623.5 1866.5 Q651 1855 671 1834.5 Q691 1814 702.5 1786.5 Q714 1759 714 1728 Q714 1696 702.5 1669 Q691 1642 671 1622 Q651 1602 623.5 1590.5 Q596 1579 565 1579 Z M954 1579 Q922 1579 895 1590.5 Q868 1602 847.5 1622 Q827 1642 815.5 1669 Q804 1696 804 1728 Q804 1759 815.5 1786.5 Q827 1814 847.5 1834.5 Q868 1855 895 1866.5 Q922 1878 954 1878 Q985 1878 1012.5 1866.5 Q1040 1855 1060 1834.5 Q1080 1814 1091.5 1786.5 Q1103 1759 1103 1728 Q1103 1696 1091.5 1669 Q1080 1642 1060 1622 Q1040 1602 1012.5 1590.5 Q985 1579 954 1579 Z " />
<glyph glyph-name="Aring" unicode="&#xc5;" horiz-adv-x="1520" d="M1147 0 L1036 297 L483 297 L373 0 L76 0 L578 1315 Q539 1350 516.5 1400 Q494 1450 494 1507 Q494 1562 515 1609.5 Q536 1657 572 1692.5 Q608 1728 656.5 1748.5 Q705 1769 760 1769 Q814 1769 862.5 1748.5 Q911 1728 947.5 1692.5 Q984 1657 1005 1609.5 Q1026 1562 1026 1507 Q1026 1450 1003 1400 Q980 1350 940 1315 L1444 0 L1147 0 Z M805 922 Q794 948 781.5 984 Q769 1020 760 1051 Q752 1020 739 984 Q726 948 715 922 L573 549 L946 549 L805 922 Z M760 1425 Q792 1425 816 1448.5 Q840 1472 840 1507 Q840 1542 816 1565.5 Q792 1589 760 1589 Q726 1589 703 1565.5 Q680 1542 680 1507 Q680 1472 703 1448.5 Q726 1425 760 1425 Z " />
<glyph glyph-name="Ccedilla" unicode="&#xc7;" horiz-adv-x="1352" d="M719 -500 Q632 -500 578.5 -472.5 Q525 -445 494 -403 L608 -317 Q621 -333 642 -344.5 Q663 -356 692 -356 Q740 -356 765.5 -335 Q791 -314 791 -276 Q791 -239 764.5 -218 Q738 -197 690 -197 Q665 -197 643.5 -204 Q622 -211 602 -225 L547 -158 L662 -18 Q564 -9 486.5 26 Q409 61 350 115 Q291 169 250 238.5 Q209 308 183 386.5 Q157 465 145 549 Q133 633 133 717 Q133 799 147 885.5 Q161 972 190.5 1054 Q220 1136 267.5 1209 Q315 1282 381.5 1337 Q448 1392 536 1424 Q624 1456 735 1456 Q838 1456 922 1428 Q1006 1400 1070 1354.5 Q1134 1309 1178.5 1251 Q1223 1193 1247 1133 L999 1020 Q973 1060 946 1092 Q919 1124 888 1145.5 Q857 1167 819.5 1178.5 Q782 1190 735 1190 Q675 1190 628 1169.5 Q581 1149 546 1114 Q511 1079 487 1032 Q463 985 448 932.5 Q433 880 426.5 824.5 Q420 769 420 717 Q420 633 438 549 Q456 465 494 397 Q532 329 591.5 286.5 Q651 244 735 244 Q779 244 816 257.5 Q853 271 884.5 295 Q916 319 943.5 353 Q971 387 995 428 L1249 332 Q1218 260 1176.5 200 Q1135 140 1081 94.5 Q1027 49 960.5 20 Q894 -9 813 -18 L766 -94 Q826 -94 869.5 -108 Q913 -122 941.5 -147 Q970 -172 983.5 -206 Q997 -240 997 -279 Q997 -327 978.5 -367.5 Q960 -408 924.5 -437.5 Q889 -467 837.5 -483.5 Q786 -500 719 -500 Z " />
<glyph glyph-name="Eacute" unicode="&#xc9;" horiz-adv-x="1319" d="M184 0 L184 1434 L1163 1434 L1163 1171 L461 1171 L461 870 L874 870 L874 608 L461 608 L461 262 L1206 262 L1206 0 L184 0 Z M708 1569 L450 1569 L741 1888 L1073 1888 L708 1569 Z " />
<glyph glyph-name="Ntilde" unicode="&#xd1;" horiz-adv-x="1511" d="M1081 0 L512 836 Q498 857 481.5 887.5 Q465 918 453 944 Q456 921 457.5 890 Q459 859 459 836 L459 0 L184 0 L184 1434 L444 1434 L999 608 Q1012 588 1029 558 Q1046 528 1059 500 Q1056 529 1054.5 558.5 Q1053 588 1053 608 L1053 1434 L1327 1434 L1327 0 L1081 0 Z M936 1583 Q882 1583 836.5 1597.5 Q791 1612 751 1630 Q711 1648 674 1662.5 Q637 1677 598 1677 Q560 1677 532.5 1657.5 Q505 1638 502 1591 L377 1591 Q377 1652 389 1704 Q401 1756 428.5 1794 Q456 1832 501.5 1853 Q547 1874 613 1874 Q667 1874 712.5 1859.5 Q758 1845 798 1827 Q838 1809 875 1794.5 Q912 1780 951 1780 Q989 1780 1016.5 1799.5 Q1044 1819 1047 1866 L1172 1866 Q1172 1804 1160 1752.5 Q1148 1701 1120 1663 Q1092 1625 1047 1604 Q1002 1583 936 1583 Z " />
<glyph glyph-name="Odieresis" unicode="&#xd6;" horiz-adv-x="1530" d="M766 -25 Q650 -25 558 5.5 Q466 36 395.5 88.5 Q325 141 275 212.5 Q225 284 193.5 366.5 Q162 449 147.5 538.5 Q133 628 133 717 Q133 805 147.5 894.5 Q162 984 193.5 1066.5 Q225 1149 275 1220.5 Q325 1292 395.5 1344.5 Q466 1397 558 1427.5 Q650 1458 766 1458 Q882 1458 973.5 1427.5 Q1065 1397 1135 1344.5 Q1205 1292 1255 1220.5 Q1305 1149 1336.5 1066.5 Q1368 984 1382.5 894.5 Q1397 805 1397 717 Q1397 628 1382.5 538.5 Q1368 449 1336.5 366.5 Q1305 284 1255 212.5 Q1205 141 1135 88.5 Q1065 36 973.5 5.5 Q882 -25 766 -25 Z M766 242 Q862 242 927.5 287 Q993 332 1033.5 402 Q1074 472 1092 555.5 Q1110 639 1110 717 Q1110 772 1102.5 828.5 Q1095 885 1078 937.5 Q1061 990 1034 1036.5 Q1007 1083 969 1117.5 Q931 1152 880.5 1172 Q830 1192 766 1192 Q701 1192 650.5 1171 Q600 1150 561.5 1114.5 Q523 1079 496 1032 Q469 985 452 932 Q435 879 427.5 824 Q420 769 420 717 Q420 635 438 550.5 Q456 466 496.5 397.5 Q537 329 603 285.5 Q669 242 766 242 Z M572 1579 Q540 1579 513 1590.5 Q486 1602 465.5 1622 Q445 1642 433.5 1669 Q422 1696 422 1728 Q422 1759 433.5 1786.5 Q445 1814 465.5 1834.5 Q486 1855 513 1866.5 Q540 1878 572 1878 Q603 1878 630.5 1866.5 Q658 1855 678 1834.5 Q698 1814 709.5 1786.5 Q721 1759 721 1728 Q721 1696 709.5 1669 Q698 1642 678 1622 Q658 1602 630.5 1590.5 Q603 1579 572 1579 Z M961 1579 Q929 1579 902 1590.5 Q875 1602 854.5 1622 Q834 1642 822.5 1669 Q811 1696 811 1728 Q811 1759 822.5 1786.5 Q834 1814 854.5 1834.5 Q875 1855 902 1866.5 Q929 1878 961 1878 Q992 1878 1019.5 1866.5 Q1047 1855 1067 1834.5 Q1087 1814 1098.5 1786.5 Q1110 1759 1110 1728 Q1110 1696 1098.5 1669 Q1087 1642 1067 1622 Q1047 1602 1019.5 1590.5 Q992 1579 961 1579 Z " />
<glyph glyph-name="Udieresis" unicode="&#xdc;" horiz-adv-x="1503" d="M752 -25 Q679 -25 607.5 -12.5 Q536 0 472 28 Q408 56 353.5 100.5 Q299 145 259 209 Q219 273 196.5 357 Q174 441 174 549 L174 1434 L451 1434 L451 549 Q451 460 471.5 400.5 Q492 341 531 306 Q570 271 626 256.5 Q682 242 752 242 Q821 242 876.5 256.5 Q932 271 971.5 306 Q1011 341 1032 400.5 Q1053 460 1053 549 L1053 1434 L1329 1434 L1329 549 Q1329 389 1281 279.5 Q1233 170 1152.5 102.5 Q1072 35 968 5 Q864 -25 752 -25 Z M555 1579 Q523 1579 496 1590.5 Q469 1602 448.5 1622 Q428 1642 416.5 1669 Q405 1696 405 1728 Q405 1759 416.5 1786.5 Q428 1814 448.5 1834.5 Q469 1855 496 1866.5 Q523 1878 555 1878 Q586 1878 613.5 1866.5 Q641 1855 661 1834.5 Q681 1814 692.5 1786.5 Q704 1759 704 1728 Q704 1696 692.5 1669 Q681 1642 661 1622 Q641 1602 613.5 1590.5 Q586 1579 555 1579 Z M944 1579 Q912 1579 885 1590.5 Q858 1602 837.5 1622 Q817 1642 805.5 1669 Q794 1696 794 1728 Q794 1759 805.5 1786.5 Q817 1814 837.5 1834.5 Q858 1855 885 1866.5 Q912 1878 944 1878 Q975 1878 1002.5 1866.5 Q1030 1855 1050 1834.5 Q1070 1814 1081.5 1786.5 Q1093 1759 1093 1728 Q1093 1696 1081.5 1669 Q1070 1642 1050 1622 Q1030 1602 1002.5 1590.5 Q975 1579 944 1579 Z " />
<glyph glyph-name="aacute" unicode="&#xe1;" horiz-adv-x="1143" d="M748 0 L748 76 Q730 57 704.5 39 Q679 21 645 6.5 Q611 -8 569.5 -16.5 Q528 -25 477 -25 Q396 -25 326 -3 Q256 19 204 63 Q152 107 122 171.5 Q92 236 92 322 Q92 412 128 477.5 Q164 543 222.5 585.5 Q281 628 355.5 648 Q430 668 508 668 Q583 668 641.5 654.5 Q700 641 748 618 L748 672 Q748 758 699 798 Q650 838 559 838 Q466 838 388 811 Q310 784 236 733 L154 948 Q191 973 237.5 995.5 Q284 1018 338 1035 Q392 1052 453.5 1061.5 Q515 1071 582 1071 Q629 1071 679 1066 Q729 1061 776.5 1046 Q824 1031 866.5 1003 Q909 975 941 930.5 Q973 886 991.5 821.5 Q1010 757 1010 668 L1010 0 L748 0 Z M528 209 Q601 209 655 234.5 Q709 260 748 295 L748 408 Q707 423 656.5 432.5 Q606 442 553 442 Q512 442 475.5 435.5 Q439 429 411.5 414.5 Q384 400 368 377 Q352 354 352 322 Q352 271 397 240 Q442 209 528 209 Z M563 1180 L305 1180 L596 1499 L928 1499 L563 1180 Z " />
<glyph glyph-name="agrave" unicode="&#xe0;" horiz-adv-x="1143" d="M748 0 L748 76 Q730 57 704.5 39 Q679 21 645 6.5 Q611 -8 569.5 -16.5 Q528 -25 477 -25 Q396 -25 326 -3 Q256 19 204 63 Q152 107 122 171.5 Q92 236 92 322 Q92 412 128 477.5 Q164 543 222.5 585.5 Q281 628 355.5 648 Q430 668 508 668 Q583 668 641.5 654.5 Q700 641 748 618 L748 672 Q748 758 699 798 Q650 838 559 838 Q466 838 388 811 Q310 784 236 733 L154 948 Q191 973 237.5 995.5 Q284 1018 338 1035 Q392 1052 453.5 1061.5 Q515 1071 582 1071 Q629 1071 679 1066 Q729 1061 776.5 1046 Q824 1031 866.5 1003 Q909 975 941 930.5 Q973 886 991.5 821.5 Q1010 757 1010 668 L1010 0 L748 0 Z M528 209 Q601 209 655 234.5 Q709 260 748 295 L748 408 Q707 423 656.5 432.5 Q606 442 553 442 Q512 442 475.5 435.5 Q439 429 411.5 414.5 Q384 400 368 377 Q352 354 352 322 Q352 271 397 240 Q442 209 528 209 Z M605 1180 L240 1499 L572 1499 L863 1180 L605 1180 Z " />
<glyph glyph-name="acircumflex" unicode="&#xe2;" horiz-adv-x="1143" d="M748 0 L748 76 Q730 57 704.5 39 Q679 21 645 6.5 Q611 -8 569.5 -16.5 Q528 -25 477 -25 Q396 -25 326 -3 Q256 19 204 63 Q152 107 122 171.5 Q92 236 92 322 Q92 412 128 477.5 Q164 543 222.5 585.5 Q281 628 355.5 648 Q430 668 508 668 Q583 668 641.5 654.5 Q700 641 748 618 L748 672 Q748 758 699 798 Q650 838 559 838 Q466 838 388 811 Q310 784 236 733 L154 948 Q191 973 237.5 995.5 Q284 1018 338 1035 Q392 1052 453.5 1061.5 Q515 1071 582 1071 Q629 1071 679 1066 Q729 1061 776.5 1046 Q824 1031 866.5 1003 Q909 975 941 930.5 Q973 886 991.5 821.5 Q1010 757 1010 668 L1010 0 L748 0 Z M528 209 Q601 209 655 234.5 Q709 260 748 295 L748 408 Q707 423 656.5 432.5 Q606 442 553 442 Q512 442 475.5 435.5 Q439 429 411.5 414.5 Q384 400 368 377 Q352 354 352 322 Q352 271 397 240 Q442 209 528 209 Z M755 1180 L583 1321 L411 1180 L166 1180 L456 1499 L712 1499 L1001 1180 L755 1180 Z " />
<glyph glyph-name="adieresis" unicode="&#xe4;" horiz-adv-x="1143" d="M748 0 L748 76 Q730 57 704.5 39 Q679 21 645 6.5 Q611 -8 569.5 -16.5 Q528 -25 477 -25 Q396 -25 326 -3 Q256 19 204 63 Q152 107 122 171.5 Q92 236 92 322 Q92 412 128 477.5 Q164 543 222.5 585.5 Q281 628 355.5 648 Q430 668 508 668 Q583 668 641.5 654.5 Q700 641 748 618 L748 672 Q748 758 699 798 Q650 838 559 838 Q466 838 388 811 Q310 784 236 733 L154 948 Q191 973 237.5 995.5 Q284 1018 338 1035 Q392 1052 453.5 1061.5 Q515 1071 582 1071 Q629 1071 679 1066 Q729 1061 776.5 1046 Q824 1031 866.5 1003 Q909 975 941 930.5 Q973 886 991.5 821.5 Q1010 757 1010 668 L1010 0 L748 0 Z M528 209 Q601 209 655 234.5 Q709 260 748 295 L748 408 Q707 423 656.5 432.5 Q606 442 553 442 Q512 442 475.5 435.5 Q439 429 411.5 414.5 Q384 400 368 377 Q352 354 352 322 Q352 271 397 240 Q442 209 528 209 Z M389 1190 Q357 1190 330 1201.5 Q303 1213 282.5 1233 Q262 1253 250.5 1280 Q239 1307 239 1339 Q239 1370 250.5 1397.5 Q262 1425 282.5 1445.5 Q303 1466 330 1477.5 Q357 1489 389 1489 Q420 1489 447.5 1477.5 Q475 1466 495 1445.5 Q515 1425 526.5 1397.5 Q538 1370 538 1339 Q538 1307 526.5 1280 Q515 1253 495 1233 Q475 1213 447.5 1201.5 Q420 1190 389 1190 Z M778 1190 Q746 1190 719 1201.5 Q692 1213 671.5 1233 Q651 1253 639.5 1280 Q628 1307 628 1339 Q628 1370 639.5 1397.5 Q651 1425 671.5 1445.5 Q692 1466 719 1477.5 Q746 1489 778 1489 Q809 1489 836.5 1477.5 Q864 1466 884 1445.5 Q904 1425 915.5 1397.5 Q927 1370 927 1339 Q927 1307 915.5 1280 Q904 1253 884 1233 Q864 1213 836.5 1201.5 Q809 1190 778 1190 Z " />
<glyph glyph-name="atilde" unicode="&#xe3;" horiz-adv-x="1143" d="M748 0 L748 76 Q730 57 704.5 39 Q679 21 645 6.5 Q611 -8 569.5 -16.5 Q528 -25 477 -25 Q396 -25 326 -3 Q256 19 204 63 Q152 107 122 171.5 Q92 236 92 322 Q92 412 128 477.5 Q164 543 222.5 585.5 Q281 628 355.5 648 Q430 668 508 668 Q583 668 641.5 654.5 Q700 641 748 618 L748 672 Q748 758 699 798 Q650 838 559 838 Q466 838 388 811 Q310 784 236 733 L154 948 Q191 973 237.5 995.5 Q284 1018 338 1035 Q392 1052 453.5 1061.5 Q515 1071 582 1071 Q629 1071 679 1066 Q729 1061 776.5 1046 Q824 1031 866.5 1003 Q909 975 941 930.5 Q973 886 991.5 821.5 Q1010 757 1010 668 L1010 0 L748 0 Z M528 209 Q601 209 655 234.5 Q709 260 748 295 L748 408 Q707 423 656.5 432.5 Q606 442 553 442 Q512 442 475.5 435.5 Q439 429 411.5 414.5 Q384 400 368 377 Q352 354 352 322 Q352 271 397 240 Q442 209 528 209 Z M745 1194 Q691 1194 645.5 1208.5 Q600 1223 560 1241 Q520 1259 483 1273.5 Q446 1288 407 1288 Q369 1288 341.5 1268.5 Q314 1249 311 1202 L186 1202 Q186 1263 198 1315 Q210 1367 237.5 1405 Q265 1443 310.5 1464 Q356 1485 422 1485 Q476 1485 521.5 1470.5 Q567 1456 607 1438 Q647 1420 684 1405.5 Q721 1391 760 1391 Q798 1391 825.5 1410.5 Q853 1430 856 1477 L981 1477 Q981 1415 969 1363.5 Q957 1312 929 1274 Q901 1236 856 1215 Q811 1194 745 1194 Z " />
<glyph glyph-name="aring" unicode="&#xe5;" horiz-adv-x="1143" d="M748 0 L748 76 Q730 57 704.5 39 Q679 21 645 6.5 Q611 -8 569.5 -16.5 Q528 -25 477 -25 Q396 -25 326 -3 Q256 19 204 63 Q152 107 122 171.5 Q92 236 92 322 Q92 412 128 477.5 Q164 543 222.5 585.5 Q281 628 355.5 648 Q430 668 508 668 Q583 668 641.5 654.5 Q700 641 748 618 L748 672 Q748 758 699 798 Q650 838 559 838 Q466 838 388 811 Q310 784 236 733 L154 948 Q191 973 237.5 995.5 Q284 1018 338 1035 Q392 1052 453.5 1061.5 Q515 1071 582 1071 Q629 1071 679 1066 Q729 1061 776.5 1046 Q824 1031 866.5 1003 Q909 975 941 930.5 Q973 886 991.5 821.5 Q1010 757 1010 668 L1010 0 L748 0 Z M528 209 Q601 209 655 234.5 Q709 260 748 295 L748 408 Q707 423 656.5 432.5 Q606 442 553 442 Q512 442 475.5 435.5 Q439 429 411.5 414.5 Q384 400 368 377 Q352 354 352 322 Q352 271 397 240 Q442 209 528 209 Z M583 1329 Q615 1329 639 1352.5 Q663 1376 663 1411 Q663 1446 639 1469.5 Q615 1493 583 1493 Q549 1493 526.5 1469.5 Q504 1446 504 1411 Q504 1376 526.5 1352.5 Q549 1329 583 1329 Z M583 1147 Q529 1147 480.5 1168 Q432 1189 395.5 1225 Q359 1261 338 1309 Q317 1357 317 1411 Q317 1466 338 1514 Q359 1562 395.5 1597.5 Q432 1633 480.5 1653.5 Q529 1674 583 1674 Q638 1674 686.5 1653.5 Q735 1633 771.5 1597.5 Q808 1562 829 1514 Q850 1466 850 1411 Q850 1357 829 1309 Q808 1261 771.5 1225 Q735 1189 686.5 1168 Q638 1147 583 1147 Z " />
<glyph glyph-name="ccedilla" unicode="&#xe7;" horiz-adv-x="1120" d="M543 -500 Q456 -500 402 -472.5 Q348 -445 317 -403 L432 -317 Q445 -333 466 -344.5 Q487 -356 516 -356 Q564 -356 589 -335 Q614 -314 614 -276 Q614 -239 588 -218 Q562 -197 514 -197 Q489 -197 467.5 -204 Q446 -211 426 -225 L371 -158 L487 -16 Q398 -3 327 40 Q256 83 206 152 Q156 221 129 314.5 Q102 408 102 522 Q102 650 136 752 Q170 854 232 925 Q294 996 382.5 1033.5 Q471 1071 580 1071 Q740 1071 852.5 997.5 Q965 924 1016 764 L762 680 Q739 740 694 777.5 Q649 815 586 815 Q537 815 497.5 794 Q458 773 430.5 735 Q403 697 388 643 Q373 589 373 522 Q373 455 388 401.5 Q403 348 430 310 Q457 272 495 251.5 Q533 231 580 231 Q648 231 695 270 Q742 309 764 383 L1018 307 Q975 155 878 73 Q781 -9 635 -23 L590 -94 Q650 -94 693.5 -108 Q737 -122 765.5 -147 Q794 -172 807.5 -206 Q821 -240 821 -279 Q821 -327 802.5 -367.5 Q784 -408 748.5 -437.5 Q713 -467 661.5 -483.5 Q610 -500 543 -500 Z " />
<glyph glyph-name="eacute" unicode="&#xe9;" horiz-adv-x="1147" d="M592 -25 Q478 -25 387.5 12.5 Q297 50 233.5 121 Q170 192 136 294 Q102 396 102 524 Q102 652 136 753.5 Q170 855 234 925.5 Q298 996 388.5 1033.5 Q479 1071 592 1071 Q689 1071 774 1041 Q859 1011 921 950 Q983 889 1019 796.5 Q1055 704 1055 578 Q1055 547 1054 504.5 Q1053 462 1047 420 L365 420 Q369 369 389 330 Q409 291 439.5 264 Q470 237 509 223 Q548 209 592 209 Q664 209 718 234.5 Q772 260 817 317 L981 152 Q915 71 819 23 Q723 -25 592 -25 Z M592 838 Q498 838 438.5 791 Q379 744 367 645 L795 645 Q782 738 727 788 Q672 838 592 838 Z M573 1180 L315 1180 L606 1499 L938 1499 L573 1180 Z " />
<glyph glyph-name="egrave" unicode="&#xe8;" horiz-adv-x="1147" d="M592 -25 Q478 -25 387.5 12.5 Q297 50 233.5 121 Q170 192 136 294 Q102 396 102 524 Q102 652 136 753.5 Q170 855 234 925.5 Q298 996 388.5 1033.5 Q479 1071 592 1071 Q689 1071 774 1041 Q859 1011 921 950 Q983 889 1019 796.5 Q1055 704 1055 578 Q1055 547 1054 504.5 Q1053 462 1047 420 L365 420 Q369 369 389 330 Q409 291 439.5 264 Q470 237 509 223 Q548 209 592 209 Q664 209 718 234.5 Q772 260 817 317 L981 152 Q915 71 819 23 Q723 -25 592 -25 Z M592 838 Q498 838 438.5 791 Q379 744 367 645 L795 645 Q782 738 727 788 Q672 838 592 838 Z M613 1180 L248 1499 L580 1499 L871 1180 L613 1180 Z " />
<glyph glyph-name="ecircumflex" unicode="&#xea;" horiz-adv-x="1147" d="M592 -25 Q478 -25 387.5 12.5 Q297 50 233.5 121 Q170 192 136 294 Q102 396 102 524 Q102 652 136 753.5 Q170 855 234 925.5 Q298 996 388.5 1033.5 Q479 1071 592 1071 Q689 1071 774 1041 Q859 1011 921 950 Q983 889 1019 796.5 Q1055 704 1055 578 Q1055 547 1054 504.5 Q1053 462 1047 420 L365 420 Q369 369 389 330 Q409 291 439.5 264 Q470 237 509 223 Q548 209 592 209 Q664 209 718 234.5 Q772 260 817 317 L981 152 Q915 71 819 23 Q723 -25 592 -25 Z M592 838 Q498 838 438.5 791 Q379 744 367 645 L795 645 Q782 738 727 788 Q672 838 592 838 Z M766 1180 L594 1321 L422 1180 L177 1180 L467 1499 L723 1499 L1012 1180 L766 1180 Z " />
<glyph glyph-name="edieresis" unicode="&#xeb;" horiz-adv-x="1147" d="M592 -25 Q478 -25 387.5 12.5 Q297 50 233.5 121 Q170 192 136 294 Q102 396 102 524 Q102 652 136 753.5 Q170 855 234 925.5 Q298 996 388.5 1033.5 Q479 1071 592 1071 Q689 1071 774 1041 Q859 1011 921 950 Q983 889 1019 796.5 Q1055 704 1055 578 Q1055 547 1054 504.5 Q1053 462 1047 420 L365 420 Q369 369 389 330 Q409 291 439.5 264 Q470 237 509 223 Q548 209 592 209 Q664 209 718 234.5 Q772 260 817 317 L981 152 Q915 71 819 23 Q723 -25 592 -25 Z M592 838 Q498 838 438.5 791 Q379 744 367 645 L795 645 Q782 738 727 788 Q672 838 592 838 Z M400 1190 Q368 1190 341 1201.5 Q314 1213 293.5 1233 Q273 1253 261.5 1280 Q250 1307 250 1339 Q250 1370 261.5 1397.5 Q273 1425 293.5 1445.5 Q314 1466 341 1477.5 Q368 1489 400 1489 Q431 1489 458.5 1477.5 Q486 1466 506 1445.5 Q526 1425 537.5 1397.5 Q549 1370 549 1339 Q549 1307 537.5 1280 Q526 1253 506 1233 Q486 1213 458.5 1201.5 Q431 1190 400 1190 Z M789 1190 Q757 1190 730 1201.5 Q703 1213 682.5 1233 Q662 1253 650.5 1280 Q639 1307 639 1339 Q639 1370 650.5 1397.5 Q662 1425 682.5 1445.5 Q703 1466 730 1477.5 Q757 1489 789 1489 Q820 1489 847.5 1477.5 Q875 1466 895 1445.5 Q915 1425 926.5 1397.5 Q938 1370 938 1339 Q938 1307 926.5 1280 Q915 1253 895 1233 Q875 1213 847.5 1201.5 Q820 1190 789 1190 Z " />
<glyph glyph-name="iacute" unicode="&#xed;" horiz-adv-x="578" d="M313 1180 L55 1180 L346 1499 L678 1499 L313 1180 Z M156 0 L156 1047 L422 1047 L422 0 L156 0 Z " />
<glyph glyph-name="igrave" unicode="&#xec;" horiz-adv-x="578" d="M275 1180 L-90 1499 L242 1499 L533 1180 L275 1180 Z M156 0 L156 1047 L422 1047 L422 0 L156 0 Z " />
<glyph glyph-name="icircumflex" unicode="&#xee;" horiz-adv-x="578" d="M156 0 L156 1047 L422 1047 L422 0 L156 0 Z M464 1180 L292 1321 L120 1180 L-125 1180 L165 1499 L421 1499 L710 1180 L464 1180 Z " />
<glyph glyph-name="idieresis" unicode="&#xef;" horiz-adv-x="578" d="M98 1190 Q66 1190 39 1201.5 Q12 1213 -8.5 1233 Q-29 1253 -40.5 1280 Q-52 1307 -52 1339 Q-52 1370 -40.5 1397.5 Q-29 1425 -8.5 1445.5 Q12 1466 39 1477.5 Q66 1489 98 1489 Q129 1489 156.5 1477.5 Q184 1466 204 1445.5 Q224 1425 235.5 1397.5 Q247 1370 247 1339 Q247 1307 235.5 1280 Q224 1253 204 1233 Q184 1213 156.5 1201.5 Q129 1190 98 1190 Z M487 1190 Q455 1190 428 1201.5 Q401 1213 380.5 1233 Q360 1253 348.5 1280 Q337 1307 337 1339 Q337 1370 348.5 1397.5 Q360 1425 380.5 1445.5 Q401 1466 428 1477.5 Q455 1489 487 1489 Q518 1489 545.5 1477.5 Q573 1466 593 1445.5 Q613 1425 624.5 1397.5 Q636 1370 636 1339 Q636 1307 624.5 1280 Q613 1253 593 1233 Q573 1213 545.5 1201.5 Q518 1190 487 1190 Z M156 0 L156 1047 L422 1047 L422 0 L156 0 Z " />
<glyph glyph-name="ntilde" unicode="&#xf1;" horiz-adv-x="1210" d="M801 0 L801 614 Q801 667 787 705 Q773 743 748 767.5 Q723 792 690 803.5 Q657 815 618 815 Q577 815 541 804.5 Q505 794 478 770.5 Q451 747 435.5 709.5 Q420 672 420 618 L420 0 L154 0 L154 1047 L420 1047 L420 948 Q468 1007 538.5 1039 Q609 1071 700 1071 Q767 1071 833 1051 Q899 1031 951 983 Q1003 935 1035 856 Q1067 777 1067 659 L1067 0 L801 0 Z M768 1194 Q714 1194 668.5 1208.5 Q623 1223 583 1241 Q543 1259 506 1273.5 Q469 1288 430 1288 Q392 1288 364.5 1268.5 Q337 1249 334 1202 L209 1202 Q209 1263 221 1315 Q233 1367 260.5 1405 Q288 1443 333.5 1464 Q379 1485 445 1485 Q499 1485 544.5 1470.5 Q590 1456 630 1438 Q670 1420 707 1405.5 Q744 1391 783 1391 Q821 1391 848.5 1410.5 Q876 1430 879 1477 L1004 1477 Q1004 1415 992 1363.5 Q980 1312 952 1274 Q924 1236 879 1215 Q834 1194 768 1194 Z " />
<glyph glyph-name="oacute" unicode="&#xf3;" horiz-adv-x="1167" d="M584 -25 Q473 -25 384 12.5 Q295 50 232.5 120.5 Q170 191 136 292.5 Q102 394 102 522 Q102 650 136 752 Q170 854 232.5 925 Q295 996 384 1033.5 Q473 1071 584 1071 Q695 1071 784 1033.5 Q873 996 935.5 925 Q998 854 1031.5 752 Q1065 650 1065 522 Q1065 394 1031.5 292.5 Q998 191 935.5 120.5 Q873 50 784 12.5 Q695 -25 584 -25 Z M584 231 Q634 231 674 251 Q714 271 741.5 308.5 Q769 346 784 400 Q799 454 799 522 Q799 591 784 645 Q769 699 741.5 737 Q714 775 674 795 Q634 815 584 815 Q534 815 494 795 Q454 775 426.5 737 Q399 699 384 645 Q369 591 369 522 Q369 454 384 400 Q399 346 426.5 308.5 Q454 271 494 251 Q534 231 584 231 Z M561 1180 L303 1180 L594 1499 L926 1499 L561 1180 Z " />
<glyph glyph-name="ograve" unicode="&#xf2;" horiz-adv-x="1167" d="M584 -25 Q473 -25 384 12.5 Q295 50 232.5 120.5 Q170 191 136 292.5 Q102 394 102 522 Q102 650 136 752 Q170 854 232.5 925 Q295 996 384 1033.5 Q473 1071 584 1071 Q695 1071 784 1033.5 Q873 996 935.5 925 Q998 854 1031.5 752 Q1065 650 1065 522 Q1065 394 1031.5 292.5 Q998 191 935.5 120.5 Q873 50 784 12.5 Q695 -25 584 -25 Z M584 231 Q634 231 674 251 Q714 271 741.5 308.5 Q769 346 784 400 Q799 454 799 522 Q799 591 784 645 Q769 699 741.5 737 Q714 775 674 795 Q634 815 584 815 Q534 815 494 795 Q454 775 426.5 737 Q399 699 384 645 Q369 591 369 522 Q369 454 384 400 Q399 346 426.5 308.5 Q454 271 494 251 Q534 231 584 231 Z M602 1180 L237 1499 L569 1499 L860 1180 L602 1180 Z " />
<glyph glyph-name="ocircumflex" unicode="&#xf4;" horiz-adv-x="1167" d="M584 -25 Q473 -25 384 12.5 Q295 50 232.5 120.5 Q170 191 136 292.5 Q102 394 102 522 Q102 650 136 752 Q170 854 232.5 925 Q295 996 384 1033.5 Q473 1071 584 1071 Q695 1071 784 1033.5 Q873 996 935.5 925 Q998 854 1031.5 752 Q1065 650 1065 522 Q1065 394 1031.5 292.5 Q998 191 935.5 120.5 Q873 50 784 12.5 Q695 -25 584 -25 Z M584 231 Q634 231 674 251 Q714 271 741.5 308.5 Q769 346 784 400 Q799 454 799 522 Q799 591 784 645 Q769 699 741.5 737 Q714 775 674 795 Q634 815 584 815 Q534 815 494 795 Q454 775 426.5 737 Q399 699 384 645 Q369 591 369 522 Q369 454 384 400 Q399 346 426.5 308.5 Q454 271 494 251 Q534 231 584 231 Z M753 1180 L581 1321 L409 1180 L164 1180 L454 1499 L710 1499 L999 1180 L753 1180 Z " />
<glyph glyph-name="odieresis" unicode="&#xf6;" horiz-adv-x="1167" d="M584 -25 Q473 -25 384 12.5 Q295 50 232.5 120.5 Q170 191 136 292.5 Q102 394 102 522 Q102 650 136 752 Q170 854 232.5 925 Q295 996 384 1033.5 Q473 1071 584 1071 Q695 1071 784 1033.5 Q873 996 935.5 925 Q998 854 1031.5 752 Q1065 650 1065 522 Q1065 394 1031.5 292.5 Q998 191 935.5 120.5 Q873 50 784 12.5 Q695 -25 584 -25 Z M584 231 Q634 231 674 251 Q714 271 741.5 308.5 Q769 346 784 400 Q799 454 799 522 Q799 591 784 645 Q769 699 741.5 737 Q714 775 674 795 Q634 815 584 815 Q534 815 494 795 Q454 775 426.5 737 Q399 699 384 645 Q369 591 369 522 Q369 454 384 400 Q399 346 426.5 308.5 Q454 271 494 251 Q534 231 584 231 Z M387 1190 Q355 1190 328 1201.5 Q301 1213 280.5 1233 Q260 1253 248.5 1280 Q237 1307 237 1339 Q237 1370 248.5 1397.5 Q260 1425 280.5 1445.5 Q301 1466 328 1477.5 Q355 1489 387 1489 Q418 1489 445.5 1477.5 Q473 1466 493 1445.5 Q513 1425 524.5 1397.5 Q536 1370 536 1339 Q536 1307 524.5 1280 Q513 1253 493 1233 Q473 1213 445.5 1201.5 Q418 1190 387 1190 Z M776 1190 Q744 1190 717 1201.5 Q690 1213 669.5 1233 Q649 1253 637.5 1280 Q626 1307 626 1339 Q626 1370 637.5 1397.5 Q649 1425 669.5 1445.5 Q690 1466 717 1477.5 Q744 1489 776 1489 Q807 1489 834.5 1477.5 Q862 1466 882 1445.5 Q902 1425 913.5 1397.5 Q925 1370 925 1339 Q925 1307 913.5 1280 Q902 1253 882 1233 Q862 1213 834.5 1201.5 Q807 1190 776 1190 Z " />
<glyph glyph-name="otilde" unicode="&#xf5;" horiz-adv-x="1167" d="M584 -25 Q473 -25 384 12.5 Q295 50 232.5 120.5 Q170 191 136 292.5 Q102 394 102 522 Q102 650 136 752 Q170 854 232.5 925 Q295 996 384 1033.5 Q473 1071 584 1071 Q695 1071 784 1033.5 Q873 996 935.5 925 Q998 854 1031.5 752 Q1065 650 1065 522 Q1065 394 1031.5 292.5 Q998 191 935.5 120.5 Q873 50 784 12.5 Q695 -25 584 -25 Z M584 231 Q634 231 674 251 Q714 271 741.5 308.5 Q769 346 784 400 Q799 454 799 522 Q799 591 784 645 Q769 699 741.5 737 Q714 775 674 795 Q634 815 584 815 Q534 815 494 795 Q454 775 426.5 737 Q399 699 384 645 Q369 591 369 522 Q369 454 384 400 Q399 346 426.5 308.5 Q454 271 494 251 Q534 231 584 231 Z M743 1194 Q689 1194 643.5 1208.5 Q598 1223 558 1241 Q518 1259 481 1273.5 Q444 1288 405 1288 Q367 1288 339.5 1268.5 Q312 1249 309 1202 L184 1202 Q184 1263 196 1315 Q208 1367 235.5 1405 Q263 1443 308.5 1464 Q354 1485 420 1485 Q474 1485 519.5 1470.5 Q565 1456 605 1438 Q645 1420 682 1405.5 Q719 1391 758 1391 Q796 1391 823.5 1410.5 Q851 1430 854 1477 L979 1477 Q979 1415 967 1363.5 Q955 1312 927 1274 Q899 1236 854 1215 Q809 1194 743 1194 Z " />
<glyph glyph-name="uacute" unicode="&#xfa;" horiz-adv-x="1210" d="M791 0 L791 98 Q743 39 672 7 Q601 -25 510 -25 Q443 -25 377.5 -4.5 Q312 16 260 64 Q208 112 175.5 191 Q143 270 143 387 L143 1047 L410 1047 L410 432 Q410 379 424 341 Q438 303 462.5 278.5 Q487 254 520 242.5 Q553 231 592 231 Q633 231 669.5 241.5 Q706 252 733 275.5 Q760 299 775.5 336.5 Q791 374 791 428 L791 1047 L1057 1047 L1057 0 L791 0 Z M573 1180 L315 1180 L606 1499 L938 1499 L573 1180 Z " />
<glyph glyph-name="ugrave" unicode="&#xf9;" horiz-adv-x="1210" d="M791 0 L791 98 Q743 39 672 7 Q601 -25 510 -25 Q443 -25 377.5 -4.5 Q312 16 260 64 Q208 112 175.5 191 Q143 270 143 387 L143 1047 L410 1047 L410 432 Q410 379 424 341 Q438 303 462.5 278.5 Q487 254 520 242.5 Q553 231 592 231 Q633 231 669.5 241.5 Q706 252 733 275.5 Q760 299 775.5 336.5 Q791 374 791 428 L791 1047 L1057 1047 L1057 0 L791 0 Z M615 1180 L250 1499 L582 1499 L873 1180 L615 1180 Z " />
<glyph glyph-name="ucircumflex" unicode="&#xfb;" horiz-adv-x="1210" d="M791 0 L791 98 Q743 39 672 7 Q601 -25 510 -25 Q443 -25 377.5 -4.5 Q312 16 260 64 Q208 112 175.5 191 Q143 270 143 387 L143 1047 L410 1047 L410 432 Q410 379 424 341 Q438 303 462.5 278.5 Q487 254 520 242.5 Q553 231 592 231 Q633 231 669.5 241.5 Q706 252 733 275.5 Q760 299 775.5 336.5 Q791 374 791 428 L791 1047 L1057 1047 L1057 0 L791 0 Z M766 1180 L594 1321 L422 1180 L177 1180 L467 1499 L723 1499 L1012 1180 L766 1180 Z " />
<glyph glyph-name="udieresis" unicode="&#xfc;" horiz-adv-x="1210" d="M791 0 L791 98 Q743 39 672 7 Q601 -25 510 -25 Q443 -25 377.5 -4.5 Q312 16 260 64 Q208 112 175.5 191 Q143 270 143 387 L143 1047 L410 1047 L410 432 Q410 379 424 341 Q438 303 462.5 278.5 Q487 254 520 242.5 Q553 231 592 231 Q633 231 669.5 241.5 Q706 252 733 275.5 Q760 299 775.5 336.5 Q791 374 791 428 L791 1047 L1057 1047 L1057 0 L791 0 Z M400 1190 Q368 1190 341 1201.5 Q314 1213 293.5 1233 Q273 1253 261.5 1280 Q250 1307 250 1339 Q250 1370 261.5 1397.5 Q273 1425 293.5 1445.5 Q314 1466 341 1477.5 Q368 1489 400 1489 Q431 1489 458.5 1477.5 Q486 1466 506 1445.5 Q526 1425 537.5 1397.5 Q549 1370 549 1339 Q549 1307 537.5 1280 Q526 1253 506 1233 Q486 1213 458.5 1201.5 Q431 1190 400 1190 Z M789 1190 Q757 1190 730 1201.5 Q703 1213 682.5 1233 Q662 1253 650.5 1280 Q639 1307 639 1339 Q639 1370 650.5 1397.5 Q662 1425 682.5 1445.5 Q703 1466 730 1477.5 Q757 1489 789 1489 Q820 1489 847.5 1477.5 Q875 1466 895 1445.5 Q915 1425 926.5 1397.5 Q938 1370 938 1339 Q938 1307 926.5 1280 Q915 1253 895 1233 Q875 1213 847.5 1201.5 Q820 1190 789 1190 Z " />
<glyph glyph-name="dagger" unicode="&#x2020;" horiz-adv-x="1196" d="M715 868 L731 684 L668 -289 L528 -289 L465 684 L481 868 L276 842 L133 842 L133 1098 L276 1098 L481 1069 L465 1202 L465 1458 L731 1458 L731 1202 L715 1069 L920 1098 L1063 1098 L1063 842 L920 842 L715 868 Z " />
<glyph glyph-name="degree" unicode="&#xb0;" horiz-adv-x="844" d="M422 1145 Q450 1145 473 1155.5 Q496 1166 513 1185 Q530 1204 539.5 1229.5 Q549 1255 549 1284 Q549 1312 539.5 1336.5 Q530 1361 513 1379 Q496 1397 473 1407 Q450 1417 422 1417 Q394 1417 371 1407 Q348 1397 331 1379 Q314 1361 304.5 1336.5 Q295 1312 295 1284 Q295 1255 304.5 1229.5 Q314 1204 331 1185 Q348 1166 371 1155.5 Q394 1145 422 1145 Z M422 915 Q344 915 276.5 943.5 Q209 972 159 1022 Q109 1072 80 1139 Q51 1206 51 1284 Q51 1362 80 1428.5 Q109 1495 159 1544 Q209 1593 276.5 1621 Q344 1649 422 1649 Q500 1649 567.5 1621 Q635 1593 685 1544 Q735 1495 764 1428.5 Q793 1362 793 1284 Q793 1206 764 1139 Q735 1072 685 1022 Q635 972 567.5 943.5 Q500 915 422 915 Z " />
<glyph glyph-name="cent" unicode="&#xa2;" horiz-adv-x="1120" d="M428 -25 L428 193 Q351 215 290.5 260.5 Q230 306 188 372.5 Q146 439 124 525.5 Q102 612 102 717 Q102 820 124.5 907.5 Q147 995 189.5 1062.5 Q232 1130 292.5 1176.5 Q353 1223 428 1245 L428 1458 L684 1458 L684 1257 Q805 1236 889.5 1163 Q974 1090 1016 958 L762 874 Q739 934 694 972 Q649 1010 586 1010 Q537 1010 497.5 989 Q458 968 430.5 930 Q403 892 388 838 Q373 784 373 717 Q373 650 388 596.5 Q403 543 430 505 Q457 467 495 446.5 Q533 426 580 426 Q648 426 695 464.5 Q742 503 764 578 L1018 502 Q980 364 894.5 283.5 Q809 203 684 180 L684 -25 L428 -25 Z " />
<glyph glyph-name="sterling" unicode="&#xa3;" horiz-adv-x="1229" d="M162 0 L162 254 Q206 274 236 308.5 Q266 343 285 384 Q304 425 313.5 469 Q323 513 326 551 L154 551 L154 797 L264 797 Q244 842 227.5 902.5 Q211 963 211 1032 Q211 1113 240 1189.5 Q269 1266 328.5 1325.5 Q388 1385 480 1421.5 Q572 1458 698 1458 Q771 1458 833 1448.5 Q895 1439 950.5 1420 Q1006 1401 1057 1372.5 Q1108 1344 1159 1307 L1055 1053 Q1027 1076 993 1101.5 Q959 1127 916 1148.5 Q873 1170 819 1184 Q765 1198 698 1198 Q641 1198 600.5 1184 Q560 1170 534.5 1147.5 Q509 1125 497 1095 Q485 1065 485 1034 Q485 1013 489.5 990.5 Q494 968 503 940.5 Q512 913 526.5 878 Q541 843 561 797 L909 797 L909 551 L600 551 Q595 474 572 399.5 Q549 325 500 260 L1167 260 L1167 0 L162 0 Z " />
<glyph glyph-name="section" unicode="&#xa7;" horiz-adv-x="1085" d="M741 1116 Q725 1132 704.5 1147.5 Q684 1163 658.5 1175 Q633 1187 602.5 1194.5 Q572 1202 537 1202 Q475 1202 438 1178 Q401 1154 401 1114 Q401 1091 421.5 1070 Q442 1049 476.5 1029 Q511 1009 556.5 989.5 Q602 970 653 950 Q715 926 774.5 897.5 Q834 869 880.5 829 Q927 789 955 733 Q983 677 983 596 Q983 521 955.5 466 Q928 411 872 371 Q929 320 956 259.5 Q983 199 983 119 Q983 33 954 -34.5 Q925 -102 869.5 -149 Q814 -196 733 -221 Q652 -246 549 -246 Q406 -246 291.5 -194 Q177 -142 102 -45 L295 119 Q315 101 341 81.5 Q367 62 399.5 46 Q432 30 470 20 Q508 10 551 10 Q582 10 610 15.5 Q638 21 659.5 33 Q681 45 694 64.5 Q707 84 707 113 Q707 138 687 161 Q667 184 630 206.5 Q593 229 540.5 253 Q488 277 424 305 Q368 329 314 356 Q260 383 218 421 Q176 459 150.5 511 Q125 563 125 637 Q125 708 159 764.5 Q193 821 250 858 Q190 906 157.5 968.5 Q125 1031 125 1108 Q125 1192 156 1257.5 Q187 1323 242 1367.5 Q297 1412 372.5 1435 Q448 1458 537 1458 Q607 1458 667 1445 Q727 1432 777.5 1408 Q828 1384 869 1351 Q910 1318 942 1278 L741 1116 Z M707 571 Q707 598 688 620.5 Q669 643 636.5 662.5 Q604 682 561.5 699 Q519 716 471 733 Q437 727 419 708.5 Q401 690 401 664 Q401 641 419 621 Q437 601 471 581.5 Q505 562 554.5 542 Q604 522 668 498 Q686 506 696.5 526.5 Q707 547 707 571 Z " />
<glyph glyph-name="bullet" unicode="&#x2022;" horiz-adv-x="862" d="M428 420 Q363 420 307 443 Q251 466 210 506 Q169 546 146 600.5 Q123 655 123 717 Q123 778 146 832.5 Q169 887 210 928 Q251 969 307 992.5 Q363 1016 428 1016 Q493 1016 550 992.5 Q607 969 649 928 Q691 887 715 832.5 Q739 778 739 717 Q739 655 715 600.5 Q691 546 649 506 Q607 466 550 443 Q493 420 428 420 Z " />
<glyph glyph-name="paragraph" unicode="&#xb6;" horiz-adv-x="1325" d="M895 -221 L895 1178 L745 1178 L745 -289 L479 -410 L479 561 Q362 566 279 606.5 Q196 647 143 708.5 Q90 770 65.5 844.5 Q41 919 41 993 Q41 1074 65.5 1153.5 Q90 1233 146.5 1295 Q203 1357 294 1395.5 Q385 1434 518 1434 L1161 1434 L1161 -100 L895 -221 Z " />
<glyph glyph-name="germandbls" unicode="&#xdf;" horiz-adv-x="1178" d="M668 -25 Q596 -25 541.5 -12 Q487 1 449 23 L567 217 Q592 209 610 207 Q628 205 651 205 Q685 205 717 220 Q749 235 774 264 Q799 293 814 334.5 Q829 376 829 430 Q829 473 815.5 515 Q802 557 773 590 Q744 623 699 643.5 Q654 664 592 664 L516 664 L516 893 L592 893 Q627 893 657 906 Q687 919 709 942 Q731 965 743.5 996.5 Q756 1028 756 1065 Q756 1099 745 1128.5 Q734 1158 713 1180.5 Q692 1203 661.5 1216 Q631 1229 592 1229 Q547 1229 511 1214.5 Q475 1200 450 1168.5 Q425 1137 412 1087 Q399 1037 399 965 L399 -285 L133 -410 L133 961 Q133 1096 171 1190.5 Q209 1285 273 1344.5 Q337 1404 419 1431 Q501 1458 590 1458 Q687 1458 766.5 1431 Q846 1404 903 1355 Q960 1306 991 1236 Q1022 1166 1022 1081 Q1022 1033 1010.5 988.5 Q999 944 976 906.5 Q953 869 916.5 838.5 Q880 808 831 788 Q892 771 941.5 738.5 Q991 706 1025 660 Q1059 614 1077.5 557 Q1096 500 1096 434 Q1096 321 1062.5 235 Q1029 149 971.5 91.5 Q914 34 836 4.5 Q758 -25 668 -25 Z " />
<glyph glyph-name="registered" unicode="&#xae;" horiz-adv-x="1729" d="M571 285 L571 1149 L911 1149 Q995 1149 1050 1126 Q1105 1103 1137.5 1065 Q1170 1027 1183 978.5 Q1196 930 1196 879 Q1196 841 1186 804 Q1176 767 1154.5 735 Q1133 703 1100 676.5 Q1067 650 1022 633 Q1037 603 1059 558 Q1081 513 1105 463.5 Q1129 414 1152 366.5 Q1175 319 1192 285 L958 285 L805 608 L772 608 L772 285 L571 285 Z M911 799 Q934 799 950 806.5 Q966 814 976 825.5 Q986 837 990.5 851 Q995 865 995 879 Q995 891 991 905 Q987 919 977.5 930.5 Q968 942 952 950 Q936 958 911 958 L772 958 L772 799 L911 799 Z M864 -25 Q706 -25 571 32 Q436 89 336 188.5 Q236 288 179.5 423.5 Q123 559 123 717 Q123 822 148.5 917.5 Q174 1013 221.5 1095.5 Q269 1178 336 1245 Q403 1312 485.5 1359.5 Q568 1407 663.5 1432.5 Q759 1458 864 1458 Q969 1458 1065 1432.5 Q1161 1407 1243 1359.5 Q1325 1312 1392.5 1245 Q1460 1178 1507 1095.5 Q1554 1013 1580 917.5 Q1606 822 1606 717 Q1606 612 1580 516 Q1554 420 1507 338 Q1460 256 1392.5 188.5 Q1325 121 1243 74 Q1161 27 1065 1 Q969 -25 864 -25 Z M864 152 Q985 152 1086.5 195 Q1188 238 1261.5 313.5 Q1335 389 1376 492.5 Q1417 596 1417 717 Q1417 837 1376 940.5 Q1335 1044 1261.5 1120 Q1188 1196 1086.5 1239 Q985 1282 864 1282 Q744 1282 642.5 1239 Q541 1196 467.5 1120 Q394 1044 352.5 940.5 Q311 837 311 717 Q311 596 352.5 492.5 Q394 389 467.5 313.5 Q541 238 642.5 195 Q744 152 864 152 Z " />
<glyph glyph-name="copyright" unicode="&#xa9;" horiz-adv-x="1729" d="M1182 483 Q1134 378 1058.5 324 Q983 270 870 270 Q765 270 694 309.5 Q623 349 580 412.5 Q537 476 518.5 556 Q500 636 500 717 Q500 792 519.5 871.5 Q539 951 582.5 1015.5 Q626 1080 696.5 1121.5 Q767 1163 870 1163 Q928 1163 976.5 1149 Q1025 1135 1063.5 1110 Q1102 1085 1131 1050 Q1160 1015 1180 973 L993 885 Q970 923 942 943 Q914 963 870 963 Q826 963 796.5 939.5 Q767 916 749 880 Q731 844 723 800.5 Q715 757 715 717 Q715 674 724.5 630 Q734 586 753 551 Q772 516 801 493.5 Q830 471 870 471 Q911 471 941.5 492.5 Q972 514 993 549 L1182 483 Z M864 -25 Q706 -25 571 32 Q436 89 336 188.5 Q236 288 179.5 423.5 Q123 559 123 717 Q123 822 148.5 917.5 Q174 1013 221.5 1095.5 Q269 1178 336 1245 Q403 1312 485.5 1359.5 Q568 1407 663.5 1432.5 Q759 1458 864 1458 Q969 1458 1065 1432.5 Q1161 1407 1243 1359.5 Q1325 1312 1392.5 1245 Q1460 1178 1507 1095.5 Q1554 1013 1580 917.5 Q1606 822 1606 717 Q1606 612 1580 516 Q1554 420 1507 338 Q1460 256 1392.5 188.5 Q1325 121 1243 74 Q1161 27 1065 1 Q969 -25 864 -25 Z M864 152 Q985 152 1086.5 195 Q1188 238 1261.5 313.5 Q1335 389 1376 492.5 Q1417 596 1417 717 Q1417 837 1376 940.5 Q1335 1044 1261.5 1120 Q1188 1196 1086.5 1239 Q985 1282 864 1282 Q744 1282 642.5 1239 Q541 1196 467.5 1120 Q394 1044 352.5 940.5 Q311 837 311 717 Q311 596 352.5 492.5 Q394 389 467.5 313.5 Q541 238 642.5 195 Q744 152 864 152 Z " />
<glyph glyph-name="trademark" unicode="&#x2122;" horiz-adv-x="1731" d="M457 1251 L457 569 L258 569 L258 1251 L41 1251 L41 1434 L672 1434 L672 1251 L457 1251 Z M1389 569 L1389 1100 L1370 1044 L1157 553 L942 1044 L922 1106 L922 569 L723 569 L723 1434 L965 1434 L1137 1036 L1155 985 L1174 1036 L1346 1434 L1587 1434 L1587 569 L1389 569 Z " />
<glyph glyph-name="acute" unicode="&#xb4;" horiz-adv-x="973" d="M432 1180 L174 1180 L465 1499 L797 1499 L432 1180 Z " />
<glyph glyph-name="dieresis" unicode="&#xa8;" horiz-adv-x="973" d="M291 1190 Q259 1190 232 1201.5 Q205 1213 184.5 1233 Q164 1253 152.5 1280 Q141 1307 141 1339 Q141 1370 152.5 1397.5 Q164 1425 184.5 1445.5 Q205 1466 232 1477.5 Q259 1489 291 1489 Q322 1489 349.5 1477.5 Q377 1466 397 1445.5 Q417 1425 428.5 1397.5 Q440 1370 440 1339 Q440 1307 428.5 1280 Q417 1253 397 1233 Q377 1213 349.5 1201.5 Q322 1190 291 1190 Z M680 1190 Q648 1190 621 1201.5 Q594 1213 573.5 1233 Q553 1253 541.5 1280 Q530 1307 530 1339 Q530 1370 541.5 1397.5 Q553 1425 573.5 1445.5 Q594 1466 621 1477.5 Q648 1489 680 1489 Q711 1489 738.5 1477.5 Q766 1466 786 1445.5 Q806 1425 817.5 1397.5 Q829 1370 829 1339 Q829 1307 817.5 1280 Q806 1253 786 1233 Q766 1213 738.5 1201.5 Q711 1190 680 1190 Z " />
<glyph glyph-name="notequal" unicode="&#x2260;" horiz-adv-x="1290" d="M614 346 L549 195 L260 195 L326 346 L139 346 L139 604 L436 604 L522 801 L139 801 L139 1059 L635 1059 L711 1235 L999 1235 L924 1059 L1108 1059 L1108 801 L811 801 L727 604 L1108 604 L1108 346 L614 346 Z " />
<glyph glyph-name="AE" unicode="&#xc6;" horiz-adv-x="1851" d="M805 0 L805 297 L434 297 L266 0 L-31 0 L801 1434 L1696 1434 L1696 1171 L1081 1171 L1081 870 L1407 870 L1407 608 L1081 608 L1081 262 L1739 262 L1739 0 L805 0 Z M805 549 L805 958 Q796 934 783.5 909 Q771 884 756 856 L582 549 L805 549 Z " />
<glyph glyph-name="Oslash" unicode="&#xd8;" horiz-adv-x="1530" d="M133 -25 L285 201 Q245 254 216 315.5 Q187 377 168.5 443.5 Q150 510 141.5 579.5 Q133 649 133 717 Q133 805 147.5 894.5 Q162 984 193.5 1066.5 Q225 1149 275 1220.5 Q325 1292 395.5 1344.5 Q466 1397 558 1427.5 Q650 1458 766 1458 Q860 1458 938 1438 Q1016 1418 1081 1380 L1135 1458 L1397 1458 L1245 1233 Q1285 1180 1314 1118.5 Q1343 1057 1361.5 990.5 Q1380 924 1388.5 854.5 Q1397 785 1397 717 Q1397 628 1382.5 538.5 Q1368 449 1336.5 366.5 Q1305 284 1255 212.5 Q1205 141 1135 88.5 Q1065 36 973.5 5.5 Q882 -25 766 -25 Q670 -25 591 -4.5 Q512 16 449 53 L395 -25 L133 -25 Z M420 717 Q420 654 430 589 Q440 524 463 465 L926 1149 Q892 1169 853 1180.5 Q814 1192 766 1192 Q701 1192 650.5 1171 Q600 1150 561.5 1114.5 Q523 1079 496 1032 Q469 985 452 932 Q435 879 427.5 824 Q420 769 420 717 Z M766 242 Q862 242 927.5 287 Q993 332 1033.5 402 Q1074 472 1092 555.5 Q1110 639 1110 717 Q1110 780 1100 845 Q1090 910 1067 969 L604 285 Q636 265 676 253.5 Q716 242 766 242 Z " />
<glyph glyph-name="infinity" unicode="&#x221e;" horiz-adv-x="2073" d="M1491 225 Q1413 225 1345.5 244.5 Q1278 264 1221.5 297 Q1165 330 1118.5 374 Q1072 418 1036 467 Q999 415 953.5 370.5 Q908 326 852 294 Q796 262 728.5 243.5 Q661 225 580 225 Q473 225 380.5 257 Q288 289 219.5 350.5 Q151 412 111.5 501 Q72 590 72 705 Q72 819 111.5 908 Q151 997 219.5 1058.5 Q288 1120 380.5 1152 Q473 1184 580 1184 Q661 1184 728.5 1165.5 Q796 1147 852 1115 Q908 1083 953.5 1038.5 Q999 994 1036 942 Q1071 990 1117 1033.5 Q1163 1077 1219.5 1110.5 Q1276 1144 1343 1164 Q1410 1184 1487 1184 Q1595 1184 1689 1152 Q1783 1120 1852.5 1058.5 Q1922 997 1961.5 908 Q2001 819 2001 705 Q2001 590 1961.5 501 Q1922 412 1853 350.5 Q1784 289 1691 257 Q1598 225 1491 225 Z M1485 481 Q1538 481 1583.5 496 Q1629 511 1663 539.5 Q1697 568 1716 610 Q1735 652 1735 705 Q1735 758 1716 799.5 Q1697 841 1663 869.5 Q1629 898 1583.5 913 Q1538 928 1485 928 Q1431 928 1384.5 910.5 Q1338 893 1297.5 862.5 Q1257 832 1222.5 791.5 Q1188 751 1159 705 Q1188 659 1222.5 618 Q1257 577 1297.5 546.5 Q1338 516 1384.5 498.5 Q1431 481 1485 481 Z M586 481 Q639 481 686 498.5 Q733 516 774 546.5 Q815 577 850 618 Q885 659 913 705 Q885 751 850 791.5 Q815 832 774 862.5 Q733 893 686 910.5 Q639 928 586 928 Q533 928 487.5 913 Q442 898 409 869.5 Q376 841 357 799.5 Q338 758 338 705 Q338 652 357 610 Q376 568 409 539.5 Q442 511 487.5 496 Q533 481 586 481 Z " />
<glyph glyph-name="plusminus" unicode="&#xb1;" horiz-adv-x="1290" d="M778 690 L778 393 L512 393 L512 690 L164 690 L164 948 L512 948 L512 1245 L778 1245 L778 948 L1126 948 L1126 690 L778 690 Z M164 0 L164 258 L1126 258 L1126 0 L164 0 Z " />
<glyph glyph-name="lessequal" unicode="&#x2264;" horiz-adv-x="1290" d="M1128 319 L164 672 L164 883 L1128 1233 L1128 975 L539 776 L1128 578 L1128 319 Z M164 0 L164 258 L1126 258 L1126 0 L164 0 Z " />
<glyph glyph-name="greaterequal" unicode="&#x2265;" horiz-adv-x="1290" d="M164 319 L164 578 L754 776 L164 975 L164 1233 L1128 883 L1128 672 L164 319 Z M164 0 L164 258 L1126 258 L1126 0 L164 0 Z " />
<glyph glyph-name="yen" unicode="&#xa5;" horiz-adv-x="1245" d="M791 705 L1032 705 L1032 504 L756 504 L756 371 L1032 371 L1032 170 L756 170 L756 0 L489 0 L489 170 L213 170 L213 371 L489 371 L489 504 L213 504 L213 705 L453 705 L31 1434 L338 1434 L623 924 L903 1434 L1214 1434 L791 705 Z " />
<glyph glyph-name="mu" unicode="&#xb5;" horiz-adv-x="1221" d="M801 0 L801 96 Q772 44 716 9.5 Q660 -25 582 -25 Q529 -25 487 -9 Q445 7 422 27 L422 -285 L154 -410 L154 1047 L420 1047 L420 432 Q420 379 434 341 Q448 303 472.5 278.5 Q497 254 530.5 242.5 Q564 231 602 231 Q644 231 680 241.5 Q716 252 743 275.5 Q770 299 785.5 336.5 Q801 374 801 428 L801 1047 L1067 1047 L1067 0 L801 0 Z " />
<glyph glyph-name="partialdiff" unicode="&#x2202;" horiz-adv-x="1221" d="M526 -25 Q421 -25 335 5 Q249 35 188.5 92.5 Q128 150 94.5 235 Q61 320 61 430 Q61 538 102.5 626 Q144 714 213 777 Q282 840 373 874.5 Q464 909 563 909 Q614 909 655 902 Q696 895 728.5 882.5 Q761 870 787 853 Q813 836 836 815 Q822 919 778 991 Q734 1063 670.5 1108.5 Q607 1154 529.5 1176 Q452 1198 371 1202 L436 1458 Q617 1440 745 1381 Q873 1322 953.5 1224.5 Q1034 1127 1071 991 Q1108 855 1108 682 Q1108 591 1094.5 503.5 Q1081 416 1051.5 337.5 Q1022 259 976 192.5 Q930 126 865.5 77.5 Q801 29 716.5 2 Q632 -25 526 -25 Z M547 231 Q603 231 649.5 249 Q696 267 730 298.5 Q764 330 782.5 371.5 Q801 413 801 461 Q801 554 743 603.5 Q685 653 588 653 Q532 653 485 635 Q438 617 404.5 586 Q371 555 352.5 512.5 Q334 470 334 422 Q334 331 391 281 Q448 231 547 231 Z " />
<glyph glyph-name="summation" unicode="&#x2211;" horiz-adv-x="1272" d="M92 -285 L92 -35 L555 596 L121 1186 L121 1436 L1163 1436 L1163 1180 L457 1180 L891 594 L434 -29 L1200 -29 L1200 -285 L92 -285 Z " />
<glyph glyph-name="product" unicode="&#x220f;" horiz-adv-x="1509" d="M1059 -287 L1059 1178 L451 1178 L451 -287 L184 -287 L184 1434 L1325 1434 L1325 -287 L1059 -287 Z " />
<glyph glyph-name="pi" unicode="&#x3c0;" horiz-adv-x="1364" d="M1055 -25 Q987 -25 939 -6 Q891 13 860 48.5 Q829 84 815 135.5 Q801 187 801 252 L801 770 L563 770 L563 733 Q563 600 553 481.5 Q543 363 511.5 263.5 Q480 164 421.5 84.5 Q363 5 266 -49 L41 129 Q92 160 139.5 198 Q187 236 224.5 295 Q262 354 284.5 440.5 Q307 527 307 655 L307 770 L129 770 L129 1047 L1294 1047 L1294 770 L1067 770 L1067 291 Q1067 251 1086.5 230 Q1106 209 1141 209 Q1181 209 1223.5 220.5 Q1266 232 1313 254 L1282 23 Q1236 0 1178 -12.5 Q1120 -25 1055 -25 Z " />
<glyph glyph-name="integral" unicode="&#x222b;" horiz-adv-x="881" d="M315 -287 Q252 -287 195.5 -275 Q139 -263 82 -236 L82 -18 Q143 -41 176.5 -47 Q210 -53 231 -53 Q265 -53 286 -36 Q307 -19 307 18 L307 1206 Q307 1284 329.5 1333 Q352 1382 388.5 1409.5 Q425 1437 471 1447.5 Q517 1458 565 1458 Q628 1458 685 1446.5 Q742 1435 799 1407 L799 1190 Q768 1202 745 1208.5 Q722 1215 704 1219 Q686 1223 673 1224 Q660 1225 649 1225 Q615 1225 594 1207.5 Q573 1190 573 1153 L573 -35 Q573 -113 550.5 -162 Q528 -211 491.5 -238.5 Q455 -266 409 -276.5 Q363 -287 315 -287 Z " />
<glyph glyph-name="ordfeminine" unicode="&#xaa;" horiz-adv-x="903" d="M575 580 L575 641 Q548 610 496.5 584.5 Q445 559 367 559 Q305 559 251.5 577 Q198 595 158 631 Q118 667 95 720.5 Q72 774 72 844 Q72 919 99.5 973 Q127 1027 172 1062 Q217 1097 274.5 1113.5 Q332 1130 391 1130 Q448 1130 493 1120 Q538 1110 575 1090 L575 1130 Q575 1202 538 1235 Q501 1268 432 1268 Q363 1268 303.5 1246 Q244 1224 188 1182 L121 1358 Q181 1400 266 1429 Q351 1458 457 1458 Q512 1458 571 1447.5 Q630 1437 679 1402.5 Q728 1368 759.5 1302.5 Q791 1237 791 1128 L791 580 L575 580 Z M414 752 Q468 752 508 772 Q548 792 575 821 L575 913 Q546 926 508 934 Q470 942 432 942 Q402 942 375.5 936.5 Q349 931 328.5 919 Q308 907 296.5 888.5 Q285 870 285 844 Q285 802 318 777 Q351 752 414 752 Z " />
<glyph glyph-name="ordmasculine" unicode="&#xba;" horiz-adv-x="952" d="M477 559 Q387 559 314 589.5 Q241 620 189.5 678 Q138 736 110 819.5 Q82 903 82 1008 Q82 1113 110 1196.5 Q138 1280 189.5 1338 Q241 1396 314 1427 Q387 1458 477 1458 Q568 1458 640.5 1427 Q713 1396 764 1338 Q815 1280 842.5 1196.5 Q870 1113 870 1008 Q870 903 842.5 819.5 Q815 736 764 678 Q713 620 640.5 589.5 Q568 559 477 559 Z M477 770 Q559 770 606 832.5 Q653 895 653 1008 Q653 1120 606 1184.5 Q559 1249 477 1249 Q394 1249 347.5 1184.5 Q301 1120 301 1008 Q301 895 347.5 832.5 Q394 770 477 770 Z " />
<glyph glyph-name="ae" unicode="&#xe6;" horiz-adv-x="1753" d="M1196 -25 Q1075 -25 981 18.5 Q887 62 825 143 Q742 51 646 13 Q550 -25 453 -25 Q378 -25 312 -3 Q246 19 197 63 Q148 107 120 171.5 Q92 236 92 322 Q92 414 126 480 Q160 546 214.5 589 Q269 632 339 652 Q409 672 481 672 Q552 672 607 659 Q662 646 707 623 L707 672 Q707 758 662 798 Q617 838 532 838 Q447 838 375.5 811 Q304 784 236 733 L154 948 Q190 973 234 995.5 Q278 1018 329.5 1035 Q381 1052 439 1061.5 Q497 1071 561 1071 Q602 1071 645.5 1066.5 Q689 1062 731 1049.5 Q773 1037 810.5 1014.5 Q848 992 877 956 Q932 1012 1014.5 1041.5 Q1097 1071 1196 1071 Q1293 1071 1378 1041 Q1463 1011 1526 950 Q1589 889 1625 796.5 Q1661 704 1661 578 Q1661 547 1658 506 Q1655 465 1647 420 L969 420 Q973 369 993 330 Q1013 291 1043.5 264 Q1074 237 1113 223 Q1152 209 1196 209 Q1268 209 1322 234.5 Q1376 260 1421 317 L1585 152 Q1519 71 1423 23 Q1327 -25 1196 -25 Z M510 209 Q575 209 624 234.5 Q673 260 707 295 L707 408 Q671 423 625 432.5 Q579 442 532 442 Q495 442 462.5 435.5 Q430 429 405.5 414.5 Q381 400 366.5 377 Q352 354 352 322 Q352 271 392.5 240 Q433 209 510 209 Z M1196 838 Q1102 838 1042.5 791 Q983 744 971 645 L1399 645 Q1386 738 1331.5 788 Q1277 838 1196 838 Z " />
<glyph glyph-name="oslash" unicode="&#xf8;" horiz-adv-x="1169" d="M102 -25 L213 143 Q159 213 130.5 308.5 Q102 404 102 522 Q102 650 136 752 Q170 854 232.5 925 Q295 996 384 1033.5 Q473 1071 584 1071 Q644 1071 698 1059.5 Q752 1048 799 1026 L827 1071 L1067 1071 L954 901 Q1008 830 1036.5 735.5 Q1065 641 1065 522 Q1065 394 1031.5 292.5 Q998 191 935.5 120.5 Q873 50 784 12.5 Q695 -25 584 -25 Q524 -25 470.5 -13.5 Q417 -2 371 18 L342 -25 L102 -25 Z M584 231 Q634 231 674 251 Q714 271 741.5 308.5 Q769 346 784 400 Q799 454 799 522 Q799 556 795 589.5 Q791 623 784 645 L518 242 Q534 235 549.5 233 Q565 231 584 231 Z M369 522 Q369 488 373 456.5 Q377 425 383 399 L651 805 Q639 810 620 812.5 Q601 815 584 815 Q534 815 494 795 Q454 775 426.5 737 Q399 699 384 645 Q369 591 369 522 Z " />
<glyph glyph-name="questiondown" unicode="&#xbf;" horiz-adv-x="1034" d="M668 662 L668 588 Q668 493 643.5 428 Q619 363 582.5 315.5 Q546 268 503 234 Q460 200 423.5 166.5 Q387 133 362.5 96 Q338 59 338 6 Q338 -29 349.5 -58 Q361 -87 383.5 -108.5 Q406 -130 439.5 -142 Q473 -154 516 -154 Q618 -154 672.5 -91 Q727 -28 727 88 L993 88 Q993 -32 958 -124.5 Q923 -217 860 -280.5 Q797 -344 709 -377 Q621 -410 516 -410 Q408 -410 325 -378 Q242 -346 185.5 -289.5 Q129 -233 100.5 -157 Q72 -81 72 6 Q72 90 96.5 148.5 Q121 207 157.5 250 Q194 293 236.5 327 Q279 361 315.5 398 Q352 435 376.5 480 Q401 525 401 590 L401 662 L668 662 Z M532 733 Q495 733 463.5 746.5 Q432 760 408.5 783 Q385 806 371.5 837 Q358 868 358 903 Q358 938 371.5 969 Q385 1000 408.5 1022.5 Q432 1045 463.5 1058 Q495 1071 532 1071 Q569 1071 600.5 1058 Q632 1045 655.5 1022.5 Q679 1000 692 969 Q705 938 705 903 Q705 868 692 837 Q679 806 655.5 783 Q632 760 600.5 746.5 Q569 733 532 733 Z " />
<glyph glyph-name="exclamdown" unicode="&#xa1;" horiz-adv-x="614" d="M176 -410 L176 53 L233 653 L385 653 L442 53 L442 -410 L176 -410 Z M309 721 Q271 721 238.5 735 Q206 749 181.5 773 Q157 797 143 829 Q129 861 129 897 Q129 933 143 964.5 Q157 996 181.5 1020 Q206 1044 238.5 1057.5 Q271 1071 309 1071 Q347 1071 379 1057.5 Q411 1044 434.5 1020 Q458 996 471.5 964.5 Q485 933 485 897 Q485 861 471.5 829 Q458 797 434.5 773 Q411 749 379 735 Q347 721 309 721 Z " />
<glyph glyph-name="logicalnot" unicode="&#xac;" horiz-adv-x="1290" d="M860 330 L860 725 L164 725 L164 983 L1126 983 L1126 330 L860 330 Z " />
<glyph glyph-name="radical" unicode="&#x221a;" horiz-adv-x="1184" d="M1122 1434 L684 0 L477 0 L92 723 L381 723 L549 397 L848 1434 L1122 1434 Z " />
<glyph glyph-name="florin" unicode="&#x192;" horiz-adv-x="791" d="M-35 -289 Q46 -271 102 -251.5 Q158 -232 192.5 -206.5 Q227 -181 242.5 -147.5 Q258 -114 258 -70 L258 809 L113 809 L113 1047 L258 1047 L258 1206 Q258 1284 280.5 1333 Q303 1382 339.5 1409.5 Q376 1437 422 1447.5 Q468 1458 516 1458 Q579 1458 636 1446.5 Q693 1435 750 1407 L750 1190 Q719 1202 696 1208.5 Q673 1215 655 1219 Q637 1223 624 1224 Q611 1225 600 1225 Q566 1225 545 1207.5 Q524 1190 524 1153 L524 1047 L750 1047 L750 809 L524 809 L524 -4 Q524 -49 520 -94 Q516 -139 505 -181.5 Q494 -224 474 -263 Q454 -302 422 -336 Q385 -375 344.5 -402.5 Q304 -430 262 -448.5 Q220 -467 179 -479 Q138 -491 100 -500 L-35 -289 Z " />
<glyph glyph-name="approxequal" unicode="&#x2248;" horiz-adv-x="1290" d="M838 752 Q772 752 719.5 769 Q667 786 623 807 Q579 828 540.5 845 Q502 862 465 862 Q418 862 397 831 Q376 800 371 752 L160 752 Q160 825 176 892 Q192 959 227 1010 Q262 1061 317.5 1091.5 Q373 1122 451 1122 Q516 1122 567 1105 Q618 1088 661.5 1067 Q705 1046 743.5 1029 Q782 1012 823 1012 Q870 1012 891.5 1042.5 Q913 1073 918 1122 L1128 1122 Q1128 1049 1112.5 982 Q1097 915 1062.5 864 Q1028 813 972.5 782.5 Q917 752 838 752 Z M838 285 Q772 285 719.5 302 Q667 319 623 340 Q579 361 540.5 378 Q502 395 465 395 Q418 395 397 364 Q376 333 371 285 L160 285 Q160 358 176 425 Q192 492 227 543 Q262 594 317.5 624.5 Q373 655 451 655 Q516 655 567 638 Q618 621 661.5 600 Q705 579 743.5 562 Q782 545 823 545 Q870 545 891.5 575.5 Q913 606 918 655 L1128 655 Q1128 582 1112.5 515 Q1097 448 1062.5 397 Q1028 346 972.5 315.5 Q917 285 838 285 Z " />
<glyph glyph-name="Delta" unicode="&#x2206;" horiz-adv-x="1313" d="M20 0 L530 1434 L784 1434 L1292 0 L20 0 Z M700 922 Q691 949 679 984.5 Q667 1020 659 1051 Q651 1020 639.5 984.5 Q628 949 618 922 L393 260 L922 260 L700 922 Z " />
<glyph glyph-name="guillemotleft" unicode="&#xab;" horiz-adv-x="1151" d="M373 0 L61 524 L373 1047 L659 1047 L348 524 L659 0 L373 0 Z M834 0 L522 524 L834 1047 L1120 1047 L809 524 L1120 0 L834 0 Z " />
<glyph glyph-name="guillemotright" unicode="&#xbb;" horiz-adv-x="1151" d="M492 0 L803 524 L492 1047 L778 1047 L1090 524 L778 0 L492 0 Z M31 0 L342 524 L31 1047 L317 1047 L629 524 L317 0 L31 0 Z " />
<glyph glyph-name="ellipsis" unicode="&#x2026;" horiz-adv-x="2144" d="M356 -25 Q319 -25 287.5 -12 Q256 1 233 23.5 Q210 46 197 77 Q184 108 184 143 Q184 179 197 210 Q210 241 233 264 Q256 287 287.5 300 Q319 313 356 313 Q393 313 425 300 Q457 287 480 264 Q503 241 516.5 210 Q530 179 530 143 Q530 108 516.5 77 Q503 46 480 23.5 Q457 1 425 -12 Q393 -25 356 -25 Z M1071 -25 Q1034 -25 1002.5 -12 Q971 1 948 23.5 Q925 46 912 77 Q899 108 899 143 Q899 179 912 210 Q925 241 948 264 Q971 287 1002.5 300 Q1034 313 1071 313 Q1108 313 1139.5 300 Q1171 287 1194.5 264 Q1218 241 1231.5 210 Q1245 179 1245 143 Q1245 108 1231.5 77 Q1218 46 1194.5 23.5 Q1171 1 1139.5 -12 Q1108 -25 1071 -25 Z M1786 -25 Q1749 -25 1717.5 -12 Q1686 1 1663 23.5 Q1640 46 1627 77 Q1614 108 1614 143 Q1614 179 1627 210 Q1640 241 1663 264 Q1686 287 1717.5 300 Q1749 313 1786 313 Q1823 313 1854.5 300 Q1886 287 1909.5 264 Q1933 241 1946.5 210 Q1960 179 1960 143 Q1960 108 1946.5 77 Q1933 46 1909.5 23.5 Q1886 1 1854.5 -12 Q1823 -25 1786 -25 Z " />
<glyph glyph-name="Agrave" unicode="&#xc0;" horiz-adv-x="1520" d="M1147 0 L1036 297 L483 297 L373 0 L76 0 L625 1434 L895 1434 L1444 0 L1147 0 Z M805 922 Q794 948 781.5 984 Q769 1020 760 1051 Q752 1020 739 984 Q726 948 715 922 L573 549 L946 549 L805 922 Z M781 1569 L416 1888 L748 1888 L1039 1569 L781 1569 Z " />
<glyph glyph-name="Atilde" unicode="&#xc3;" horiz-adv-x="1520" d="M1147 0 L1036 297 L483 297 L373 0 L76 0 L625 1434 L895 1434 L1444 0 L1147 0 Z M805 922 Q794 948 781.5 984 Q769 1020 760 1051 Q752 1020 739 984 Q726 948 715 922 L573 549 L946 549 L805 922 Z M923 1583 Q869 1583 823.5 1597.5 Q778 1612 738 1630 Q698 1648 661 1662.5 Q624 1677 585 1677 Q547 1677 519.5 1657.5 Q492 1638 489 1591 L364 1591 Q364 1652 376 1704 Q388 1756 415.5 1794 Q443 1832 488.5 1853 Q534 1874 600 1874 Q654 1874 699.5 1859.5 Q745 1845 785 1827 Q825 1809 862 1794.5 Q899 1780 938 1780 Q976 1780 1003.5 1799.5 Q1031 1819 1034 1866 L1159 1866 Q1159 1804 1147 1752.5 Q1135 1701 1107 1663 Q1079 1625 1034 1604 Q989 1583 923 1583 Z " />
<glyph glyph-name="Otilde" unicode="&#xd5;" horiz-adv-x="1530" d="M766 -25 Q650 -25 558 5.5 Q466 36 395.5 88.5 Q325 141 275 212.5 Q225 284 193.5 366.5 Q162 449 147.5 538.5 Q133 628 133 717 Q133 805 147.5 894.5 Q162 984 193.5 1066.5 Q225 1149 275 1220.5 Q325 1292 395.5 1344.5 Q466 1397 558 1427.5 Q650 1458 766 1458 Q882 1458 973.5 1427.5 Q1065 1397 1135 1344.5 Q1205 1292 1255 1220.5 Q1305 1149 1336.5 1066.5 Q1368 984 1382.5 894.5 Q1397 805 1397 717 Q1397 628 1382.5 538.5 Q1368 449 1336.5 366.5 Q1305 284 1255 212.5 Q1205 141 1135 88.5 Q1065 36 973.5 5.5 Q882 -25 766 -25 Z M766 242 Q862 242 927.5 287 Q993 332 1033.5 402 Q1074 472 1092 555.5 Q1110 639 1110 717 Q1110 772 1102.5 828.5 Q1095 885 1078 937.5 Q1061 990 1034 1036.5 Q1007 1083 969 1117.5 Q931 1152 880.5 1172 Q830 1192 766 1192 Q701 1192 650.5 1171 Q600 1150 561.5 1114.5 Q523 1079 496 1032 Q469 985 452 932 Q435 879 427.5 824 Q420 769 420 717 Q420 635 438 550.5 Q456 466 496.5 397.5 Q537 329 603 285.5 Q669 242 766 242 Z M926 1583 Q872 1583 826.5 1597.5 Q781 1612 741 1630 Q701 1648 664 1662.5 Q627 1677 588 1677 Q550 1677 522.5 1657.5 Q495 1638 492 1591 L367 1591 Q367 1652 379 1704 Q391 1756 418.5 1794 Q446 1832 491.5 1853 Q537 1874 603 1874 Q657 1874 702.5 1859.5 Q748 1845 788 1827 Q828 1809 865 1794.5 Q902 1780 941 1780 Q979 1780 1006.5 1799.5 Q1034 1819 1037 1866 L1162 1866 Q1162 1804 1150 1752.5 Q1138 1701 1110 1663 Q1082 1625 1037 1604 Q992 1583 926 1583 Z " />
<glyph glyph-name="OE" unicode="&#x152;" horiz-adv-x="1962" d="M954 0 Q912 -12 863 -18.5 Q814 -25 766 -25 Q650 -25 558 5.5 Q466 36 395.5 88.5 Q325 141 275 212.5 Q225 284 193.5 366.5 Q162 449 147.5 538.5 Q133 628 133 717 Q133 805 147.5 894.5 Q162 984 193.5 1066.5 Q225 1149 275 1220.5 Q325 1292 395.5 1344.5 Q466 1397 558 1427.5 Q650 1458 766 1458 Q817 1458 863 1452 Q909 1446 954 1434 L1806 1434 L1806 1171 L1180 1171 L1180 870 L1518 870 L1518 608 L1180 608 L1180 262 L1849 262 L1849 0 L954 0 Z M766 242 Q806 242 840.5 250 Q875 258 903 272 L903 1161 Q872 1177 839 1184.5 Q806 1192 766 1192 Q701 1192 650.5 1171 Q600 1150 561.5 1114.5 Q523 1079 496 1032 Q469 985 452 932 Q435 879 427.5 824 Q420 769 420 717 Q420 633 438 548.5 Q456 464 496.5 396 Q537 328 603 285 Q669 242 766 242 Z " />
<glyph glyph-name="oe" unicode="&#x153;" horiz-adv-x="1847" d="M1290 -25 Q1237 -25 1185.5 -16 Q1134 -7 1087.5 11 Q1041 29 1000 55.5 Q959 82 928 117 Q865 48 778.5 11.5 Q692 -25 584 -25 Q474 -25 385 12.5 Q296 50 233 120.5 Q170 191 136 292.5 Q102 394 102 522 Q102 650 136 752 Q170 854 233 925 Q296 996 385 1033.5 Q474 1071 584 1071 Q800 1071 928 928 Q959 962 1000 988.5 Q1041 1015 1087.5 1033.5 Q1134 1052 1185.5 1061.5 Q1237 1071 1290 1071 Q1387 1071 1472 1041 Q1557 1011 1620 950 Q1683 889 1719 796.5 Q1755 704 1755 578 Q1755 547 1752 506 Q1749 465 1741 420 L1063 420 Q1067 369 1087 330 Q1107 291 1137.5 264 Q1168 237 1207 223 Q1246 209 1290 209 Q1362 209 1416.5 234.5 Q1471 260 1516 317 L1679 152 Q1613 71 1517 23 Q1421 -25 1290 -25 Z M584 231 Q634 231 674 251 Q714 271 741.5 308.5 Q769 346 784 400 Q799 454 799 522 Q799 591 784 645 Q769 699 741.5 737 Q714 775 674 795 Q634 815 584 815 Q534 815 494 795 Q454 775 426.5 737 Q399 699 384 645 Q369 591 369 522 Q369 454 384 400 Q399 346 426.5 308.5 Q454 271 494 251 Q534 231 584 231 Z M1290 838 Q1196 838 1136.5 791 Q1077 744 1065 645 L1493 645 Q1481 738 1426 788 Q1371 838 1290 838 Z " />
<glyph glyph-name="endash" unicode="&#x2013;" horiz-adv-x="1014" d="M102 471 L102 705 L911 705 L911 471 L102 471 Z " />
<glyph glyph-name="emdash" unicode="&#x2014;" horiz-adv-x="1178" d="M-10 471 L-10 705 L1188 705 L1188 471 L-10 471 Z " />
<glyph glyph-name="quotedblleft" unicode="&#x201c;" horiz-adv-x="995" d="M434 1374 Q420 1362 401 1340 Q382 1318 362.5 1292 Q343 1266 326.5 1238 Q310 1210 301 1186 Q351 1170 384.5 1129.5 Q418 1089 418 1026 Q418 988 404 956.5 Q390 925 366 902.5 Q342 880 311 868 Q280 856 246 856 Q210 856 178.5 869 Q147 882 123 907 Q99 932 85.5 968.5 Q72 1005 72 1053 Q72 1113 92 1171.5 Q112 1230 146.5 1283.5 Q181 1337 226.5 1381.5 Q272 1426 322 1458 L434 1374 Z M924 1374 Q910 1362 890.5 1340 Q871 1318 851.5 1292 Q832 1266 815.5 1238 Q799 1210 791 1186 Q840 1170 873.5 1129.5 Q907 1089 907 1026 Q907 988 893 956.5 Q879 925 855 902.5 Q831 880 800 868 Q769 856 735 856 Q699 856 667.5 869 Q636 882 612 907 Q588 932 574.5 968.5 Q561 1005 561 1053 Q561 1113 581.5 1171.5 Q602 1230 636.5 1283.5 Q671 1337 716 1381.5 Q761 1426 811 1458 L924 1374 Z " />
<glyph glyph-name="quotedblright" unicode="&#x201d;" horiz-adv-x="995" d="M72 940 Q86 952 105 974 Q124 996 143.5 1022 Q163 1048 179.5 1076 Q196 1104 205 1128 Q155 1144 121.5 1184.5 Q88 1225 88 1288 Q88 1327 102 1358 Q116 1389 140 1411.5 Q164 1434 195 1446 Q226 1458 260 1458 Q296 1458 327.5 1445 Q359 1432 383 1407.5 Q407 1383 420.5 1346.5 Q434 1310 434 1262 Q434 1202 413.5 1143 Q393 1084 358.5 1030.5 Q324 977 279 932 Q234 887 184 856 L72 940 Z M561 940 Q575 952 594.5 974 Q614 996 633.5 1022 Q653 1048 669.5 1076 Q686 1104 694 1128 Q645 1144 611.5 1184.5 Q578 1225 578 1288 Q578 1327 592 1358 Q606 1389 630 1411.5 Q654 1434 685 1446 Q716 1458 750 1458 Q786 1458 817.5 1445 Q849 1432 873 1407.5 Q897 1383 910.5 1346.5 Q924 1310 924 1262 Q924 1202 903.5 1143 Q883 1084 848.5 1030.5 Q814 977 769 932 Q724 887 674 856 L561 940 Z " />
<glyph glyph-name="quoteleft" unicode="&#x2018;" horiz-adv-x="506" d="M434 1374 Q420 1362 401 1340 Q382 1318 362.5 1292 Q343 1266 326.5 1238 Q310 1210 301 1186 Q351 1170 384.5 1129.5 Q418 1089 418 1026 Q418 988 404 956.5 Q390 925 366 902.5 Q342 880 311 868 Q280 856 246 856 Q210 856 178.5 869 Q147 882 123 907 Q99 932 85.5 968.5 Q72 1005 72 1053 Q72 1113 92 1171.5 Q112 1230 146.5 1283.5 Q181 1337 226.5 1381.5 Q272 1426 322 1458 L434 1374 Z " />
<glyph glyph-name="quoteright" unicode="&#x2019;" horiz-adv-x="506" d="M72 940 Q86 952 105 974 Q124 996 143.5 1022 Q163 1048 179.5 1076 Q196 1104 205 1128 Q155 1144 121.5 1184.5 Q88 1225 88 1288 Q88 1327 102 1358 Q116 1389 140 1411.5 Q164 1434 195 1446 Q226 1458 260 1458 Q296 1458 327.5 1445 Q359 1432 383 1407.5 Q407 1383 420.5 1346.5 Q434 1310 434 1262 Q434 1202 413.5 1143 Q393 1084 358.5 1030.5 Q324 977 279 932 Q234 887 184 856 L72 940 Z " />
<glyph glyph-name="divide" unicode="&#xf7;" horiz-adv-x="1290" d="M164 573 L164 831 L1126 831 L1126 573 L164 573 Z M645 913 Q611 913 582 925.5 Q553 938 531.5 959 Q510 980 497.5 1008.5 Q485 1037 485 1069 Q485 1101 497.5 1129.5 Q510 1158 531.5 1179 Q553 1200 582 1212.5 Q611 1225 645 1225 Q679 1225 708 1212.5 Q737 1200 758.5 1179 Q780 1158 792.5 1129.5 Q805 1101 805 1069 Q805 1037 792.5 1008.5 Q780 980 758.5 959 Q737 938 708 925.5 Q679 913 645 913 Z M645 180 Q611 180 582 192.5 Q553 205 531.5 226 Q510 247 497.5 275.5 Q485 304 485 336 Q485 368 497.5 396.5 Q510 425 531.5 446 Q553 467 582 479.5 Q611 492 645 492 Q679 492 708 479.5 Q737 467 758.5 446 Q780 425 792.5 396.5 Q805 368 805 336 Q805 304 792.5 275.5 Q780 247 758.5 226 Q737 205 708 192.5 Q679 180 645 180 Z " />
<glyph glyph-name="lozenge" unicode="&#x25ca;" horiz-adv-x="1245" d="M526 -25 L113 717 L526 1458 L719 1458 L1133 717 L719 -25 L526 -25 Z M623 1106 L399 717 L623 328 L846 717 L623 1106 Z " />
<glyph glyph-name="ydieresis" unicode="&#xff;" horiz-adv-x="1167" d="M561 -397 L285 -397 L444 14 L51 1047 L324 1047 L553 442 Q571 395 584 346 Q590 371 598 395 Q606 419 614 442 L844 1047 L1116 1047 L561 -397 Z M391 1190 Q359 1190 332 1201.5 Q305 1213 284.5 1233 Q264 1253 252.5 1280 Q241 1307 241 1339 Q241 1370 252.5 1397.5 Q264 1425 284.5 1445.5 Q305 1466 332 1477.5 Q359 1489 391 1489 Q422 1489 449.5 1477.5 Q477 1466 497 1445.5 Q517 1425 528.5 1397.5 Q540 1370 540 1339 Q540 1307 528.5 1280 Q517 1253 497 1233 Q477 1213 449.5 1201.5 Q422 1190 391 1190 Z M780 1190 Q748 1190 721 1201.5 Q694 1213 673.5 1233 Q653 1253 641.5 1280 Q630 1307 630 1339 Q630 1370 641.5 1397.5 Q653 1425 673.5 1445.5 Q694 1466 721 1477.5 Q748 1489 780 1489 Q811 1489 838.5 1477.5 Q866 1466 886 1445.5 Q906 1425 917.5 1397.5 Q929 1370 929 1339 Q929 1307 917.5 1280 Q906 1253 886 1233 Q866 1213 838.5 1201.5 Q811 1190 780 1190 Z " />
<glyph glyph-name="Ydieresis" unicode="&#x178;" horiz-adv-x="1458" d="M592 0 L592 559 L61 1434 L375 1434 L729 848 L1083 1434 L1397 1434 L866 559 L866 0 L592 0 Z M535 1579 Q503 1579 476 1590.5 Q449 1602 428.5 1622 Q408 1642 396.5 1669 Q385 1696 385 1728 Q385 1759 396.5 1786.5 Q408 1814 428.5 1834.5 Q449 1855 476 1866.5 Q503 1878 535 1878 Q566 1878 593.5 1866.5 Q621 1855 641 1834.5 Q661 1814 672.5 1786.5 Q684 1759 684 1728 Q684 1696 672.5 1669 Q661 1642 641 1622 Q621 1602 593.5 1590.5 Q566 1579 535 1579 Z M924 1579 Q892 1579 865 1590.5 Q838 1602 817.5 1622 Q797 1642 785.5 1669 Q774 1696 774 1728 Q774 1759 785.5 1786.5 Q797 1814 817.5 1834.5 Q838 1855 865 1866.5 Q892 1878 924 1878 Q955 1878 982.5 1866.5 Q1010 1855 1030 1834.5 Q1050 1814 1061.5 1786.5 Q1073 1759 1073 1728 Q1073 1696 1061.5 1669 Q1050 1642 1030 1622 Q1010 1602 982.5 1590.5 Q955 1579 924 1579 Z " />
<glyph glyph-name="fraction" unicode="&#x2044;" horiz-adv-x="743" d="M-246 -25 L733 1458 L989 1458 L10 -25 L-246 -25 Z " />
<glyph glyph-name="Euro" unicode="&#x20ac;" horiz-adv-x="1309" d="M557 440 Q580 341 637 286 Q694 231 780 231 Q851 231 909 269.5 Q967 308 1014 377 L1227 246 Q1190 185 1143.5 135 Q1097 85 1041 49.5 Q985 14 920 -5.5 Q855 -25 780 -25 Q663 -25 576.5 10.5 Q490 46 428.5 109 Q367 172 329 257.5 Q291 343 272 444 L80 444 L166 641 L246 641 Q245 650 244.5 661.5 Q244 673 244 684 Q244 695 244 704 Q244 713 244 717 Q244 725 244 735 Q244 745 246 764 L80 764 L166 963 L272 963 Q292 1064 332.5 1154 Q373 1244 437 1311.5 Q501 1379 591 1418.5 Q681 1458 801 1458 Q895 1458 991.5 1427.5 Q1088 1397 1192 1321 L1094 1079 Q1065 1104 1033.5 1126.5 Q1002 1149 966 1166 Q930 1183 889.5 1192.5 Q849 1202 801 1202 Q751 1202 711.5 1184.5 Q672 1167 641 1135.5 Q610 1104 588.5 1060.5 Q567 1017 553 965 L1049 965 L967 764 L522 764 Q520 744 520 734.5 Q520 725 520 717 Q520 713 520 704 Q520 695 520 684 Q520 673 520.5 661.5 Q521 650 522 641 L920 641 L838 440 L557 440 Z " />
<glyph glyph-name="guilsinglleft" unicode="&#x2039;" horiz-adv-x="690" d="M373 0 L61 524 L373 1047 L659 1047 L348 524 L659 0 L373 0 Z " />
<glyph glyph-name="guilsinglright" unicode="&#x203a;" horiz-adv-x="690" d="M31 0 L342 524 L31 1047 L317 1047 L629 524 L317 0 L31 0 Z " />
<glyph glyph-name="fi" unicode="&#xfb01;" horiz-adv-x="1157" d="M456 813 L456 0 L190 0 L190 813 L45 813 L45 1047 L190 1047 L190 1206 Q190 1284 212.5 1333 Q235 1382 271.5 1409.5 Q308 1437 354 1447.5 Q400 1458 448 1458 Q511 1458 568 1446.5 Q625 1435 682 1407 L682 1190 Q651 1202 628 1208.5 Q605 1215 587 1219 Q569 1223 556 1224 Q543 1225 532 1225 Q498 1225 477 1207.5 Q456 1190 456 1153 L456 1047 L682 1047 L682 813 L456 813 Z M742 0 L742 1047 L1008 1047 L1008 0 L742 0 Z M875 1169 Q843 1169 814.5 1181.5 Q786 1194 765 1215 Q744 1236 731.5 1264.5 Q719 1293 719 1325 Q719 1357 731.5 1385 Q744 1413 765 1434 Q786 1455 814.5 1467 Q843 1479 875 1479 Q907 1479 935.5 1467 Q964 1455 985 1434 Q1006 1413 1018 1385 Q1030 1357 1030 1325 Q1030 1293 1018 1264.5 Q1006 1236 985 1215 Q964 1194 935.5 1181.5 Q907 1169 875 1169 Z " />
<glyph glyph-name="fl" unicode="&#xfb02;" horiz-adv-x="1145" d="M456 813 L456 0 L190 0 L190 813 L45 813 L45 1047 L190 1047 L190 1206 Q190 1284 212.5 1333 Q235 1382 271.5 1409.5 Q308 1437 354 1447.5 Q400 1458 448 1458 Q511 1458 568 1446.5 Q625 1435 682 1407 L682 1190 Q651 1202 628 1208.5 Q605 1215 587 1219 Q569 1223 556 1224 Q543 1225 532 1225 Q498 1225 477 1207.5 Q456 1190 456 1153 L456 1047 L682 1047 L682 813 L456 813 Z M735 0 L735 1354 L1001 1479 L1001 0 L735 0 Z " />
<glyph glyph-name="daggerdbl" unicode="&#x2021;" horiz-adv-x="1196" d="M920 328 L1063 328 L1063 72 L920 72 L715 100 L731 -33 L731 -289 L465 -289 L465 -33 L481 100 L276 72 L133 72 L133 328 L276 328 L481 301 L465 485 L465 684 L481 868 L276 842 L133 842 L133 1098 L276 1098 L481 1069 L465 1202 L465 1458 L731 1458 L731 1202 L715 1069 L920 1098 L1063 1098 L1063 842 L920 842 L715 868 L731 684 L731 485 L715 301 L920 328 Z " />
<glyph glyph-name="periodcentered" unicode="&#xb7;" horiz-adv-x="494" d="M246 547 Q209 547 177.5 560 Q146 573 123 595.5 Q100 618 87 649 Q74 680 74 715 Q74 750 87 781 Q100 812 123 835 Q146 858 177.5 871.5 Q209 885 246 885 Q283 885 314.5 871.5 Q346 858 369.5 835 Q393 812 406.5 781 Q420 750 420 715 Q420 680 406.5 649 Q393 618 369.5 595.5 Q346 573 314.5 560 Q283 547 246 547 Z " />
<glyph glyph-name="quotesinglbase" unicode="&#x201a;" horiz-adv-x="506" d="M72 -205 Q86 -193 105 -171 Q124 -149 143.5 -123 Q163 -97 179.5 -69 Q196 -41 205 -16 Q155 -1 121.5 39.5 Q88 80 88 143 Q88 182 102 213 Q116 244 140 266.5 Q164 289 195 301 Q226 313 260 313 Q296 313 327.5 300 Q359 287 383 262.5 Q407 238 420.5 201.5 Q434 165 434 117 Q434 57 413.5 -2 Q393 -61 358.5 -114.5 Q324 -168 279 -213 Q234 -258 184 -289 L72 -205 Z " />
<glyph glyph-name="quotedblbase" unicode="&#x201e;" horiz-adv-x="995" d="M72 -205 Q86 -193 105 -171 Q124 -149 143.5 -123 Q163 -97 179.5 -69 Q196 -41 205 -16 Q155 -1 121.5 39.5 Q88 80 88 143 Q88 182 102 213 Q116 244 140 266.5 Q164 289 195 301 Q226 313 260 313 Q296 313 327.5 300 Q359 287 383 262.5 Q407 238 420.5 201.5 Q434 165 434 117 Q434 57 413.5 -2 Q393 -61 358.5 -114.5 Q324 -168 279 -213 Q234 -258 184 -289 L72 -205 Z M561 -205 Q575 -193 594.5 -171 Q614 -149 633.5 -123 Q653 -97 669.5 -69 Q686 -41 694 -16 Q645 -1 611.5 39.5 Q578 80 578 143 Q578 182 592 213 Q606 244 630 266.5 Q654 289 685 301 Q716 313 750 313 Q786 313 817.5 300 Q849 287 873 262.5 Q897 238 910.5 201.5 Q924 165 924 117 Q924 57 903.5 -2 Q883 -61 848.5 -114.5 Q814 -168 769 -213 Q724 -258 674 -289 L561 -205 Z " />
<glyph glyph-name="perthousand" unicode="&#x2030;" horiz-adv-x="2540" d="M440 709 Q345 709 278.5 742.5 Q212 776 170.5 830 Q129 884 110.5 950.5 Q92 1017 92 1083 Q92 1124 100 1167.5 Q108 1211 125.5 1253 Q143 1295 170 1332 Q197 1369 236 1397 Q275 1425 325.5 1441.5 Q376 1458 440 1458 Q535 1458 601.5 1424.5 Q668 1391 709.5 1337 Q751 1283 769.5 1216 Q788 1149 788 1083 Q788 1022 770 956 Q752 890 711.5 835 Q671 780 604 744.5 Q537 709 440 709 Z M440 930 Q471 930 493.5 942.5 Q516 955 530.5 976 Q545 997 552 1024.5 Q559 1052 559 1083 Q559 1152 529.5 1194.5 Q500 1237 440 1237 Q409 1237 387 1224.5 Q365 1212 350.5 1191 Q336 1170 329 1142 Q322 1114 322 1083 Q322 1015 351 972.5 Q380 930 440 930 Z M508 -25 L244 -25 L1221 1458 L1485 1458 L508 -25 Z M1288 -25 Q1192 -25 1125.5 9 Q1059 43 1018 96.5 Q977 150 958.5 217 Q940 284 940 350 Q940 391 948 434.5 Q956 478 973.5 520 Q991 562 1018 599 Q1045 636 1084 664 Q1123 692 1173.5 708.5 Q1224 725 1288 725 Q1383 725 1449.5 691 Q1516 657 1557.5 603.5 Q1599 550 1617.5 483 Q1636 416 1636 350 Q1636 288 1618 222 Q1600 156 1559.5 101 Q1519 46 1452 10.5 Q1385 -25 1288 -25 Z M1288 197 Q1319 197 1341.5 209.5 Q1364 222 1378.5 243 Q1393 264 1400 291.5 Q1407 319 1407 350 Q1407 418 1377.5 461 Q1348 504 1288 504 Q1257 504 1234.5 491.5 Q1212 479 1197.5 458 Q1183 437 1176 409 Q1169 381 1169 350 Q1169 282 1197.5 239.5 Q1226 197 1288 197 Z M2099 -25 Q2003 -25 1936.5 9 Q1870 43 1829 96.5 Q1788 150 1769.5 217 Q1751 284 1751 350 Q1751 391 1759 434.5 Q1767 478 1784.5 520 Q1802 562 1829 599 Q1856 636 1895 664 Q1934 692 1984.5 708.5 Q2035 725 2099 725 Q2194 725 2260.5 691 Q2327 657 2368.5 603.5 Q2410 550 2428.5 483 Q2447 416 2447 350 Q2447 288 2429 222 Q2411 156 2370.5 101 Q2330 46 2263 10.5 Q2196 -25 2099 -25 Z M2099 197 Q2130 197 2152.5 209.5 Q2175 222 2189.5 243 Q2204 264 2211 291.5 Q2218 319 2218 350 Q2218 418 2188.5 461 Q2159 504 2099 504 Q2068 504 2045.5 491.5 Q2023 479 2008.5 458 Q1994 437 1987 409 Q1980 381 1980 350 Q1980 282 2008.5 239.5 Q2037 197 2099 197 Z " />
<glyph glyph-name="Acircumflex" unicode="&#xc2;" horiz-adv-x="1520" d="M1147 0 L1036 297 L483 297 L373 0 L76 0 L625 1434 L895 1434 L1444 0 L1147 0 Z M805 922 Q794 948 781.5 984 Q769 1020 760 1051 Q752 1020 739 984 Q726 948 715 922 L573 549 L946 549 L805 922 Z M931 1569 L759 1710 L587 1569 L342 1569 L632 1888 L888 1888 L1177 1569 L931 1569 Z " />
<glyph glyph-name="Ecircumflex" unicode="&#xca;" horiz-adv-x="1319" d="M184 0 L184 1434 L1163 1434 L1163 1171 L461 1171 L461 870 L874 870 L874 608 L461 608 L461 262 L1206 262 L1206 0 L184 0 Z M860 1569 L688 1710 L516 1569 L271 1569 L561 1888 L817 1888 L1106 1569 L860 1569 Z " />
<glyph glyph-name="Aacute" unicode="&#xc1;" horiz-adv-x="1520" d="M1147 0 L1036 297 L483 297 L373 0 L76 0 L625 1434 L895 1434 L1444 0 L1147 0 Z M805 922 Q794 948 781.5 984 Q769 1020 760 1051 Q752 1020 739 984 Q726 948 715 922 L573 549 L946 549 L805 922 Z M739 1569 L481 1569 L772 1888 L1104 1888 L739 1569 Z " />
<glyph glyph-name="Edieresis" unicode="&#xcb;" horiz-adv-x="1319" d="M184 0 L184 1434 L1163 1434 L1163 1171 L461 1171 L461 870 L874 870 L874 608 L461 608 L461 262 L1206 262 L1206 0 L184 0 Z M496 1579 Q464 1579 437 1590.5 Q410 1602 389.5 1622 Q369 1642 357.5 1669 Q346 1696 346 1728 Q346 1759 357.5 1786.5 Q369 1814 389.5 1834.5 Q410 1855 437 1866.5 Q464 1878 496 1878 Q527 1878 554.5 1866.5 Q582 1855 602 1834.5 Q622 1814 633.5 1786.5 Q645 1759 645 1728 Q645 1696 633.5 1669 Q622 1642 602 1622 Q582 1602 554.5 1590.5 Q527 1579 496 1579 Z M885 1579 Q853 1579 826 1590.5 Q799 1602 778.5 1622 Q758 1642 746.5 1669 Q735 1696 735 1728 Q735 1759 746.5 1786.5 Q758 1814 778.5 1834.5 Q799 1855 826 1866.5 Q853 1878 885 1878 Q916 1878 943.5 1866.5 Q971 1855 991 1834.5 Q1011 1814 1022.5 1786.5 Q1034 1759 1034 1728 Q1034 1696 1022.5 1669 Q1011 1642 991 1622 Q971 1602 943.5 1590.5 Q916 1579 885 1579 Z " />
<glyph glyph-name="Egrave" unicode="&#xc8;" horiz-adv-x="1319" d="M184 0 L184 1434 L1163 1434 L1163 1171 L461 1171 L461 870 L874 870 L874 608 L461 608 L461 262 L1206 262 L1206 0 L184 0 Z M670 1569 L305 1888 L637 1888 L928 1569 L670 1569 Z " />
<glyph glyph-name="Iacute" unicode="&#xcd;" horiz-adv-x="666" d="M195 0 L195 1434 L471 1434 L471 0 L195 0 Z M315 1569 L57 1569 L348 1888 L680 1888 L315 1569 Z " />
<glyph glyph-name="Icircumflex" unicode="&#xce;" horiz-adv-x="666" d="M195 0 L195 1434 L471 1434 L471 0 L195 0 Z M507 1569 L335 1710 L163 1569 L-82 1569 L208 1888 L464 1888 L753 1569 L507 1569 Z " />
<glyph glyph-name="Idieresis" unicode="&#xcf;" horiz-adv-x="666" d="M195 0 L195 1434 L471 1434 L471 0 L195 0 Z M141 1579 Q109 1579 82 1590.5 Q55 1602 34.5 1622 Q14 1642 2.5 1669 Q-9 1696 -9 1728 Q-9 1759 2.5 1786.5 Q14 1814 34.5 1834.5 Q55 1855 82 1866.5 Q109 1878 141 1878 Q172 1878 199.5 1866.5 Q227 1855 247 1834.5 Q267 1814 278.5 1786.5 Q290 1759 290 1728 Q290 1696 278.5 1669 Q267 1642 247 1622 Q227 1602 199.5 1590.5 Q172 1579 141 1579 Z M530 1579 Q498 1579 471 1590.5 Q444 1602 423.5 1622 Q403 1642 391.5 1669 Q380 1696 380 1728 Q380 1759 391.5 1786.5 Q403 1814 423.5 1834.5 Q444 1855 471 1866.5 Q498 1878 530 1878 Q561 1878 588.5 1866.5 Q616 1855 636 1834.5 Q656 1814 667.5 1786.5 Q679 1759 679 1728 Q679 1696 667.5 1669 Q656 1642 636 1622 Q616 1602 588.5 1590.5 Q561 1579 530 1579 Z " />
<glyph glyph-name="Igrave" unicode="&#xcc;" horiz-adv-x="666" d="M195 0 L195 1434 L471 1434 L471 0 L195 0 Z M357 1569 L-8 1888 L324 1888 L615 1569 L357 1569 Z " />
<glyph glyph-name="Oacute" unicode="&#xd3;" horiz-adv-x="1530" d="M766 -25 Q650 -25 558 5.5 Q466 36 395.5 88.5 Q325 141 275 212.5 Q225 284 193.5 366.5 Q162 449 147.5 538.5 Q133 628 133 717 Q133 805 147.5 894.5 Q162 984 193.5 1066.5 Q225 1149 275 1220.5 Q325 1292 395.5 1344.5 Q466 1397 558 1427.5 Q650 1458 766 1458 Q882 1458 973.5 1427.5 Q1065 1397 1135 1344.5 Q1205 1292 1255 1220.5 Q1305 1149 1336.5 1066.5 Q1368 984 1382.5 894.5 Q1397 805 1397 717 Q1397 628 1382.5 538.5 Q1368 449 1336.5 366.5 Q1305 284 1255 212.5 Q1205 141 1135 88.5 Q1065 36 973.5 5.5 Q882 -25 766 -25 Z M766 242 Q862 242 927.5 287 Q993 332 1033.5 402 Q1074 472 1092 555.5 Q1110 639 1110 717 Q1110 772 1102.5 828.5 Q1095 885 1078 937.5 Q1061 990 1034 1036.5 Q1007 1083 969 1117.5 Q931 1152 880.5 1172 Q830 1192 766 1192 Q701 1192 650.5 1171 Q600 1150 561.5 1114.5 Q523 1079 496 1032 Q469 985 452 932 Q435 879 427.5 824 Q420 769 420 717 Q420 635 438 550.5 Q456 466 496.5 397.5 Q537 329 603 285.5 Q669 242 766 242 Z M786 1569 L528 1569 L819 1888 L1151 1888 L786 1569 Z " />
<glyph glyph-name="Ocircumflex" unicode="&#xd4;" horiz-adv-x="1530" d="M766 -25 Q650 -25 558 5.5 Q466 36 395.5 88.5 Q325 141 275 212.5 Q225 284 193.5 366.5 Q162 449 147.5 538.5 Q133 628 133 717 Q133 805 147.5 894.5 Q162 984 193.5 1066.5 Q225 1149 275 1220.5 Q325 1292 395.5 1344.5 Q466 1397 558 1427.5 Q650 1458 766 1458 Q882 1458 973.5 1427.5 Q1065 1397 1135 1344.5 Q1205 1292 1255 1220.5 Q1305 1149 1336.5 1066.5 Q1368 984 1382.5 894.5 Q1397 805 1397 717 Q1397 628 1382.5 538.5 Q1368 449 1336.5 366.5 Q1305 284 1255 212.5 Q1205 141 1135 88.5 Q1065 36 973.5 5.5 Q882 -25 766 -25 Z M766 242 Q862 242 927.5 287 Q993 332 1033.5 402 Q1074 472 1092 555.5 Q1110 639 1110 717 Q1110 772 1102.5 828.5 Q1095 885 1078 937.5 Q1061 990 1034 1036.5 Q1007 1083 969 1117.5 Q931 1152 880.5 1172 Q830 1192 766 1192 Q701 1192 650.5 1171 Q600 1150 561.5 1114.5 Q523 1079 496 1032 Q469 985 452 932 Q435 879 427.5 824 Q420 769 420 717 Q420 635 438 550.5 Q456 466 496.5 397.5 Q537 329 603 285.5 Q669 242 766 242 Z M938 1569 L766 1710 L594 1569 L349 1569 L639 1888 L895 1888 L1184 1569 L938 1569 Z " />
<glyph glyph-name="Ograve" unicode="&#xd2;" horiz-adv-x="1530" d="M766 -25 Q650 -25 558 5.5 Q466 36 395.5 88.5 Q325 141 275 212.5 Q225 284 193.5 366.5 Q162 449 147.5 538.5 Q133 628 133 717 Q133 805 147.5 894.5 Q162 984 193.5 1066.5 Q225 1149 275 1220.5 Q325 1292 395.5 1344.5 Q466 1397 558 1427.5 Q650 1458 766 1458 Q882 1458 973.5 1427.5 Q1065 1397 1135 1344.5 Q1205 1292 1255 1220.5 Q1305 1149 1336.5 1066.5 Q1368 984 1382.5 894.5 Q1397 805 1397 717 Q1397 628 1382.5 538.5 Q1368 449 1336.5 366.5 Q1305 284 1255 212.5 Q1205 141 1135 88.5 Q1065 36 973.5 5.5 Q882 -25 766 -25 Z M766 242 Q862 242 927.5 287 Q993 332 1033.5 402 Q1074 472 1092 555.5 Q1110 639 1110 717 Q1110 772 1102.5 828.5 Q1095 885 1078 937.5 Q1061 990 1034 1036.5 Q1007 1083 969 1117.5 Q931 1152 880.5 1172 Q830 1192 766 1192 Q701 1192 650.5 1171 Q600 1150 561.5 1114.5 Q523 1079 496 1032 Q469 985 452 932 Q435 879 427.5 824 Q420 769 420 717 Q420 635 438 550.5 Q456 466 496.5 397.5 Q537 329 603 285.5 Q669 242 766 242 Z M746 1569 L381 1888 L713 1888 L1004 1569 L746 1569 Z " />
<glyph glyph-name="Uacute" unicode="&#xda;" horiz-adv-x="1503" d="M752 -25 Q679 -25 607.5 -12.5 Q536 0 472 28 Q408 56 353.5 100.5 Q299 145 259 209 Q219 273 196.5 357 Q174 441 174 549 L174 1434 L451 1434 L451 549 Q451 460 471.5 400.5 Q492 341 531 306 Q570 271 626 256.5 Q682 242 752 242 Q821 242 876.5 256.5 Q932 271 971.5 306 Q1011 341 1032 400.5 Q1053 460 1053 549 L1053 1434 L1329 1434 L1329 549 Q1329 389 1281 279.5 Q1233 170 1152.5 102.5 Q1072 35 968 5 Q864 -25 752 -25 Z M770 1569 L512 1569 L803 1888 L1135 1888 L770 1569 Z " />
<glyph glyph-name="Ucircumflex" unicode="&#xdb;" horiz-adv-x="1503" d="M752 -25 Q679 -25 607.5 -12.5 Q536 0 472 28 Q408 56 353.5 100.5 Q299 145 259 209 Q219 273 196.5 357 Q174 441 174 549 L174 1434 L451 1434 L451 549 Q451 460 471.5 400.5 Q492 341 531 306 Q570 271 626 256.5 Q682 242 752 242 Q821 242 876.5 256.5 Q932 271 971.5 306 Q1011 341 1032 400.5 Q1053 460 1053 549 L1053 1434 L1329 1434 L1329 549 Q1329 389 1281 279.5 Q1233 170 1152.5 102.5 Q1072 35 968 5 Q864 -25 752 -25 Z M921 1569 L749 1710 L577 1569 L332 1569 L622 1888 L878 1888 L1167 1569 L921 1569 Z " />
<glyph glyph-name="Ugrave" unicode="&#xd9;" horiz-adv-x="1503" d="M752 -25 Q679 -25 607.5 -12.5 Q536 0 472 28 Q408 56 353.5 100.5 Q299 145 259 209 Q219 273 196.5 357 Q174 441 174 549 L174 1434 L451 1434 L451 549 Q451 460 471.5 400.5 Q492 341 531 306 Q570 271 626 256.5 Q682 242 752 242 Q821 242 876.5 256.5 Q932 271 971.5 306 Q1011 341 1032 400.5 Q1053 460 1053 549 L1053 1434 L1329 1434 L1329 549 Q1329 389 1281 279.5 Q1233 170 1152.5 102.5 Q1072 35 968 5 Q864 -25 752 -25 Z M770 1569 L405 1888 L737 1888 L1028 1569 L770 1569 Z " />
<glyph glyph-name="dotlessi" unicode="&#x131;" horiz-adv-x="578" d="M156 0 L156 1047 L422 1047 L422 0 L156 0 Z " />
<glyph glyph-name="circumflex" unicode="&#x2c6;" horiz-adv-x="973" d="M657 1180 L485 1321 L313 1180 L68 1180 L358 1499 L614 1499 L903 1180 L657 1180 Z " />
<glyph glyph-name="tilde" unicode="&#x2dc;" horiz-adv-x="973" d="M647 1194 Q593 1194 547.5 1208.5 Q502 1223 462 1241 Q422 1259 385 1273.5 Q348 1288 309 1288 Q271 1288 243.5 1268.5 Q216 1249 213 1202 L88 1202 Q88 1263 100 1315 Q112 1367 139.5 1405 Q167 1443 212.5 1464 Q258 1485 324 1485 Q378 1485 423.5 1470.5 Q469 1456 509 1438 Q549 1420 586 1405.5 Q623 1391 662 1391 Q700 1391 727.5 1410.5 Q755 1430 758 1477 L883 1477 Q883 1415 871 1363.5 Q859 1312 831 1274 Q803 1236 758 1215 Q713 1194 647 1194 Z " />
<glyph glyph-name="macron" unicode="&#xaf;" horiz-adv-x="973" d="M147 1202 L147 1419 L823 1419 L823 1202 L147 1202 Z " />
<glyph glyph-name="breve" unicode="&#x2d8;" horiz-adv-x="973" d="M485 1171 Q384 1171 311 1200 Q238 1229 190 1277 Q142 1325 119 1388 Q96 1451 96 1520 L301 1520 Q301 1491 311.5 1463 Q322 1435 344 1413 Q366 1391 401 1377.5 Q436 1364 485 1364 Q534 1364 569.5 1377.5 Q605 1391 627.5 1413 Q650 1435 661 1463 Q672 1491 672 1520 L877 1520 Q877 1451 853.5 1387.5 Q830 1324 782 1276 Q734 1228 660 1199.5 Q586 1171 485 1171 Z " />
<glyph glyph-name="dotaccent" unicode="&#x2d9;" horiz-adv-x="973" d="M485 1190 Q453 1190 426 1201.5 Q399 1213 379 1233 Q359 1253 347.5 1280 Q336 1307 336 1339 Q336 1370 347.5 1397.5 Q359 1425 379 1445.5 Q399 1466 426 1477.5 Q453 1489 485 1489 Q516 1489 543.5 1477.5 Q571 1466 591.5 1445.5 Q612 1425 623.5 1397.5 Q635 1370 635 1339 Q635 1307 623.5 1280 Q612 1253 591.5 1233 Q571 1213 543.5 1201.5 Q516 1190 485 1190 Z " />
<glyph glyph-name="ring" unicode="&#x2da;" horiz-adv-x="973" d="M485 1257 Q517 1257 541 1280.5 Q565 1304 565 1339 Q565 1374 541 1397.5 Q517 1421 485 1421 Q451 1421 428.5 1397.5 Q406 1374 406 1339 Q406 1304 428.5 1280.5 Q451 1257 485 1257 Z M485 1075 Q431 1075 382.5 1096 Q334 1117 297.5 1153 Q261 1189 240 1237 Q219 1285 219 1339 Q219 1394 240 1442 Q261 1490 297.5 1525.5 Q334 1561 382.5 1581.5 Q431 1602 485 1602 Q540 1602 588.5 1581.5 Q637 1561 673.5 1525.5 Q710 1490 731 1442 Q752 1394 752 1339 Q752 1285 731 1237 Q710 1189 673.5 1153 Q637 1117 588.5 1096 Q540 1075 485 1075 Z " />
<glyph glyph-name="cedilla" unicode="&#xb8;" horiz-adv-x="973" d="M459 -500 Q372 -500 318 -472.5 Q264 -445 233 -403 L348 -317 Q361 -333 382 -344.5 Q403 -356 432 -356 Q480 -356 505 -335 Q530 -314 530 -276 Q530 -239 504 -218 Q478 -197 430 -197 Q405 -197 383.5 -204 Q362 -211 342 -225 L287 -158 L434 20 L578 20 L506 -94 Q566 -94 609.5 -108 Q653 -122 681.5 -147 Q710 -172 723.5 -206 Q737 -240 737 -279 Q737 -327 718.5 -367.5 Q700 -408 664.5 -437.5 Q629 -467 577.5 -483.5 Q526 -500 459 -500 Z " />
<glyph glyph-name="hungarumlaut" unicode="&#x2dd;" horiz-adv-x="973" d="M209 1180 L-49 1180 L242 1499 L573 1499 L209 1180 Z M659 1180 L401 1180 L692 1499 L1024 1499 L659 1180 Z " />
<glyph glyph-name="ogonek" unicode="&#x2db;" horiz-adv-x="973" d="M492 -500 Q434 -500 387 -484 Q340 -468 307 -439 Q274 -410 256 -369.5 Q238 -329 238 -279 Q238 -176 312.5 -99.5 Q387 -23 518 20 L702 20 Q633 -8 586 -42.5 Q539 -77 509.5 -114 Q480 -151 467.5 -187.5 Q455 -224 455 -256 Q455 -304 477.5 -325 Q500 -346 532 -346 Q560 -346 580 -334.5 Q600 -323 612 -307 L735 -395 Q720 -412 698.5 -430.5 Q677 -449 648 -464.5 Q619 -480 580.5 -490 Q542 -500 492 -500 Z " />
<glyph glyph-name="caron" unicode="&#x2c7;" horiz-adv-x="973" d="M612 1180 L356 1180 L68 1499 L313 1499 L485 1358 L657 1499 L903 1499 L612 1180 Z " />
<glyph glyph-name="currency" unicode="&#xa4;" horiz-adv-x="1331" d="M666 174 Q593 174 531 189 Q469 204 414 233 L272 90 L74 289 L223 438 Q174 545 174 682 Q174 751 188.5 812 Q203 873 227 926 L74 1079 L266 1272 L410 1128 Q464 1157 527.5 1173.5 Q591 1190 666 1190 Q734 1190 797.5 1174.5 Q861 1159 915 1128 L1057 1272 L1257 1073 L1106 924 Q1128 873 1142.5 810 Q1157 747 1157 682 Q1157 613 1143.5 549.5 Q1130 486 1104 432 L1257 283 L1063 90 L918 236 Q864 207 799.5 190.5 Q735 174 666 174 Z M666 434 Q715 434 755.5 452.5 Q796 471 824.5 504 Q853 537 869 582.5 Q885 628 885 682 Q885 736 869 781.5 Q853 827 824.5 860 Q796 893 755.5 911.5 Q715 930 666 930 Q617 930 576.5 911.5 Q536 893 507 860 Q478 827 462 781.5 Q446 736 446 682 Q446 628 462 582.5 Q478 537 507 504 Q536 471 576.5 452.5 Q617 434 666 434 Z " />
<glyph glyph-name="uni00AD" unicode="&#xad;" horiz-adv-x="844" d="M154 477 L154 733 L690 733 L690 477 L154 477 Z " />
<glyph glyph-name="Amacron" unicode="&#x100;" horiz-adv-x="1520" d="M1147 0 L1036 297 L483 297 L373 0 L76 0 L625 1434 L895 1434 L1444 0 L1147 0 Z M805 922 Q794 948 781.5 984 Q769 1020 760 1051 Q752 1020 739 984 Q726 948 715 922 L573 549 L946 549 L805 922 Z M421 1591 L421 1808 L1097 1808 L1097 1591 L421 1591 Z " />
<glyph glyph-name="amacron" unicode="&#x101;" horiz-adv-x="1143" d="M748 0 L748 76 Q730 57 704.5 39 Q679 21 645 6.5 Q611 -8 569.5 -16.5 Q528 -25 477 -25 Q396 -25 326 -3 Q256 19 204 63 Q152 107 122 171.5 Q92 236 92 322 Q92 412 128 477.5 Q164 543 222.5 585.5 Q281 628 355.5 648 Q430 668 508 668 Q583 668 641.5 654.5 Q700 641 748 618 L748 672 Q748 758 699 798 Q650 838 559 838 Q466 838 388 811 Q310 784 236 733 L154 948 Q191 973 237.5 995.5 Q284 1018 338 1035 Q392 1052 453.5 1061.5 Q515 1071 582 1071 Q629 1071 679 1066 Q729 1061 776.5 1046 Q824 1031 866.5 1003 Q909 975 941 930.5 Q973 886 991.5 821.5 Q1010 757 1010 668 L1010 0 L748 0 Z M528 209 Q601 209 655 234.5 Q709 260 748 295 L748 408 Q707 423 656.5 432.5 Q606 442 553 442 Q512 442 475.5 435.5 Q439 429 411.5 414.5 Q384 400 368 377 Q352 354 352 322 Q352 271 397 240 Q442 209 528 209 Z M245 1202 L245 1419 L921 1419 L921 1202 L245 1202 Z " />
<glyph glyph-name="Abreve" unicode="&#x102;" horiz-adv-x="1520" d="M1147 0 L1036 297 L483 297 L373 0 L76 0 L625 1434 L895 1434 L1444 0 L1147 0 Z M805 922 Q794 948 781.5 984 Q769 1020 760 1051 Q752 1020 739 984 Q726 948 715 922 L573 549 L946 549 L805 922 Z M759 1560 Q658 1560 585 1589 Q512 1618 464 1666 Q416 1714 393 1777 Q370 1840 370 1909 L575 1909 Q575 1880 585.5 1852 Q596 1824 618 1802 Q640 1780 675 1766.5 Q710 1753 759 1753 Q808 1753 843.5 1766.5 Q879 1780 901.5 1802 Q924 1824 935 1852 Q946 1880 946 1909 L1151 1909 Q1151 1840 1127.5 1776.5 Q1104 1713 1056 1665 Q1008 1617 934 1588.5 Q860 1560 759 1560 Z " />
<glyph glyph-name="abreve" unicode="&#x103;" horiz-adv-x="1143" d="M748 0 L748 76 Q730 57 704.5 39 Q679 21 645 6.5 Q611 -8 569.5 -16.5 Q528 -25 477 -25 Q396 -25 326 -3 Q256 19 204 63 Q152 107 122 171.5 Q92 236 92 322 Q92 412 128 477.5 Q164 543 222.5 585.5 Q281 628 355.5 648 Q430 668 508 668 Q583 668 641.5 654.5 Q700 641 748 618 L748 672 Q748 758 699 798 Q650 838 559 838 Q466 838 388 811 Q310 784 236 733 L154 948 Q191 973 237.5 995.5 Q284 1018 338 1035 Q392 1052 453.5 1061.5 Q515 1071 582 1071 Q629 1071 679 1066 Q729 1061 776.5 1046 Q824 1031 866.5 1003 Q909 975 941 930.5 Q973 886 991.5 821.5 Q1010 757 1010 668 L1010 0 L748 0 Z M528 209 Q601 209 655 234.5 Q709 260 748 295 L748 408 Q707 423 656.5 432.5 Q606 442 553 442 Q512 442 475.5 435.5 Q439 429 411.5 414.5 Q384 400 368 377 Q352 354 352 322 Q352 271 397 240 Q442 209 528 209 Z M583 1171 Q482 1171 409 1200 Q336 1229 288 1277 Q240 1325 217 1388 Q194 1451 194 1520 L399 1520 Q399 1491 409.5 1463 Q420 1435 442 1413 Q464 1391 499 1377.5 Q534 1364 583 1364 Q632 1364 667.5 1377.5 Q703 1391 725.5 1413 Q748 1435 759 1463 Q770 1491 770 1520 L975 1520 Q975 1451 951.5 1387.5 Q928 1324 880 1276 Q832 1228 758 1199.5 Q684 1171 583 1171 Z " />
<glyph glyph-name="Aogonek" unicode="&#x104;" horiz-adv-x="1520" d="M1176 -500 Q1118 -500 1071 -484 Q1024 -468 991 -439 Q958 -410 940 -369.5 Q922 -329 922 -279 Q922 -188 981.5 -117 Q1041 -46 1147 0 L1036 297 L483 297 L373 0 L76 0 L625 1434 L895 1434 L1444 0 Q1378 0 1322 -23 Q1266 -46 1225.5 -82.5 Q1185 -119 1162 -165 Q1139 -211 1139 -256 Q1139 -304 1162 -325 Q1185 -346 1217 -346 Q1244 -346 1264 -334.5 Q1284 -323 1296 -307 L1419 -395 Q1404 -412 1382.5 -430.5 Q1361 -449 1332 -464.5 Q1303 -480 1264.5 -490 Q1226 -500 1176 -500 Z M805 922 Q794 948 781.5 984 Q769 1020 760 1051 Q752 1020 739 984 Q726 948 715 922 L573 549 L946 549 L805 922 Z " />
<glyph glyph-name="aogonek" unicode="&#x105;" horiz-adv-x="1143" d="M772 -500 Q714 -500 667 -484 Q620 -468 587 -439 Q554 -410 536 -369.5 Q518 -329 518 -279 Q518 -186 578.5 -115 Q639 -44 748 2 L748 76 Q730 57 704.5 39 Q679 21 645 6.5 Q611 -8 569.5 -16.5 Q528 -25 477 -25 Q396 -25 326 -3 Q256 19 204 63 Q152 107 122 171.5 Q92 236 92 322 Q92 412 128 477.5 Q164 543 222.5 585.5 Q281 628 355.5 648 Q430 668 508 668 Q583 668 641.5 654.5 Q700 641 748 618 L748 672 Q748 758 699 798 Q650 838 559 838 Q466 838 388 811 Q310 784 236 733 L154 948 Q191 973 237.5 995.5 Q284 1018 338 1035 Q392 1052 453.5 1061.5 Q515 1071 582 1071 Q629 1071 679 1066 Q729 1061 776.5 1046 Q824 1031 866.5 1003 Q909 975 941 930.5 Q973 886 991.5 821.5 Q1010 757 1010 668 L1010 0 Q962 -14 913 -38 Q864 -62 824.5 -94.5 Q785 -127 760 -167.5 Q735 -208 735 -256 Q735 -304 758 -325 Q781 -346 813 -346 Q841 -346 861 -334.5 Q881 -323 893 -307 L1016 -395 Q1001 -412 979.5 -430.5 Q958 -449 928.5 -464.5 Q899 -480 860.5 -490 Q822 -500 772 -500 Z M528 209 Q601 209 655 234.5 Q709 260 748 295 L748 408 Q707 423 656.5 432.5 Q606 442 553 442 Q512 442 475.5 435.5 Q439 429 411.5 414.5 Q384 400 368 377 Q352 354 352 322 Q352 271 397 240 Q442 209 528 209 Z " />
<glyph glyph-name="Cacute" unicode="&#x106;" horiz-adv-x="1352" d="M735 -23 Q623 -23 535 7 Q447 37 380 90 Q313 143 266 214 Q219 285 189.5 367.5 Q160 450 146.5 539 Q133 628 133 717 Q133 799 147 885.5 Q161 972 190.5 1054 Q220 1136 267.5 1209 Q315 1282 381.5 1337 Q448 1392 536 1424 Q624 1456 735 1456 Q838 1456 922 1428 Q1006 1400 1070 1354.5 Q1134 1309 1178.5 1251 Q1223 1193 1247 1133 L999 1020 Q973 1060 946 1092 Q919 1124 888 1145.5 Q857 1167 819.5 1178.5 Q782 1190 735 1190 Q675 1190 628 1169.5 Q581 1149 546 1114 Q511 1079 487 1032 Q463 985 448 932.5 Q433 880 426.5 824.5 Q420 769 420 717 Q420 633 438 549 Q456 465 494 397 Q532 329 591.5 286.5 Q651 244 735 244 Q779 244 816 257.5 Q853 271 884.5 295 Q916 319 943.5 353 Q971 387 995 428 L1249 332 Q1215 253 1167 187.5 Q1119 122 1055.5 75.5 Q992 29 912 3 Q832 -23 735 -23 Z M760 1569 L502 1569 L793 1888 L1125 1888 L760 1569 Z " />
<glyph glyph-name="cacute" unicode="&#x107;" horiz-adv-x="1120" d="M580 -25 Q471 -25 382.5 12.5 Q294 50 232 120.5 Q170 191 136 292.5 Q102 394 102 522 Q102 650 136 752 Q170 854 232 925 Q294 996 382.5 1033.5 Q471 1071 580 1071 Q740 1071 852.5 997.5 Q965 924 1016 764 L762 680 Q739 740 694 777.5 Q649 815 586 815 Q537 815 497.5 794 Q458 773 430.5 735 Q403 697 388 643 Q373 589 373 522 Q373 455 388 401.5 Q403 348 430 310 Q457 272 495 251.5 Q533 231 580 231 Q648 231 695 270 Q742 309 764 383 L1018 307 Q971 142 860.5 58.5 Q750 -25 580 -25 Z M567 1180 L309 1180 L600 1499 L932 1499 L567 1180 Z " />
<glyph glyph-name="Ccircumflex" unicode="&#x108;" horiz-adv-x="1352" d="M735 -23 Q623 -23 535 7 Q447 37 380 90 Q313 143 266 214 Q219 285 189.5 367.5 Q160 450 146.5 539 Q133 628 133 717 Q133 799 147 885.5 Q161 972 190.5 1054 Q220 1136 267.5 1209 Q315 1282 381.5 1337 Q448 1392 536 1424 Q624 1456 735 1456 Q838 1456 922 1428 Q1006 1400 1070 1354.5 Q1134 1309 1178.5 1251 Q1223 1193 1247 1133 L999 1020 Q973 1060 946 1092 Q919 1124 888 1145.5 Q857 1167 819.5 1178.5 Q782 1190 735 1190 Q675 1190 628 1169.5 Q581 1149 546 1114 Q511 1079 487 1032 Q463 985 448 932.5 Q433 880 426.5 824.5 Q420 769 420 717 Q420 633 438 549 Q456 465 494 397 Q532 329 591.5 286.5 Q651 244 735 244 Q779 244 816 257.5 Q853 271 884.5 295 Q916 319 943.5 353 Q971 387 995 428 L1249 332 Q1215 253 1167 187.5 Q1119 122 1055.5 75.5 Q992 29 912 3 Q832 -23 735 -23 Z M911 1569 L739 1710 L567 1569 L322 1569 L612 1888 L868 1888 L1157 1569 L911 1569 Z " />
<glyph glyph-name="ccircumflex" unicode="&#x109;" horiz-adv-x="1120" d="M580 -25 Q471 -25 382.5 12.5 Q294 50 232 120.5 Q170 191 136 292.5 Q102 394 102 522 Q102 650 136 752 Q170 854 232 925 Q294 996 382.5 1033.5 Q471 1071 580 1071 Q740 1071 852.5 997.5 Q965 924 1016 764 L762 680 Q739 740 694 777.5 Q649 815 586 815 Q537 815 497.5 794 Q458 773 430.5 735 Q403 697 388 643 Q373 589 373 522 Q373 455 388 401.5 Q403 348 430 310 Q457 272 495 251.5 Q533 231 580 231 Q648 231 695 270 Q742 309 764 383 L1018 307 Q971 142 860.5 58.5 Q750 -25 580 -25 Z M759 1180 L587 1321 L415 1180 L170 1180 L460 1499 L716 1499 L1005 1180 L759 1180 Z " />
<glyph glyph-name="Cdotaccent" unicode="&#x10a;" horiz-adv-x="1352" d="M735 -23 Q623 -23 535 7 Q447 37 380 90 Q313 143 266 214 Q219 285 189.5 367.5 Q160 450 146.5 539 Q133 628 133 717 Q133 799 147 885.5 Q161 972 190.5 1054 Q220 1136 267.5 1209 Q315 1282 381.5 1337 Q448 1392 536 1424 Q624 1456 735 1456 Q838 1456 922 1428 Q1006 1400 1070 1354.5 Q1134 1309 1178.5 1251 Q1223 1193 1247 1133 L999 1020 Q973 1060 946 1092 Q919 1124 888 1145.5 Q857 1167 819.5 1178.5 Q782 1190 735 1190 Q675 1190 628 1169.5 Q581 1149 546 1114 Q511 1079 487 1032 Q463 985 448 932.5 Q433 880 426.5 824.5 Q420 769 420 717 Q420 633 438 549 Q456 465 494 397 Q532 329 591.5 286.5 Q651 244 735 244 Q779 244 816 257.5 Q853 271 884.5 295 Q916 319 943.5 353 Q971 387 995 428 L1249 332 Q1215 253 1167 187.5 Q1119 122 1055.5 75.5 Q992 29 912 3 Q832 -23 735 -23 Z M739 1579 Q707 1579 680 1590.5 Q653 1602 633 1622 Q613 1642 601.5 1669 Q590 1696 590 1728 Q590 1759 601.5 1786.5 Q613 1814 633 1834.5 Q653 1855 680 1866.5 Q707 1878 739 1878 Q770 1878 797.5 1866.5 Q825 1855 845.5 1834.5 Q866 1814 877.5 1786.5 Q889 1759 889 1728 Q889 1696 877.5 1669 Q866 1642 845.5 1622 Q825 1602 797.5 1590.5 Q770 1579 739 1579 Z " />
<glyph glyph-name="cdotaccent" unicode="&#x10b;" horiz-adv-x="1120" d="M580 -25 Q471 -25 382.5 12.5 Q294 50 232 120.5 Q170 191 136 292.5 Q102 394 102 522 Q102 650 136 752 Q170 854 232 925 Q294 996 382.5 1033.5 Q471 1071 580 1071 Q740 1071 852.5 997.5 Q965 924 1016 764 L762 680 Q739 740 694 777.5 Q649 815 586 815 Q537 815 497.5 794 Q458 773 430.5 735 Q403 697 388 643 Q373 589 373 522 Q373 455 388 401.5 Q403 348 430 310 Q457 272 495 251.5 Q533 231 580 231 Q648 231 695 270 Q742 309 764 383 L1018 307 Q971 142 860.5 58.5 Q750 -25 580 -25 Z M587 1190 Q555 1190 528 1201.5 Q501 1213 481 1233 Q461 1253 449.5 1280 Q438 1307 438 1339 Q438 1370 449.5 1397.5 Q461 1425 481 1445.5 Q501 1466 528 1477.5 Q555 1489 587 1489 Q618 1489 645.5 1477.5 Q673 1466 693.5 1445.5 Q714 1425 725.5 1397.5 Q737 1370 737 1339 Q737 1307 725.5 1280 Q714 1253 693.5 1233 Q673 1213 645.5 1201.5 Q618 1190 587 1190 Z " />
<glyph glyph-name="Ccaron" unicode="&#x10c;" horiz-adv-x="1352" d="M735 -23 Q623 -23 535 7 Q447 37 380 90 Q313 143 266 214 Q219 285 189.5 367.5 Q160 450 146.5 539 Q133 628 133 717 Q133 799 147 885.5 Q161 972 190.5 1054 Q220 1136 267.5 1209 Q315 1282 381.5 1337 Q448 1392 536 1424 Q624 1456 735 1456 Q838 1456 922 1428 Q1006 1400 1070 1354.5 Q1134 1309 1178.5 1251 Q1223 1193 1247 1133 L999 1020 Q973 1060 946 1092 Q919 1124 888 1145.5 Q857 1167 819.5 1178.5 Q782 1190 735 1190 Q675 1190 628 1169.5 Q581 1149 546 1114 Q511 1079 487 1032 Q463 985 448 932.5 Q433 880 426.5 824.5 Q420 769 420 717 Q420 633 438 549 Q456 465 494 397 Q532 329 591.5 286.5 Q651 244 735 244 Q779 244 816 257.5 Q853 271 884.5 295 Q916 319 943.5 353 Q971 387 995 428 L1249 332 Q1215 253 1167 187.5 Q1119 122 1055.5 75.5 Q992 29 912 3 Q832 -23 735 -23 Z M866 1569 L610 1569 L322 1888 L567 1888 L739 1747 L911 1888 L1157 1888 L866 1569 Z " />
<glyph glyph-name="ccaron" unicode="&#x10d;" horiz-adv-x="1120" d="M580 -25 Q471 -25 382.5 12.5 Q294 50 232 120.5 Q170 191 136 292.5 Q102 394 102 522 Q102 650 136 752 Q170 854 232 925 Q294 996 382.5 1033.5 Q471 1071 580 1071 Q740 1071 852.5 997.5 Q965 924 1016 764 L762 680 Q739 740 694 777.5 Q649 815 586 815 Q537 815 497.5 794 Q458 773 430.5 735 Q403 697 388 643 Q373 589 373 522 Q373 455 388 401.5 Q403 348 430 310 Q457 272 495 251.5 Q533 231 580 231 Q648 231 695 270 Q742 309 764 383 L1018 307 Q971 142 860.5 58.5 Q750 -25 580 -25 Z M694 1180 L438 1180 L150 1499 L395 1499 L567 1358 L739 1499 L985 1499 L694 1180 Z " />
<glyph glyph-name="Dcaron" unicode="&#x10e;" horiz-adv-x="1495" d="M184 1434 L668 1434 Q793 1434 893 1405.5 Q993 1377 1070.5 1327 Q1148 1277 1203 1208.5 Q1258 1140 1293.5 1060.5 Q1329 981 1345.5 893 Q1362 805 1362 717 Q1362 635 1346.5 549.5 Q1331 464 1297 384.5 Q1263 305 1208.5 235 Q1154 165 1075.5 112.5 Q997 60 894 30 Q791 0 659 0 L184 0 L184 1434 Z M692 262 Q799 262 872 303.5 Q945 345 990 410.5 Q1035 476 1055 557 Q1075 638 1075 717 Q1075 801 1054 882.5 Q1033 964 989.5 1028 Q946 1092 877.5 1131.5 Q809 1171 715 1171 L461 1171 L461 262 L692 262 Z M802 1569 L546 1569 L258 1888 L503 1888 L675 1747 L847 1888 L1093 1888 L802 1569 Z " />
<glyph glyph-name="dcaron" unicode="&#x10f;" horiz-adv-x="1542" d="M535 -25 Q437 -25 357 11 Q277 47 220.5 116.5 Q164 186 133 288.5 Q102 391 102 524 Q102 652 135 753.5 Q168 855 226 925.5 Q284 996 363.5 1033.5 Q443 1071 537 1071 Q614 1071 670 1043.5 Q726 1016 760 971 L760 1358 L1026 1479 L1026 0 L760 0 L760 76 Q728 28 671.5 1.5 Q615 -25 535 -25 Z M578 231 Q643 231 687 253 Q731 275 760 315 L760 729 Q750 744 733 759.5 Q716 775 692.5 787.5 Q669 800 640.5 807.5 Q612 815 578 815 Q477 815 423 740 Q369 665 369 524 Q369 457 382.5 403 Q396 349 422.5 310.5 Q449 272 488 251.5 Q527 231 578 231 Z M1491 1462 L1491 1446 Q1491 1360 1474.5 1287 Q1458 1214 1428.5 1151.5 Q1399 1089 1357.5 1035 Q1316 981 1266 932 L1180 997 Q1194 1025 1205.5 1074 Q1217 1123 1225.5 1184.5 Q1234 1246 1238.5 1317 Q1243 1388 1243 1462 L1491 1462 Z " />
<glyph glyph-name="Dcroat" unicode="&#x110;" horiz-adv-x="1495" d="M184 588 L57 588 L57 846 L184 846 L184 1434 L668 1434 Q793 1434 893 1405.5 Q993 1377 1070.5 1327 Q1148 1277 1203 1208.5 Q1258 1140 1293.5 1060.5 Q1329 981 1345.5 893 Q1362 805 1362 717 Q1362 635 1346.5 549.5 Q1331 464 1297 384.5 Q1263 305 1208.5 235 Q1154 165 1075.5 112.5 Q997 60 894 30 Q791 0 659 0 L184 0 L184 588 Z M692 262 Q799 262 872 303.5 Q945 345 990 410.5 Q1035 476 1055 557 Q1075 638 1075 717 Q1075 801 1054 882.5 Q1033 964 989.5 1028 Q946 1092 877.5 1131.5 Q809 1171 715 1171 L461 1171 L461 846 L754 846 L754 588 L461 588 L461 262 L692 262 Z " />
<glyph glyph-name="dcroat" unicode="&#x111;" horiz-adv-x="1180" d="M1026 1100 L1026 0 L760 0 L760 76 Q728 28 671.5 1.5 Q615 -25 535 -25 Q437 -25 357 10.5 Q277 46 220.5 112.5 Q164 179 133 275 Q102 371 102 492 Q102 608 135 702.5 Q168 797 226 864.5 Q284 932 363.5 969 Q443 1006 537 1006 Q614 1006 670 978 Q726 950 760 905 L760 1100 L522 1100 L522 1305 L760 1305 L760 1358 L1026 1479 L1026 1305 L1159 1305 L1159 1100 L1026 1100 Z M578 231 Q643 231 687 253 Q731 275 760 315 L760 664 Q750 679 733 694.5 Q716 710 692.5 722.5 Q669 735 640.5 742.5 Q612 750 578 750 Q528 750 489 731 Q450 712 423.5 678 Q397 644 383 596.5 Q369 549 369 492 Q369 437 382.5 389.5 Q396 342 422.5 306.5 Q449 271 488 251 Q527 231 578 231 Z " />
<glyph glyph-name="Emacron" unicode="&#x112;" horiz-adv-x="1319" d="M184 0 L184 1434 L1163 1434 L1163 1171 L461 1171 L461 870 L874 870 L874 608 L461 608 L461 262 L1206 262 L1206 0 L184 0 Z M352 1591 L352 1808 L1028 1808 L1028 1591 L352 1591 Z " />
<glyph glyph-name="emacron" unicode="&#x113;" horiz-adv-x="1147" d="M592 -25 Q478 -25 387.5 12.5 Q297 50 233.5 121 Q170 192 136 294 Q102 396 102 524 Q102 652 136 753.5 Q170 855 234 925.5 Q298 996 388.5 1033.5 Q479 1071 592 1071 Q689 1071 774 1041 Q859 1011 921 950 Q983 889 1019 796.5 Q1055 704 1055 578 Q1055 547 1054 504.5 Q1053 462 1047 420 L365 420 Q369 369 389 330 Q409 291 439.5 264 Q470 237 509 223 Q548 209 592 209 Q664 209 718 234.5 Q772 260 817 317 L981 152 Q915 71 819 23 Q723 -25 592 -25 Z M592 838 Q498 838 438.5 791 Q379 744 367 645 L795 645 Q782 738 727 788 Q672 838 592 838 Z M256 1202 L256 1419 L932 1419 L932 1202 L256 1202 Z " />
<glyph glyph-name="Ebreve" unicode="&#x114;" horiz-adv-x="1319" d="M184 0 L184 1434 L1163 1434 L1163 1171 L461 1171 L461 870 L874 870 L874 608 L461 608 L461 262 L1206 262 L1206 0 L184 0 Z M690 1560 Q589 1560 516 1589 Q443 1618 395 1666 Q347 1714 324 1777 Q301 1840 301 1909 L506 1909 Q506 1880 516.5 1852 Q527 1824 549 1802 Q571 1780 606 1766.5 Q641 1753 690 1753 Q739 1753 774.5 1766.5 Q810 1780 832.5 1802 Q855 1824 866 1852 Q877 1880 877 1909 L1082 1909 Q1082 1840 1058.5 1776.5 Q1035 1713 987 1665 Q939 1617 865 1588.5 Q791 1560 690 1560 Z " />
<glyph glyph-name="ebreve" unicode="&#x115;" horiz-adv-x="1147" d="M592 -25 Q478 -25 387.5 12.5 Q297 50 233.5 121 Q170 192 136 294 Q102 396 102 524 Q102 652 136 753.5 Q170 855 234 925.5 Q298 996 388.5 1033.5 Q479 1071 592 1071 Q689 1071 774 1041 Q859 1011 921 950 Q983 889 1019 796.5 Q1055 704 1055 578 Q1055 547 1054 504.5 Q1053 462 1047 420 L365 420 Q369 369 389 330 Q409 291 439.5 264 Q470 237 509 223 Q548 209 592 209 Q664 209 718 234.5 Q772 260 817 317 L981 152 Q915 71 819 23 Q723 -25 592 -25 Z M592 838 Q498 838 438.5 791 Q379 744 367 645 L795 645 Q782 738 727 788 Q672 838 592 838 Z M594 1171 Q493 1171 420 1200 Q347 1229 299 1277 Q251 1325 228 1388 Q205 1451 205 1520 L410 1520 Q410 1491 420.5 1463 Q431 1435 453 1413 Q475 1391 510 1377.5 Q545 1364 594 1364 Q643 1364 678.5 1377.5 Q714 1391 736.5 1413 Q759 1435 770 1463 Q781 1491 781 1520 L986 1520 Q986 1451 962.5 1387.5 Q939 1324 891 1276 Q843 1228 769 1199.5 Q695 1171 594 1171 Z " />
<glyph glyph-name="Edotaccent" unicode="&#x116;" horiz-adv-x="1319" d="M184 0 L184 1434 L1163 1434 L1163 1171 L461 1171 L461 870 L874 870 L874 608 L461 608 L461 262 L1206 262 L1206 0 L184 0 Z M690 1579 Q658 1579 631 1590.5 Q604 1602 584 1622 Q564 1642 552.5 1669 Q541 1696 541 1728 Q541 1759 552.5 1786.5 Q564 1814 584 1834.5 Q604 1855 631 1866.5 Q658 1878 690 1878 Q721 1878 748.5 1866.5 Q776 1855 796.5 1834.5 Q817 1814 828.5 1786.5 Q840 1759 840 1728 Q840 1696 828.5 1669 Q817 1642 796.5 1622 Q776 1602 748.5 1590.5 Q721 1579 690 1579 Z " />
<glyph glyph-name="edotaccent" unicode="&#x117;" horiz-adv-x="1147" d="M592 -25 Q478 -25 387.5 12.5 Q297 50 233.5 121 Q170 192 136 294 Q102 396 102 524 Q102 652 136 753.5 Q170 855 234 925.5 Q298 996 388.5 1033.5 Q479 1071 592 1071 Q689 1071 774 1041 Q859 1011 921 950 Q983 889 1019 796.5 Q1055 704 1055 578 Q1055 547 1054 504.5 Q1053 462 1047 420 L365 420 Q369 369 389 330 Q409 291 439.5 264 Q470 237 509 223 Q548 209 592 209 Q664 209 718 234.5 Q772 260 817 317 L981 152 Q915 71 819 23 Q723 -25 592 -25 Z M592 838 Q498 838 438.5 791 Q379 744 367 645 L795 645 Q782 738 727 788 Q672 838 592 838 Z M594 1190 Q562 1190 535 1201.5 Q508 1213 488 1233 Q468 1253 456.5 1280 Q445 1307 445 1339 Q445 1370 456.5 1397.5 Q468 1425 488 1445.5 Q508 1466 535 1477.5 Q562 1489 594 1489 Q625 1489 652.5 1477.5 Q680 1466 700.5 1445.5 Q721 1425 732.5 1397.5 Q744 1370 744 1339 Q744 1307 732.5 1280 Q721 1253 700.5 1233 Q680 1213 652.5 1201.5 Q625 1190 594 1190 Z " />
<glyph glyph-name="Eogonek" unicode="&#x118;" horiz-adv-x="1319" d="M903 -500 Q846 -500 799 -484 Q752 -468 718.5 -439 Q685 -410 667 -369.5 Q649 -329 649 -279 Q649 -188 708.5 -116.5 Q768 -45 874 0 L184 0 L184 1434 L1163 1434 L1163 1171 L461 1171 L461 870 L874 870 L874 608 L461 608 L461 262 L1206 262 L1206 0 L1159 0 Q1093 0 1039 -24.5 Q985 -49 946.5 -86.5 Q908 -124 887 -169 Q866 -214 866 -256 Q866 -304 889 -325 Q912 -346 944 -346 Q972 -346 992 -334.5 Q1012 -323 1024 -307 L1147 -395 Q1132 -412 1110.5 -430.5 Q1089 -449 1059.5 -464.5 Q1030 -480 991.5 -490 Q953 -500 903 -500 Z " />
<glyph glyph-name="eogonek" unicode="&#x119;" horiz-adv-x="1147" d="M606 -500 Q549 -500 502 -484 Q455 -468 421.5 -439 Q388 -410 370 -369.5 Q352 -329 352 -279 Q352 -198 399.5 -133.5 Q447 -69 541 -23 Q437 -14 355.5 28 Q274 70 217.5 140.5 Q161 211 131.5 307.5 Q102 404 102 524 Q102 652 136 753.5 Q170 855 234 925.5 Q298 996 388.5 1033.5 Q479 1071 592 1071 Q689 1071 774 1041 Q859 1011 921 950 Q983 889 1019 796.5 Q1055 704 1055 578 Q1055 547 1054 504.5 Q1053 462 1047 420 L365 420 Q369 369 389 330 Q409 291 439.5 264 Q470 237 509 223 Q548 209 592 209 Q664 209 718 234.5 Q772 260 817 317 L981 152 Q946 108 902 75.5 Q858 43 812.5 15.5 Q767 -12 723 -37.5 Q679 -63 645 -94 Q611 -125 590 -163.5 Q569 -202 569 -256 Q569 -304 592 -325 Q615 -346 647 -346 Q675 -346 695 -334.5 Q715 -323 727 -307 L850 -395 Q835 -412 813.5 -430.5 Q792 -449 762.5 -464.5 Q733 -480 694.5 -490 Q656 -500 606 -500 Z M592 838 Q498 838 438.5 791 Q379 744 367 645 L795 645 Q782 738 727 788 Q672 838 592 838 Z " />
<glyph glyph-name="Ecaron" unicode="&#x11a;" horiz-adv-x="1319" d="M184 0 L184 1434 L1163 1434 L1163 1171 L461 1171 L461 870 L874 870 L874 608 L461 608 L461 262 L1206 262 L1206 0 L184 0 Z M817 1569 L561 1569 L273 1888 L518 1888 L690 1747 L862 1888 L1108 1888 L817 1569 Z " />
<glyph glyph-name="ecaron" unicode="&#x11b;" horiz-adv-x="1147" d="M592 -25 Q478 -25 387.5 12.5 Q297 50 233.5 121 Q170 192 136 294 Q102 396 102 524 Q102 652 136 753.5 Q170 855 234 925.5 Q298 996 388.5 1033.5 Q479 1071 592 1071 Q689 1071 774 1041 Q859 1011 921 950 Q983 889 1019 796.5 Q1055 704 1055 578 Q1055 547 1054 504.5 Q1053 462 1047 420 L365 420 Q369 369 389 330 Q409 291 439.5 264 Q470 237 509 223 Q548 209 592 209 Q664 209 718 234.5 Q772 260 817 317 L981 152 Q915 71 819 23 Q723 -25 592 -25 Z M592 838 Q498 838 438.5 791 Q379 744 367 645 L795 645 Q782 738 727 788 Q672 838 592 838 Z M721 1180 L465 1180 L177 1499 L422 1499 L594 1358 L766 1499 L1012 1499 L721 1180 Z " />
<glyph glyph-name="Gcircumflex" unicode="&#x11c;" horiz-adv-x="1419" d="M764 -25 Q653 -25 563 4 Q473 33 403 84 Q333 135 282 205.5 Q231 276 198 358 Q165 440 149 531.5 Q133 623 133 717 Q133 804 149.5 893 Q166 982 200.5 1064.5 Q235 1147 286.5 1219 Q338 1291 408.5 1344 Q479 1397 567.5 1427.5 Q656 1458 764 1458 Q868 1458 947.5 1432 Q1027 1406 1088.5 1363.5 Q1150 1321 1195.5 1265.5 Q1241 1210 1278 1151 L1034 1012 Q1010 1048 982 1080.5 Q954 1113 921.5 1138 Q889 1163 850 1177.5 Q811 1192 764 1192 Q697 1192 646 1171.5 Q595 1151 556.5 1115.5 Q518 1080 492 1033 Q466 986 450 933 Q434 880 427 824.5 Q420 769 420 717 Q420 626 439 540.5 Q458 455 499.5 388.5 Q541 322 606.5 282 Q672 242 764 242 Q816 242 861.5 260.5 Q907 279 941 310.5 Q975 342 994.5 385 Q1014 428 1014 477 L1014 489 L770 489 L770 752 L1296 752 L1296 541 Q1296 403 1255 297.5 Q1214 192 1142.5 120.5 Q1071 49 974 12 Q877 -25 764 -25 Z M938 1569 L766 1710 L594 1569 L349 1569 L639 1888 L895 1888 L1184 1569 L938 1569 Z " />
<glyph glyph-name="gcircumflex" unicode="&#x11d;" horiz-adv-x="1180" d="M385 -188 Q490 -181 562 -168 Q634 -155 678 -130 Q722 -105 741 -67 Q760 -29 760 27 L760 55 Q713 9 654.5 -8 Q596 -25 535 -25 Q440 -25 361 9.5 Q282 44 224 113 Q166 182 134 284.5 Q102 387 102 524 Q102 652 133.5 753.5 Q165 855 222.5 925.5 Q280 996 360 1033.5 Q440 1071 537 1071 Q677 1071 760 991 L760 1047 L1026 1047 L1026 131 Q1026 72 1020.5 13.5 Q1015 -45 1002.5 -97 Q990 -149 970 -193 Q950 -237 920 -268 Q880 -308 834 -333.5 Q788 -359 738.5 -375 Q689 -391 636.5 -398.5 Q584 -406 532 -410 L385 -188 Z M578 231 Q643 231 686 253 Q729 275 760 315 L760 729 Q748 744 732 759.5 Q716 775 693.5 787.5 Q671 800 642.5 807.5 Q614 815 578 815 Q477 815 423 740 Q369 665 369 524 Q369 460 381.5 406.5 Q394 353 420 314 Q446 275 485.5 253 Q525 231 578 231 Z M780 1180 L608 1321 L436 1180 L191 1180 L481 1499 L737 1499 L1026 1180 L780 1180 Z " />
<glyph glyph-name="Gbreve" unicode="&#x11e;" horiz-adv-x="1419" d="M764 -25 Q653 -25 563 4 Q473 33 403 84 Q333 135 282 205.5 Q231 276 198 358 Q165 440 149 531.5 Q133 623 133 717 Q133 804 149.5 893 Q166 982 200.5 1064.5 Q235 1147 286.5 1219 Q338 1291 408.5 1344 Q479 1397 567.5 1427.5 Q656 1458 764 1458 Q868 1458 947.5 1432 Q1027 1406 1088.5 1363.5 Q1150 1321 1195.5 1265.5 Q1241 1210 1278 1151 L1034 1012 Q1010 1048 982 1080.5 Q954 1113 921.5 1138 Q889 1163 850 1177.5 Q811 1192 764 1192 Q697 1192 646 1171.5 Q595 1151 556.5 1115.5 Q518 1080 492 1033 Q466 986 450 933 Q434 880 427 824.5 Q420 769 420 717 Q420 626 439 540.5 Q458 455 499.5 388.5 Q541 322 606.5 282 Q672 242 764 242 Q816 242 861.5 260.5 Q907 279 941 310.5 Q975 342 994.5 385 Q1014 428 1014 477 L1014 489 L770 489 L770 752 L1296 752 L1296 541 Q1296 403 1255 297.5 Q1214 192 1142.5 120.5 Q1071 49 974 12 Q877 -25 764 -25 Z M766 1560 Q665 1560 592 1589 Q519 1618 471 1666 Q423 1714 400 1777 Q377 1840 377 1909 L582 1909 Q582 1880 592.5 1852 Q603 1824 625 1802 Q647 1780 682 1766.5 Q717 1753 766 1753 Q815 1753 850.5 1766.5 Q886 1780 908.5 1802 Q931 1824 942 1852 Q953 1880 953 1909 L1158 1909 Q1158 1840 1134.5 1776.5 Q1111 1713 1063 1665 Q1015 1617 941 1588.5 Q867 1560 766 1560 Z " />
<glyph glyph-name="gbreve" unicode="&#x11f;" horiz-adv-x="1180" d="M385 -188 Q490 -181 562 -168 Q634 -155 678 -130 Q722 -105 741 -67 Q760 -29 760 27 L760 55 Q713 9 654.5 -8 Q596 -25 535 -25 Q440 -25 361 9.5 Q282 44 224 113 Q166 182 134 284.5 Q102 387 102 524 Q102 652 133.5 753.5 Q165 855 222.5 925.5 Q280 996 360 1033.5 Q440 1071 537 1071 Q677 1071 760 991 L760 1047 L1026 1047 L1026 131 Q1026 72 1020.5 13.5 Q1015 -45 1002.5 -97 Q990 -149 970 -193 Q950 -237 920 -268 Q880 -308 834 -333.5 Q788 -359 738.5 -375 Q689 -391 636.5 -398.5 Q584 -406 532 -410 L385 -188 Z M578 231 Q643 231 686 253 Q729 275 760 315 L760 729 Q748 744 732 759.5 Q716 775 693.5 787.5 Q671 800 642.5 807.5 Q614 815 578 815 Q477 815 423 740 Q369 665 369 524 Q369 460 381.5 406.5 Q394 353 420 314 Q446 275 485.5 253 Q525 231 578 231 Z M608 1171 Q507 1171 434 1200 Q361 1229 313 1277 Q265 1325 242 1388 Q219 1451 219 1520 L424 1520 Q424 1491 434.5 1463 Q445 1435 467 1413 Q489 1391 524 1377.5 Q559 1364 608 1364 Q657 1364 692.5 1377.5 Q728 1391 750.5 1413 Q773 1435 784 1463 Q795 1491 795 1520 L1000 1520 Q1000 1451 976.5 1387.5 Q953 1324 905 1276 Q857 1228 783 1199.5 Q709 1171 608 1171 Z " />
<glyph glyph-name="Gdotaccent" unicode="&#x120;" horiz-adv-x="1419" d="M764 -25 Q653 -25 563 4 Q473 33 403 84 Q333 135 282 205.5 Q231 276 198 358 Q165 440 149 531.5 Q133 623 133 717 Q133 804 149.5 893 Q166 982 200.5 1064.5 Q235 1147 286.5 1219 Q338 1291 408.5 1344 Q479 1397 567.5 1427.5 Q656 1458 764 1458 Q868 1458 947.5 1432 Q1027 1406 1088.5 1363.5 Q1150 1321 1195.5 1265.5 Q1241 1210 1278 1151 L1034 1012 Q1010 1048 982 1080.5 Q954 1113 921.5 1138 Q889 1163 850 1177.5 Q811 1192 764 1192 Q697 1192 646 1171.5 Q595 1151 556.5 1115.5 Q518 1080 492 1033 Q466 986 450 933 Q434 880 427 824.5 Q420 769 420 717 Q420 626 439 540.5 Q458 455 499.5 388.5 Q541 322 606.5 282 Q672 242 764 242 Q816 242 861.5 260.5 Q907 279 941 310.5 Q975 342 994.5 385 Q1014 428 1014 477 L1014 489 L770 489 L770 752 L1296 752 L1296 541 Q1296 403 1255 297.5 Q1214 192 1142.5 120.5 Q1071 49 974 12 Q877 -25 764 -25 Z M770 1579 Q738 1579 711 1590.5 Q684 1602 664 1622 Q644 1642 632.5 1669 Q621 1696 621 1728 Q621 1759 632.5 1786.5 Q644 1814 664 1834.5 Q684 1855 711 1866.5 Q738 1878 770 1878 Q801 1878 828.5 1866.5 Q856 1855 876.5 1834.5 Q897 1814 908.5 1786.5 Q920 1759 920 1728 Q920 1696 908.5 1669 Q897 1642 876.5 1622 Q856 1602 828.5 1590.5 Q801 1579 770 1579 Z " />
<glyph glyph-name="gdotaccent" unicode="&#x121;" horiz-adv-x="1180" d="M385 -188 Q490 -181 562 -168 Q634 -155 678 -130 Q722 -105 741 -67 Q760 -29 760 27 L760 55 Q713 9 654.5 -8 Q596 -25 535 -25 Q440 -25 361 9.5 Q282 44 224 113 Q166 182 134 284.5 Q102 387 102 524 Q102 652 133.5 753.5 Q165 855 222.5 925.5 Q280 996 360 1033.5 Q440 1071 537 1071 Q677 1071 760 991 L760 1047 L1026 1047 L1026 131 Q1026 72 1020.5 13.5 Q1015 -45 1002.5 -97 Q990 -149 970 -193 Q950 -237 920 -268 Q880 -308 834 -333.5 Q788 -359 738.5 -375 Q689 -391 636.5 -398.5 Q584 -406 532 -410 L385 -188 Z M578 231 Q643 231 686 253 Q729 275 760 315 L760 729 Q748 744 732 759.5 Q716 775 693.5 787.5 Q671 800 642.5 807.5 Q614 815 578 815 Q477 815 423 740 Q369 665 369 524 Q369 460 381.5 406.5 Q394 353 420 314 Q446 275 485.5 253 Q525 231 578 231 Z M608 1190 Q576 1190 549 1201.5 Q522 1213 502 1233 Q482 1253 470.5 1280 Q459 1307 459 1339 Q459 1370 470.5 1397.5 Q482 1425 502 1445.5 Q522 1466 549 1477.5 Q576 1489 608 1489 Q639 1489 666.5 1477.5 Q694 1466 714.5 1445.5 Q735 1425 746.5 1397.5 Q758 1370 758 1339 Q758 1307 746.5 1280 Q735 1253 714.5 1233 Q694 1213 666.5 1201.5 Q639 1190 608 1190 Z " />
<glyph glyph-name="Gcommaaccent" unicode="&#x122;" horiz-adv-x="1419" d="M764 -25 Q653 -25 563 4 Q473 33 403 84 Q333 135 282 205.5 Q231 276 198 358 Q165 440 149 531.5 Q133 623 133 717 Q133 804 149.5 893 Q166 982 200.5 1064.5 Q235 1147 286.5 1219 Q338 1291 408.5 1344 Q479 1397 567.5 1427.5 Q656 1458 764 1458 Q868 1458 947.5 1432 Q1027 1406 1088.5 1363.5 Q1150 1321 1195.5 1265.5 Q1241 1210 1278 1151 L1034 1012 Q1010 1048 982 1080.5 Q954 1113 921.5 1138 Q889 1163 850 1177.5 Q811 1192 764 1192 Q697 1192 646 1171.5 Q595 1151 556.5 1115.5 Q518 1080 492 1033 Q466 986 450 933 Q434 880 427 824.5 Q420 769 420 717 Q420 626 439 540.5 Q458 455 499.5 388.5 Q541 322 606.5 282 Q672 242 764 242 Q816 242 861.5 260.5 Q907 279 941 310.5 Q975 342 994.5 385 Q1014 428 1014 477 L1014 489 L770 489 L770 752 L1296 752 L1296 541 Q1296 403 1255 297.5 Q1214 192 1142.5 120.5 Q1071 49 974 12 Q877 -25 764 -25 Z M645 -516 Q680 -482 707 -446 Q734 -410 748 -365 Q722 -365 698 -355.5 Q674 -346 655.5 -328 Q637 -310 626 -284.5 Q615 -259 615 -227 Q615 -192 627 -163.5 Q639 -135 659 -114.5 Q679 -94 706.5 -83 Q734 -72 766 -72 Q835 -72 879.5 -115 Q924 -158 924 -240 Q924 -338 879.5 -417 Q835 -496 738 -575 L645 -516 Z " />
<glyph glyph-name="gcommaaccent" unicode="&#x123;" horiz-adv-x="1180" d="M385 -188 Q490 -181 562 -168 Q634 -155 678 -130 Q722 -105 741 -67 Q760 -29 760 27 L760 55 Q713 9 654.5 -8 Q596 -25 535 -25 Q440 -25 361 9.5 Q282 44 224 113 Q166 182 134 284.5 Q102 387 102 524 Q102 652 133.5 753.5 Q165 855 222.5 925.5 Q280 996 360 1033.5 Q440 1071 537 1071 Q677 1071 760 991 L760 1047 L1026 1047 L1026 131 Q1026 72 1020.5 13.5 Q1015 -45 1002.5 -97 Q990 -149 970 -193 Q950 -237 920 -268 Q880 -308 834 -333.5 Q788 -359 738.5 -375 Q689 -391 636.5 -398.5 Q584 -406 532 -410 L385 -188 Z M578 231 Q643 231 686 253 Q729 275 760 315 L760 729 Q748 744 732 759.5 Q716 775 693.5 787.5 Q671 800 642.5 807.5 Q614 815 578 815 Q477 815 423 740 Q369 665 369 524 Q369 460 381.5 406.5 Q394 353 420 314 Q446 275 485.5 253 Q525 231 578 231 Z M731 1634 Q697 1600 670 1564 Q643 1528 629 1483 Q655 1483 679 1473.5 Q703 1464 721.5 1446 Q740 1428 751 1402.5 Q762 1377 762 1346 Q762 1310 750 1281.5 Q738 1253 717.5 1232.5 Q697 1212 669 1201 Q641 1190 610 1190 Q541 1190 497 1233 Q453 1276 453 1358 Q453 1456 497.5 1535 Q542 1614 639 1694 L731 1634 Z " />
<glyph glyph-name="Hcircumflex" unicode="&#x124;" horiz-adv-x="1522" d="M1061 0 L1061 606 L461 606 L461 0 L184 0 L184 1434 L461 1434 L461 868 L1061 868 L1061 1434 L1337 1434 L1337 0 L1061 0 Z M864 1569 L692 1710 L520 1569 L275 1569 L565 1888 L821 1888 L1110 1569 L864 1569 Z " />
<glyph glyph-name="hcircumflex" unicode="&#x125;" horiz-adv-x="1210" d="M801 0 L801 614 Q801 667 787 705 Q773 743 748 767.5 Q723 792 690 803.5 Q657 815 618 815 Q577 815 541 804.5 Q505 794 478 770.5 Q451 747 435.5 709.5 Q420 672 420 618 L420 0 L154 0 L154 1356 L420 1479 L420 948 Q468 1007 538.5 1039 Q609 1071 700 1071 Q767 1071 833 1051 Q899 1031 951 983 Q1003 935 1035 856 Q1067 777 1067 659 L1067 0 L801 0 Z M780 1567 L608 1708 L436 1567 L191 1567 L481 1886 L737 1886 L1026 1567 L780 1567 Z " />
<glyph glyph-name="Hbar" unicode="&#x126;" horiz-adv-x="1522" d="M1061 0 L1061 606 L461 606 L461 0 L184 0 L184 1018 L20 1018 L20 1280 L184 1280 L184 1434 L461 1434 L461 1280 L1061 1280 L1061 1434 L1337 1434 L1337 1280 L1501 1280 L1501 1018 L1337 1018 L1337 0 L1061 0 Z M1061 868 L1061 1018 L461 1018 L461 868 L1061 868 Z " />
<glyph glyph-name="hbar" unicode="&#x127;" horiz-adv-x="1210" d="M801 0 L801 553 Q801 606 787 644 Q773 682 748 706.5 Q723 731 690 742.5 Q657 754 618 754 Q577 754 541 743.5 Q505 733 478 709.5 Q451 686 435.5 648.5 Q420 611 420 557 L420 0 L154 0 L154 1100 L37 1100 L37 1305 L154 1305 L154 1356 L420 1479 L420 1305 L690 1305 L690 1100 L420 1100 L420 887 Q468 946 538.5 978 Q609 1010 700 1010 Q767 1010 833 989.5 Q899 969 951 921 Q1003 873 1035 794 Q1067 715 1067 598 L1067 0 L801 0 Z " />
<glyph glyph-name="Itilde" unicode="&#x128;" horiz-adv-x="666" d="M195 0 L195 1434 L471 1434 L471 0 L195 0 Z M497 1583 Q443 1583 397.5 1597.5 Q352 1612 312 1630 Q272 1648 235 1662.5 Q198 1677 159 1677 Q121 1677 93.5 1657.5 Q66 1638 63 1591 L-62 1591 Q-62 1652 -50 1704 Q-38 1756 -10.5 1794 Q17 1832 62.5 1853 Q108 1874 174 1874 Q228 1874 273.5 1859.5 Q319 1845 359 1827 Q399 1809 436 1794.5 Q473 1780 512 1780 Q550 1780 577.5 1799.5 Q605 1819 608 1866 L733 1866 Q733 1804 721 1752.5 Q709 1701 681 1663 Q653 1625 608 1604 Q563 1583 497 1583 Z " />
<glyph glyph-name="itilde" unicode="&#x129;" horiz-adv-x="578" d="M454 1194 Q400 1194 354.5 1208.5 Q309 1223 269 1241 Q229 1259 192 1273.5 Q155 1288 116 1288 Q78 1288 50.5 1268.5 Q23 1249 20 1202 L-105 1202 Q-105 1263 -93 1315 Q-81 1367 -53.5 1405 Q-26 1443 19.5 1464 Q65 1485 131 1485 Q185 1485 230.5 1470.5 Q276 1456 316 1438 Q356 1420 393 1405.5 Q430 1391 469 1391 Q507 1391 534.5 1410.5 Q562 1430 565 1477 L690 1477 Q690 1415 678 1363.5 Q666 1312 638 1274 Q610 1236 565 1215 Q520 1194 454 1194 Z M156 0 L156 1047 L422 1047 L422 0 L156 0 Z " />
<glyph glyph-name="Imacron" unicode="&#x12a;" horiz-adv-x="666" d="M195 0 L195 1434 L471 1434 L471 0 L195 0 Z M-3 1591 L-3 1808 L673 1808 L673 1591 L-3 1591 Z " />
<glyph glyph-name="imacron" unicode="&#x12b;" horiz-adv-x="578" d="M-46 1202 L-46 1419 L630 1419 L630 1202 L-46 1202 Z M156 0 L156 1047 L422 1047 L422 0 L156 0 Z " />
<glyph glyph-name="Ibreve" unicode="&#x12c;" horiz-adv-x="666" d="M195 0 L195 1434 L471 1434 L471 0 L195 0 Z M335 1560 Q234 1560 161 1589 Q88 1618 40 1666 Q-8 1714 -31 1777 Q-54 1840 -54 1909 L151 1909 Q151 1880 161.5 1852 Q172 1824 194 1802 Q216 1780 251 1766.5 Q286 1753 335 1753 Q384 1753 419.5 1766.5 Q455 1780 477.5 1802 Q500 1824 511 1852 Q522 1880 522 1909 L727 1909 Q727 1840 703.5 1776.5 Q680 1713 632 1665 Q584 1617 510 1588.5 Q436 1560 335 1560 Z " />
<glyph glyph-name="ibreve" unicode="&#x12d;" horiz-adv-x="578" d="M292 1171 Q191 1171 118 1200 Q45 1229 -3 1277 Q-51 1325 -74 1388 Q-97 1451 -97 1520 L108 1520 Q108 1491 118.5 1463 Q129 1435 151 1413 Q173 1391 208 1377.5 Q243 1364 292 1364 Q341 1364 376.5 1377.5 Q412 1391 434.5 1413 Q457 1435 468 1463 Q479 1491 479 1520 L684 1520 Q684 1451 660.5 1387.5 Q637 1324 589 1276 Q541 1228 467 1199.5 Q393 1171 292 1171 Z M156 0 L156 1047 L422 1047 L422 0 L156 0 Z " />
<glyph glyph-name="Iogonek" unicode="&#x12e;" horiz-adv-x="666" d="M223 -500 Q166 -500 119 -484 Q72 -468 38.5 -439 Q5 -410 -13 -369.5 Q-31 -329 -31 -279 Q-31 -188 28.5 -116.5 Q88 -45 195 0 L195 1434 L471 1434 L471 0 Q418 0 367 -21.5 Q316 -43 275.5 -79 Q235 -115 210.5 -161 Q186 -207 186 -256 Q186 -304 209 -325 Q232 -346 264 -346 Q292 -346 312 -334.5 Q332 -323 344 -307 L467 -395 Q452 -412 430.5 -430.5 Q409 -449 379.5 -464.5 Q350 -480 311.5 -490 Q273 -500 223 -500 Z " />
<glyph glyph-name="iogonek" unicode="&#x12f;" horiz-adv-x="565" d="M176 -500 Q119 -500 72 -484 Q25 -468 -8.5 -439 Q-42 -410 -60 -369.5 Q-78 -329 -78 -279 Q-78 -188 -18.5 -116.5 Q41 -45 150 0 L150 1047 L416 1047 L416 0 Q338 -18 284.5 -48 Q231 -78 199 -113.5 Q167 -149 153 -186.5 Q139 -224 139 -256 Q139 -304 162 -325 Q185 -346 217 -346 Q245 -346 265 -334.5 Q285 -323 297 -307 L420 -395 Q405 -412 383.5 -430.5 Q362 -449 332.5 -464.5 Q303 -480 264.5 -490 Q226 -500 176 -500 Z M283 1169 Q251 1169 222.5 1181.5 Q194 1194 173 1215 Q152 1236 139.5 1264.5 Q127 1293 127 1325 Q127 1357 139.5 1385 Q152 1413 173 1434 Q194 1455 222.5 1467 Q251 1479 283 1479 Q315 1479 343.5 1467 Q372 1455 393 1434 Q414 1413 426 1385 Q438 1357 438 1325 Q438 1293 426 1264.5 Q414 1236 393 1215 Q372 1194 343.5 1181.5 Q315 1169 283 1169 Z " />
<glyph glyph-name="Idotaccent" unicode="&#x130;" horiz-adv-x="666" d="M195 0 L195 1434 L471 1434 L471 0 L195 0 Z M335 1579 Q303 1579 276 1590.5 Q249 1602 229 1622 Q209 1642 197.5 1669 Q186 1696 186 1728 Q186 1759 197.5 1786.5 Q209 1814 229 1834.5 Q249 1855 276 1866.5 Q303 1878 335 1878 Q366 1878 393.5 1866.5 Q421 1855 441.5 1834.5 Q462 1814 473.5 1786.5 Q485 1759 485 1728 Q485 1696 473.5 1669 Q462 1642 441.5 1622 Q421 1602 393.5 1590.5 Q366 1579 335 1579 Z " />
<glyph glyph-name="IJ" unicode="&#x132;" horiz-adv-x="1767" d="M195 0 L195 1434 L471 1434 L471 0 L195 0 Z M1101 -25 Q1023 -25 951.5 -3.5 Q880 18 818.5 58.5 Q757 99 706.5 157.5 Q656 216 620 291 L862 403 Q902 326 961.5 284 Q1021 242 1101 242 Q1143 242 1182 253.5 Q1221 265 1251 296 Q1281 327 1299 381.5 Q1317 436 1317 522 L1317 1434 L1593 1434 L1593 498 Q1593 396 1572 317 Q1551 238 1515 180 Q1479 122 1431 82.5 Q1383 43 1328 19.5 Q1273 -4 1215 -14.5 Q1157 -25 1101 -25 Z " />
<glyph glyph-name="ij" unicode="&#x133;" horiz-adv-x="1085" d="M156 0 L156 1047 L422 1047 L422 0 L156 0 Z M289 1169 Q257 1169 228.5 1181.5 Q200 1194 179 1215 Q158 1236 145.5 1264.5 Q133 1293 133 1325 Q133 1357 145.5 1385 Q158 1413 179 1434 Q200 1455 228.5 1467 Q257 1479 289 1479 Q321 1479 349.5 1467 Q378 1455 399 1434 Q420 1413 432 1385 Q444 1357 444 1325 Q444 1293 432 1264.5 Q420 1236 399 1215 Q378 1194 349.5 1181.5 Q321 1169 289 1169 Z M371 -227 Q452 -209 508 -189.5 Q564 -170 598.5 -144.5 Q633 -119 648.5 -86 Q664 -53 664 -8 L664 1047 L930 1047 L930 57 Q930 12 926 -32.5 Q922 -77 911 -119.5 Q900 -162 880 -201 Q860 -240 827 -274 Q790 -313 749.5 -340.5 Q709 -368 667.5 -387 Q626 -406 584.5 -418 Q543 -430 506 -438 L371 -227 Z M797 1169 Q765 1169 736.5 1181.5 Q708 1194 687 1215 Q666 1236 653.5 1264.5 Q641 1293 641 1325 Q641 1357 653.5 1385 Q666 1413 687 1434 Q708 1455 736.5 1467 Q765 1479 797 1479 Q829 1479 857.5 1467 Q886 1455 907 1434 Q928 1413 940 1385 Q952 1357 952 1325 Q952 1293 940 1264.5 Q928 1236 907 1215 Q886 1194 857.5 1181.5 Q829 1169 797 1169 Z " />
<glyph glyph-name="Jcircumflex" unicode="&#x134;" horiz-adv-x="1198" d="M532 -25 Q454 -25 382.5 -3.5 Q311 18 249.5 58.5 Q188 99 137.5 157.5 Q87 216 51 291 L293 403 Q333 326 392.5 284 Q452 242 532 242 Q574 242 613 253.5 Q652 265 682 296 Q712 327 730 381.5 Q748 436 748 522 L748 1434 L1024 1434 L1024 498 Q1024 396 1003 317 Q982 238 946 180 Q910 122 862 82.5 Q814 43 759 19.5 Q704 -4 646 -14.5 Q588 -25 532 -25 Z M1060 1569 L888 1710 L716 1569 L471 1569 L761 1888 L1017 1888 L1306 1569 L1060 1569 Z " />
<glyph glyph-name="jcircumflex" unicode="&#x135;" horiz-adv-x="578" d="M-137 -227 Q-56 -209 0 -189.5 Q56 -170 90.5 -144.5 Q125 -119 140.5 -86 Q156 -53 156 -8 L156 1047 L422 1047 L422 57 Q422 12 418 -32.5 Q414 -77 403 -119.5 Q392 -162 372 -201 Q352 -240 319 -274 Q282 -313 241.5 -340.5 Q201 -368 159.5 -387 Q118 -406 76.5 -418 Q35 -430 -2 -438 L-137 -227 Z M464 1180 L292 1321 L120 1180 L-125 1180 L165 1499 L421 1499 L710 1180 L464 1180 Z " />
<glyph glyph-name="Kcommaaccent" unicode="&#x136;" horiz-adv-x="1501" d="M1096 0 L727 686 L461 358 L461 0 L184 0 L184 1434 L461 1434 L461 750 L1004 1434 L1331 1434 L913 920 L1419 0 L1096 0 Z M647 -516 Q682 -482 709 -446 Q736 -410 750 -365 Q724 -365 700 -355.5 Q676 -346 657.5 -328 Q639 -310 628 -284.5 Q617 -259 617 -227 Q617 -192 629 -163.5 Q641 -135 661 -114.5 Q681 -94 708.5 -83 Q736 -72 768 -72 Q837 -72 881.5 -115 Q926 -158 926 -240 Q926 -338 881.5 -417 Q837 -496 740 -575 L647 -516 Z " />
<glyph glyph-name="kcommaaccent" unicode="&#x137;" horiz-adv-x="1159" d="M807 0 L518 553 L420 459 L420 0 L154 0 L154 1354 L420 1479 L420 762 L700 1047 L1020 1047 L713 743 L1098 0 L807 0 Z M468 -516 Q503 -482 530 -446 Q557 -410 571 -365 Q545 -365 521 -355.5 Q497 -346 478.5 -328 Q460 -310 449 -284.5 Q438 -259 438 -227 Q438 -192 450 -163.5 Q462 -135 482 -114.5 Q502 -94 529.5 -83 Q557 -72 589 -72 Q658 -72 702.5 -115 Q747 -158 747 -240 Q747 -338 702.5 -417 Q658 -496 561 -575 L468 -516 Z " />
<glyph glyph-name="kgreenlandic" unicode="&#x138;" horiz-adv-x="1122" d="M768 0 L530 442 L420 309 L420 0 L154 0 L154 1047 L420 1047 L420 657 L731 1047 L1022 1047 L705 655 L1061 0 L768 0 Z " />
<glyph glyph-name="Lacute" unicode="&#x139;" horiz-adv-x="1184" d="M184 0 L184 1434 L461 1434 L461 266 L1153 266 L1153 0 L184 0 Z M354 1569 L96 1569 L387 1888 L719 1888 L354 1569 Z " />
<glyph glyph-name="lacute" unicode="&#x13a;" horiz-adv-x="594" d="M164 0 L164 1354 L430 1479 L430 0 L164 0 Z M286 1549 L28 1549 L319 1868 L651 1868 L286 1549 Z " />
<glyph glyph-name="Lcommaaccent" unicode="&#x13b;" horiz-adv-x="1184" d="M184 0 L184 1434 L461 1434 L461 266 L1153 266 L1153 0 L184 0 Z M548 -516 Q583 -482 610 -446 Q637 -410 651 -365 Q625 -365 601 -355.5 Q577 -346 558.5 -328 Q540 -310 529 -284.5 Q518 -259 518 -227 Q518 -192 530 -163.5 Q542 -135 562 -114.5 Q582 -94 609.5 -83 Q637 -72 669 -72 Q738 -72 782.5 -115 Q827 -158 827 -240 Q827 -338 782.5 -417 Q738 -496 641 -575 L548 -516 Z " />
<glyph glyph-name="lcommaaccent" unicode="&#x13c;" horiz-adv-x="594" d="M164 0 L164 1354 L430 1479 L430 0 L164 0 Z M178 -516 Q213 -482 240 -446 Q267 -410 281 -365 Q255 -365 231 -355.5 Q207 -346 188.5 -328 Q170 -310 159 -284.5 Q148 -259 148 -227 Q148 -192 160 -163.5 Q172 -135 192 -114.5 Q212 -94 239.5 -83 Q267 -72 299 -72 Q368 -72 412.5 -115 Q457 -158 457 -240 Q457 -338 412.5 -417 Q368 -496 271 -575 L178 -516 Z " />
<glyph glyph-name="Lcaron" unicode="&#x13d;" horiz-adv-x="1184" d="M184 0 L184 1434 L461 1434 L461 266 L1153 266 L1153 0 L184 0 Z M458 1569 L202 1569 L-86 1888 L159 1888 L331 1747 L503 1888 L749 1888 L458 1569 Z " />
<glyph glyph-name="lcaron" unicode="&#x13e;" horiz-adv-x="913" d="M164 0 L164 1354 L430 1479 L430 0 L164 0 Z M862 1462 L862 1446 Q862 1360 845.5 1287 Q829 1214 799.5 1151.5 Q770 1089 728.5 1035 Q687 981 637 932 L551 997 Q565 1025 576.5 1074 Q588 1123 596.5 1184.5 Q605 1246 609.5 1317 Q614 1388 614 1462 L862 1462 Z " />
<glyph glyph-name="Ldot" unicode="&#x13f;" horiz-adv-x="1184" d="M184 0 L184 1434 L461 1434 L461 266 L1153 266 L1153 0 L184 0 Z M903 569 Q871 569 844 580.5 Q817 592 797 612 Q777 632 765.5 659 Q754 686 754 718 Q754 749 765.5 776.5 Q777 804 797 824.5 Q817 845 844 856.5 Q871 868 903 868 Q934 868 961.5 856.5 Q989 845 1009.5 824.5 Q1030 804 1041.5 776.5 Q1053 749 1053 718 Q1053 686 1041.5 659 Q1030 632 1009.5 612 Q989 592 961.5 580.5 Q934 569 903 569 Z " />
<glyph glyph-name="ldot" unicode="&#x140;" horiz-adv-x="854" d="M164 0 L164 1354 L430 1479 L430 0 L164 0 Z M723 500 Q691 500 664 511.5 Q637 523 617 543 Q597 563 585.5 590 Q574 617 574 649 Q574 680 585.5 707.5 Q597 735 617 755.5 Q637 776 664 787.5 Q691 799 723 799 Q754 799 781.5 787.5 Q809 776 829.5 755.5 Q850 735 861.5 707.5 Q873 680 873 649 Q873 617 861.5 590 Q850 563 829.5 543 Q809 523 781.5 511.5 Q754 500 723 500 Z " />
<glyph glyph-name="Nacute" unicode="&#x143;" horiz-adv-x="1511" d="M1081 0 L512 836 Q498 857 481.5 887.5 Q465 918 453 944 Q456 921 457.5 890 Q459 859 459 836 L459 0 L184 0 L184 1434 L444 1434 L999 608 Q1012 588 1029 558 Q1046 528 1059 500 Q1056 529 1054.5 558.5 Q1053 588 1053 608 L1053 1434 L1327 1434 L1327 0 L1081 0 Z M797 1569 L539 1569 L830 1888 L1162 1888 L797 1569 Z " />
<glyph glyph-name="nacute" unicode="&#x144;" horiz-adv-x="1210" d="M801 0 L801 614 Q801 667 787 705 Q773 743 748 767.5 Q723 792 690 803.5 Q657 815 618 815 Q577 815 541 804.5 Q505 794 478 770.5 Q451 747 435.5 709.5 Q420 672 420 618 L420 0 L154 0 L154 1047 L420 1047 L420 948 Q468 1007 538.5 1039 Q609 1071 700 1071 Q767 1071 833 1051 Q899 1031 951 983 Q1003 935 1035 856 Q1067 777 1067 659 L1067 0 L801 0 Z M588 1180 L330 1180 L621 1499 L953 1499 L588 1180 Z " />
<glyph glyph-name="Ncommaaccent" unicode="&#x145;" horiz-adv-x="1511" d="M1081 0 L512 836 Q498 857 481.5 887.5 Q465 918 453 944 Q456 921 457.5 890 Q459 859 459 836 L459 0 L184 0 L184 1434 L444 1434 L999 608 Q1012 588 1029 558 Q1046 528 1059 500 Q1056 529 1054.5 558.5 Q1053 588 1053 608 L1053 1434 L1327 1434 L1327 0 L1081 0 Z M641 -516 Q676 -482 703 -446 Q730 -410 744 -365 Q718 -365 694 -355.5 Q670 -346 651.5 -328 Q633 -310 622 -284.5 Q611 -259 611 -227 Q611 -192 623 -163.5 Q635 -135 655 -114.5 Q675 -94 702.5 -83 Q730 -72 762 -72 Q831 -72 875.5 -115 Q920 -158 920 -240 Q920 -338 875.5 -417 Q831 -496 734 -575 L641 -516 Z " />
<glyph glyph-name="ncommaaccent" unicode="&#x146;" horiz-adv-x="1210" d="M801 0 L801 614 Q801 667 787 705 Q773 743 748 767.5 Q723 792 690 803.5 Q657 815 618 815 Q577 815 541 804.5 Q505 794 478 770.5 Q451 747 435.5 709.5 Q420 672 420 618 L420 0 L154 0 L154 1047 L420 1047 L420 948 Q468 1007 538.5 1039 Q609 1071 700 1071 Q767 1071 833 1051 Q899 1031 951 983 Q1003 935 1035 856 Q1067 777 1067 659 L1067 0 L801 0 Z M483 -516 Q518 -482 545 -446 Q572 -410 586 -365 Q560 -365 536 -355.5 Q512 -346 493.5 -328 Q475 -310 464 -284.5 Q453 -259 453 -227 Q453 -192 465 -163.5 Q477 -135 497 -114.5 Q517 -94 544.5 -83 Q572 -72 604 -72 Q673 -72 717.5 -115 Q762 -158 762 -240 Q762 -338 717.5 -417 Q673 -496 576 -575 L483 -516 Z " />
<glyph glyph-name="Ncaron" unicode="&#x147;" horiz-adv-x="1511" d="M1081 0 L512 836 Q498 857 481.5 887.5 Q465 918 453 944 Q456 921 457.5 890 Q459 859 459 836 L459 0 L184 0 L184 1434 L444 1434 L999 608 Q1012 588 1029 558 Q1046 528 1059 500 Q1056 529 1054.5 558.5 Q1053 588 1053 608 L1053 1434 L1327 1434 L1327 0 L1081 0 Z M903 1569 L647 1569 L359 1888 L604 1888 L776 1747 L948 1888 L1194 1888 L903 1569 Z " />
<glyph glyph-name="ncaron" unicode="&#x148;" horiz-adv-x="1210" d="M801 0 L801 614 Q801 667 787 705 Q773 743 748 767.5 Q723 792 690 803.5 Q657 815 618 815 Q577 815 541 804.5 Q505 794 478 770.5 Q451 747 435.5 709.5 Q420 672 420 618 L420 0 L154 0 L154 1047 L420 1047 L420 948 Q468 1007 538.5 1039 Q609 1071 700 1071 Q767 1071 833 1051 Q899 1031 951 983 Q1003 935 1035 856 Q1067 777 1067 659 L1067 0 L801 0 Z M712 1180 L456 1180 L168 1499 L413 1499 L585 1358 L757 1499 L1003 1499 L712 1180 Z " />
<glyph glyph-name="napostrophe" unicode="&#x149;" horiz-adv-x="1622" d="M1213 0 L1213 614 Q1213 667 1199 705 Q1185 743 1160 767.5 Q1135 792 1102 803.5 Q1069 815 1030 815 Q989 815 953 804.5 Q917 794 890 770.5 Q863 747 847.5 709.5 Q832 672 832 618 L832 0 L566 0 L566 1047 L832 1047 L832 948 Q880 1007 950.5 1039 Q1021 1071 1112 1071 Q1179 1071 1245 1051 Q1311 1031 1363 983 Q1415 935 1447 856 Q1479 777 1479 659 L1479 0 L1213 0 Z M72 940 Q86 952 105 974 Q124 996 143.5 1022 Q163 1048 179.5 1076 Q196 1104 205 1128 Q155 1144 121.5 1184.5 Q88 1225 88 1288 Q88 1327 102 1358 Q116 1389 140 1411.5 Q164 1434 195 1446 Q226 1458 260 1458 Q296 1458 327.5 1445 Q359 1432 383 1407.5 Q407 1383 420.5 1346.5 Q434 1310 434 1262 Q434 1202 413.5 1143 Q393 1084 358.5 1030.5 Q324 977 279 932 Q234 887 184 856 L72 940 Z " />
<glyph glyph-name="Eng" unicode="&#x14a;" horiz-adv-x="1511" d="M752 -285 Q838 -266 895.5 -245.5 Q953 -225 988 -199 Q1023 -173 1038 -139 Q1053 -105 1053 -57 L1053 43 L512 836 Q498 857 481.5 887.5 Q465 918 453 944 Q456 921 457.5 890 Q459 859 459 836 L459 0 L184 0 L184 1434 L444 1434 L999 608 Q1012 588 1029 558 Q1046 528 1059 500 Q1056 529 1054.5 558.5 Q1053 588 1053 608 L1053 1434 L1327 1434 L1327 4 Q1327 -42 1323 -88 Q1319 -134 1307.5 -177.5 Q1296 -221 1275.5 -260.5 Q1255 -300 1223 -334 Q1185 -372 1143.5 -399.5 Q1102 -427 1059.5 -446 Q1017 -465 973.5 -478 Q930 -491 889 -500 L752 -285 Z " />
<glyph glyph-name="eng" unicode="&#x14b;" horiz-adv-x="1210" d="M508 -289 Q589 -271 645 -251.5 Q701 -232 735.5 -206.5 Q770 -181 785.5 -147.5 Q801 -114 801 -70 L801 614 Q801 667 787 705 Q773 743 748 767.5 Q723 792 690 803.5 Q657 815 618 815 Q577 815 541 804.5 Q505 794 478 770.5 Q451 747 435.5 709.5 Q420 672 420 618 L420 0 L154 0 L154 1047 L420 1047 L420 948 Q468 1007 538.5 1039 Q609 1071 700 1071 Q767 1071 833 1051 Q899 1031 951 983 Q1003 935 1035 856 Q1067 777 1067 659 L1067 -4 Q1067 -49 1063 -94 Q1059 -139 1048 -181.5 Q1037 -224 1017 -263 Q997 -302 965 -336 Q928 -375 887 -402.5 Q846 -430 804.5 -448.5 Q763 -467 721.5 -479 Q680 -491 643 -500 L508 -289 Z " />
<glyph glyph-name="Omacron" unicode="&#x14c;" horiz-adv-x="1530" d="M766 -25 Q650 -25 558 5.5 Q466 36 395.5 88.5 Q325 141 275 212.5 Q225 284 193.5 366.5 Q162 449 147.5 538.5 Q133 628 133 717 Q133 805 147.5 894.5 Q162 984 193.5 1066.5 Q225 1149 275 1220.5 Q325 1292 395.5 1344.5 Q466 1397 558 1427.5 Q650 1458 766 1458 Q882 1458 973.5 1427.5 Q1065 1397 1135 1344.5 Q1205 1292 1255 1220.5 Q1305 1149 1336.5 1066.5 Q1368 984 1382.5 894.5 Q1397 805 1397 717 Q1397 628 1382.5 538.5 Q1368 449 1336.5 366.5 Q1305 284 1255 212.5 Q1205 141 1135 88.5 Q1065 36 973.5 5.5 Q882 -25 766 -25 Z M766 242 Q862 242 927.5 287 Q993 332 1033.5 402 Q1074 472 1092 555.5 Q1110 639 1110 717 Q1110 772 1102.5 828.5 Q1095 885 1078 937.5 Q1061 990 1034 1036.5 Q1007 1083 969 1117.5 Q931 1152 880.5 1172 Q830 1192 766 1192 Q701 1192 650.5 1171 Q600 1150 561.5 1114.5 Q523 1079 496 1032 Q469 985 452 932 Q435 879 427.5 824 Q420 769 420 717 Q420 635 438 550.5 Q456 466 496.5 397.5 Q537 329 603 285.5 Q669 242 766 242 Z M428 1591 L428 1808 L1104 1808 L1104 1591 L428 1591 Z " />
<glyph glyph-name="omacron" unicode="&#x14d;" horiz-adv-x="1167" d="M584 -25 Q473 -25 384 12.5 Q295 50 232.5 120.5 Q170 191 136 292.5 Q102 394 102 522 Q102 650 136 752 Q170 854 232.5 925 Q295 996 384 1033.5 Q473 1071 584 1071 Q695 1071 784 1033.5 Q873 996 935.5 925 Q998 854 1031.5 752 Q1065 650 1065 522 Q1065 394 1031.5 292.5 Q998 191 935.5 120.5 Q873 50 784 12.5 Q695 -25 584 -25 Z M584 231 Q634 231 674 251 Q714 271 741.5 308.5 Q769 346 784 400 Q799 454 799 522 Q799 591 784 645 Q769 699 741.5 737 Q714 775 674 795 Q634 815 584 815 Q534 815 494 795 Q454 775 426.5 737 Q399 699 384 645 Q369 591 369 522 Q369 454 384 400 Q399 346 426.5 308.5 Q454 271 494 251 Q534 231 584 231 Z M243 1202 L243 1419 L919 1419 L919 1202 L243 1202 Z " />
<glyph glyph-name="Obreve" unicode="&#x14e;" horiz-adv-x="1530" d="M766 -25 Q650 -25 558 5.5 Q466 36 395.5 88.5 Q325 141 275 212.5 Q225 284 193.5 366.5 Q162 449 147.5 538.5 Q133 628 133 717 Q133 805 147.5 894.5 Q162 984 193.5 1066.5 Q225 1149 275 1220.5 Q325 1292 395.5 1344.5 Q466 1397 558 1427.5 Q650 1458 766 1458 Q882 1458 973.5 1427.5 Q1065 1397 1135 1344.5 Q1205 1292 1255 1220.5 Q1305 1149 1336.5 1066.5 Q1368 984 1382.5 894.5 Q1397 805 1397 717 Q1397 628 1382.5 538.5 Q1368 449 1336.5 366.5 Q1305 284 1255 212.5 Q1205 141 1135 88.5 Q1065 36 973.5 5.5 Q882 -25 766 -25 Z M766 242 Q862 242 927.5 287 Q993 332 1033.5 402 Q1074 472 1092 555.5 Q1110 639 1110 717 Q1110 772 1102.5 828.5 Q1095 885 1078 937.5 Q1061 990 1034 1036.5 Q1007 1083 969 1117.5 Q931 1152 880.5 1172 Q830 1192 766 1192 Q701 1192 650.5 1171 Q600 1150 561.5 1114.5 Q523 1079 496 1032 Q469 985 452 932 Q435 879 427.5 824 Q420 769 420 717 Q420 635 438 550.5 Q456 466 496.5 397.5 Q537 329 603 285.5 Q669 242 766 242 Z M766 1560 Q665 1560 592 1589 Q519 1618 471 1666 Q423 1714 400 1777 Q377 1840 377 1909 L582 1909 Q582 1880 592.5 1852 Q603 1824 625 1802 Q647 1780 682 1766.5 Q717 1753 766 1753 Q815 1753 850.5 1766.5 Q886 1780 908.5 1802 Q931 1824 942 1852 Q953 1880 953 1909 L1158 1909 Q1158 1840 1134.5 1776.5 Q1111 1713 1063 1665 Q1015 1617 941 1588.5 Q867 1560 766 1560 Z " />
<glyph glyph-name="obreve" unicode="&#x14f;" horiz-adv-x="1167" d="M584 -25 Q473 -25 384 12.5 Q295 50 232.5 120.5 Q170 191 136 292.5 Q102 394 102 522 Q102 650 136 752 Q170 854 232.5 925 Q295 996 384 1033.5 Q473 1071 584 1071 Q695 1071 784 1033.5 Q873 996 935.5 925 Q998 854 1031.5 752 Q1065 650 1065 522 Q1065 394 1031.5 292.5 Q998 191 935.5 120.5 Q873 50 784 12.5 Q695 -25 584 -25 Z M584 231 Q634 231 674 251 Q714 271 741.5 308.5 Q769 346 784 400 Q799 454 799 522 Q799 591 784 645 Q769 699 741.5 737 Q714 775 674 795 Q634 815 584 815 Q534 815 494 795 Q454 775 426.5 737 Q399 699 384 645 Q369 591 369 522 Q369 454 384 400 Q399 346 426.5 308.5 Q454 271 494 251 Q534 231 584 231 Z M581 1171 Q480 1171 407 1200 Q334 1229 286 1277 Q238 1325 215 1388 Q192 1451 192 1520 L397 1520 Q397 1491 407.5 1463 Q418 1435 440 1413 Q462 1391 497 1377.5 Q532 1364 581 1364 Q630 1364 665.5 1377.5 Q701 1391 723.5 1413 Q746 1435 757 1463 Q768 1491 768 1520 L973 1520 Q973 1451 949.5 1387.5 Q926 1324 878 1276 Q830 1228 756 1199.5 Q682 1171 581 1171 Z " />
<glyph glyph-name="Ohungarumlaut" unicode="&#x150;" horiz-adv-x="1530" d="M766 -25 Q650 -25 558 5.5 Q466 36 395.5 88.5 Q325 141 275 212.5 Q225 284 193.5 366.5 Q162 449 147.5 538.5 Q133 628 133 717 Q133 805 147.5 894.5 Q162 984 193.5 1066.5 Q225 1149 275 1220.5 Q325 1292 395.5 1344.5 Q466 1397 558 1427.5 Q650 1458 766 1458 Q882 1458 973.5 1427.5 Q1065 1397 1135 1344.5 Q1205 1292 1255 1220.5 Q1305 1149 1336.5 1066.5 Q1368 984 1382.5 894.5 Q1397 805 1397 717 Q1397 628 1382.5 538.5 Q1368 449 1336.5 366.5 Q1305 284 1255 212.5 Q1205 141 1135 88.5 Q1065 36 973.5 5.5 Q882 -25 766 -25 Z M766 242 Q862 242 927.5 287 Q993 332 1033.5 402 Q1074 472 1092 555.5 Q1110 639 1110 717 Q1110 772 1102.5 828.5 Q1095 885 1078 937.5 Q1061 990 1034 1036.5 Q1007 1083 969 1117.5 Q931 1152 880.5 1172 Q830 1192 766 1192 Q701 1192 650.5 1171 Q600 1150 561.5 1114.5 Q523 1079 496 1032 Q469 985 452 932 Q435 879 427.5 824 Q420 769 420 717 Q420 635 438 550.5 Q456 466 496.5 397.5 Q537 329 603 285.5 Q669 242 766 242 Z M602 1569 L344 1569 L635 1888 L966 1888 L602 1569 Z M1052 1569 L794 1569 L1085 1888 L1417 1888 L1052 1569 Z " />
<glyph glyph-name="ohungarumlaut" unicode="&#x151;" horiz-adv-x="1167" d="M584 -25 Q473 -25 384 12.5 Q295 50 232.5 120.5 Q170 191 136 292.5 Q102 394 102 522 Q102 650 136 752 Q170 854 232.5 925 Q295 996 384 1033.5 Q473 1071 584 1071 Q695 1071 784 1033.5 Q873 996 935.5 925 Q998 854 1031.5 752 Q1065 650 1065 522 Q1065 394 1031.5 292.5 Q998 191 935.5 120.5 Q873 50 784 12.5 Q695 -25 584 -25 Z M584 231 Q634 231 674 251 Q714 271 741.5 308.5 Q769 346 784 400 Q799 454 799 522 Q799 591 784 645 Q769 699 741.5 737 Q714 775 674 795 Q634 815 584 815 Q534 815 494 795 Q454 775 426.5 737 Q399 699 384 645 Q369 591 369 522 Q369 454 384 400 Q399 346 426.5 308.5 Q454 271 494 251 Q534 231 584 231 Z M418 1180 L160 1180 L451 1499 L782 1499 L418 1180 Z M868 1180 L610 1180 L901 1499 L1233 1499 L868 1180 Z " />
<glyph glyph-name="Racute" unicode="&#x154;" horiz-adv-x="1462" d="M184 0 L184 1434 L850 1434 Q986 1434 1077.5 1396.5 Q1169 1359 1225 1297 Q1281 1235 1305 1154 Q1329 1073 1329 985 Q1329 924 1311.5 861.5 Q1294 799 1259 743 Q1224 687 1172 641.5 Q1120 596 1051 571 L1329 0 L1018 0 L750 535 L461 535 L461 0 L184 0 Z M854 797 Q907 797 943 812.5 Q979 828 1001 854 Q1023 880 1032.5 914 Q1042 948 1042 985 Q1042 1019 1033.5 1052.5 Q1025 1086 1004 1112.5 Q983 1139 946.5 1155 Q910 1171 854 1171 L461 1171 L461 797 L854 797 Z M696 1569 L438 1569 L729 1888 L1061 1888 L696 1569 Z " />
<glyph glyph-name="racute" unicode="&#x155;" horiz-adv-x="879" d="M154 0 L154 1047 L420 1047 L420 954 Q442 1004 489.5 1037.5 Q537 1071 614 1071 Q679 1071 730.5 1050 Q782 1029 827 991 L791 748 Q753 774 707.5 791.5 Q662 809 600 809 Q565 809 532.5 799 Q500 789 475 764 Q450 739 435 695 Q420 651 420 584 L420 0 L154 0 Z M500 1180 L242 1180 L533 1499 L865 1499 L500 1180 Z " />
<glyph glyph-name="Rcommaaccent" unicode="&#x156;" horiz-adv-x="1462" d="M184 0 L184 1434 L850 1434 Q986 1434 1077.5 1396.5 Q1169 1359 1225 1297 Q1281 1235 1305 1154 Q1329 1073 1329 985 Q1329 924 1311.5 861.5 Q1294 799 1259 743 Q1224 687 1172 641.5 Q1120 596 1051 571 L1329 0 L1018 0 L750 535 L461 535 L461 0 L184 0 Z M854 797 Q907 797 943 812.5 Q979 828 1001 854 Q1023 880 1032.5 914 Q1042 948 1042 985 Q1042 1019 1033.5 1052.5 Q1025 1086 1004 1112.5 Q983 1139 946.5 1155 Q910 1171 854 1171 L461 1171 L461 797 L854 797 Z M604 -516 Q639 -482 666 -446 Q693 -410 707 -365 Q681 -365 657 -355.5 Q633 -346 614.5 -328 Q596 -310 585 -284.5 Q574 -259 574 -227 Q574 -192 586 -163.5 Q598 -135 618 -114.5 Q638 -94 665.5 -83 Q693 -72 725 -72 Q794 -72 838.5 -115 Q883 -158 883 -240 Q883 -338 838.5 -417 Q794 -496 697 -575 L604 -516 Z " />
<glyph glyph-name="rcommaaccent" unicode="&#x157;" horiz-adv-x="879" d="M154 0 L154 1047 L420 1047 L420 954 Q442 1004 489.5 1037.5 Q537 1071 614 1071 Q679 1071 730.5 1050 Q782 1029 827 991 L791 748 Q753 774 707.5 791.5 Q662 809 600 809 Q565 809 532.5 799 Q500 789 475 764 Q450 739 435 695 Q420 651 420 584 L420 0 L154 0 Z M161 -553 Q196 -519 223 -483 Q250 -447 264 -402 Q238 -402 214 -392.5 Q190 -383 171.5 -365 Q153 -347 142 -321.5 Q131 -296 131 -264 Q131 -229 143 -200.5 Q155 -172 175 -151.5 Q195 -131 222.5 -120 Q250 -109 282 -109 Q351 -109 395.5 -152 Q440 -195 440 -277 Q440 -375 395.5 -454 Q351 -533 254 -612 L161 -553 Z " />
<glyph glyph-name="Rcaron" unicode="&#x158;" horiz-adv-x="1462" d="M184 0 L184 1434 L850 1434 Q986 1434 1077.5 1396.5 Q1169 1359 1225 1297 Q1281 1235 1305 1154 Q1329 1073 1329 985 Q1329 924 1311.5 861.5 Q1294 799 1259 743 Q1224 687 1172 641.5 Q1120 596 1051 571 L1329 0 L1018 0 L750 535 L461 535 L461 0 L184 0 Z M854 797 Q907 797 943 812.5 Q979 828 1001 854 Q1023 880 1032.5 914 Q1042 948 1042 985 Q1042 1019 1033.5 1052.5 Q1025 1086 1004 1112.5 Q983 1139 946.5 1155 Q910 1171 854 1171 L461 1171 L461 797 L854 797 Z M843 1569 L587 1569 L299 1888 L544 1888 L716 1747 L888 1888 L1134 1888 L843 1569 Z " />
<glyph glyph-name="rcaron" unicode="&#x159;" horiz-adv-x="879" d="M154 0 L154 1047 L420 1047 L420 954 Q442 1004 489.5 1037.5 Q537 1071 614 1071 Q679 1071 730.5 1050 Q782 1029 827 991 L791 748 Q753 774 707.5 791.5 Q662 809 600 809 Q565 809 532.5 799 Q500 789 475 764 Q450 739 435 695 Q420 651 420 584 L420 0 L154 0 Z M630 1180 L374 1180 L86 1499 L331 1499 L503 1358 L675 1499 L921 1499 L630 1180 Z " />
<glyph glyph-name="Sacute" unicode="&#x15a;" horiz-adv-x="1300" d="M872 1044 Q859 1076 837 1104 Q815 1132 784.5 1152.5 Q754 1173 714.5 1184.5 Q675 1196 627 1196 Q537 1196 486.5 1160 Q436 1124 436 1059 Q436 1016 468 987 Q500 958 552 934.5 Q604 911 670.5 890 Q737 869 807 843.5 Q877 818 943.5 783.5 Q1010 749 1062 698.5 Q1114 648 1146 578.5 Q1178 509 1178 412 Q1178 307 1138 226 Q1098 145 1028.5 89 Q959 33 864 4 Q769 -25 659 -25 Q558 -25 470 2.5 Q382 30 310.5 81 Q239 132 186 205 Q133 278 102 369 L354 463 Q377 413 409.5 371.5 Q442 330 482 300.5 Q522 271 568.5 254.5 Q615 238 668 238 Q720 238 762.5 249 Q805 260 835.5 282 Q866 304 882.5 336.5 Q899 369 899 412 Q899 464 867 499.5 Q835 535 783 561.5 Q731 588 664.5 609.5 Q598 631 528.5 655 Q459 679 392.5 711 Q326 743 274 790 Q222 837 190 903 Q158 969 158 1063 Q158 1144 190.5 1215.5 Q223 1287 285 1341 Q347 1395 437 1426.5 Q527 1458 643 1458 Q740 1458 818.5 1433 Q897 1408 957 1363.5 Q1017 1319 1058 1258.5 Q1099 1198 1120 1126 L872 1044 Z M663 1569 L405 1569 L696 1888 L1028 1888 L663 1569 Z " />
<glyph glyph-name="sacute" unicode="&#x15b;" horiz-adv-x="1012" d="M698 758 Q683 773 663.5 789 Q644 805 619 817.5 Q594 830 562.5 838 Q531 846 494 846 Q434 846 397 826 Q360 806 360 768 Q360 747 377 729 Q394 711 422.5 696 Q451 681 488 667.5 Q525 654 565 641 Q632 619 694.5 591 Q757 563 804.5 523 Q852 483 880.5 427 Q909 371 909 293 Q909 216 880 157 Q851 98 797.5 57.5 Q744 17 668.5 -4 Q593 -25 500 -25 Q436 -25 374.5 -11.5 Q313 2 258 26.5 Q203 51 158 86 Q113 121 82 164 L258 313 Q275 297 299.5 277.5 Q324 258 355.5 241 Q387 224 424.5 212.5 Q462 201 504 201 Q573 201 617.5 221.5 Q662 242 662 293 Q662 318 646.5 338 Q631 358 602 375.5 Q573 393 531 410 Q489 427 436 446 Q362 473 302 502 Q242 531 200 568.5 Q158 606 135.5 656 Q113 706 113 776 Q113 848 143 903 Q173 958 224.5 995.5 Q276 1033 345.5 1052 Q415 1071 494 1071 Q561 1071 619 1057 Q677 1043 724.5 1020 Q772 997 810 966.5 Q848 936 877 903 L698 758 Z M448 1180 L190 1180 L481 1499 L813 1499 L448 1180 Z " />
<glyph glyph-name="Scircumflex" unicode="&#x15c;" horiz-adv-x="1300" d="M872 1044 Q859 1076 837 1104 Q815 1132 784.5 1152.5 Q754 1173 714.5 1184.5 Q675 1196 627 1196 Q537 1196 486.5 1160 Q436 1124 436 1059 Q436 1016 468 987 Q500 958 552 934.5 Q604 911 670.5 890 Q737 869 807 843.5 Q877 818 943.5 783.5 Q1010 749 1062 698.5 Q1114 648 1146 578.5 Q1178 509 1178 412 Q1178 307 1138 226 Q1098 145 1028.5 89 Q959 33 864 4 Q769 -25 659 -25 Q558 -25 470 2.5 Q382 30 310.5 81 Q239 132 186 205 Q133 278 102 369 L354 463 Q377 413 409.5 371.5 Q442 330 482 300.5 Q522 271 568.5 254.5 Q615 238 668 238 Q720 238 762.5 249 Q805 260 835.5 282 Q866 304 882.5 336.5 Q899 369 899 412 Q899 464 867 499.5 Q835 535 783 561.5 Q731 588 664.5 609.5 Q598 631 528.5 655 Q459 679 392.5 711 Q326 743 274 790 Q222 837 190 903 Q158 969 158 1063 Q158 1144 190.5 1215.5 Q223 1287 285 1341 Q347 1395 437 1426.5 Q527 1458 643 1458 Q740 1458 818.5 1433 Q897 1408 957 1363.5 Q1017 1319 1058 1258.5 Q1099 1198 1120 1126 L872 1044 Z M815 1569 L643 1710 L471 1569 L226 1569 L516 1888 L772 1888 L1061 1569 L815 1569 Z " />
<glyph glyph-name="scircumflex" unicode="&#x15d;" horiz-adv-x="1012" d="M698 758 Q683 773 663.5 789 Q644 805 619 817.5 Q594 830 562.5 838 Q531 846 494 846 Q434 846 397 826 Q360 806 360 768 Q360 747 377 729 Q394 711 422.5 696 Q451 681 488 667.5 Q525 654 565 641 Q632 619 694.5 591 Q757 563 804.5 523 Q852 483 880.5 427 Q909 371 909 293 Q909 216 880 157 Q851 98 797.5 57.5 Q744 17 668.5 -4 Q593 -25 500 -25 Q436 -25 374.5 -11.5 Q313 2 258 26.5 Q203 51 158 86 Q113 121 82 164 L258 313 Q275 297 299.5 277.5 Q324 258 355.5 241 Q387 224 424.5 212.5 Q462 201 504 201 Q573 201 617.5 221.5 Q662 242 662 293 Q662 318 646.5 338 Q631 358 602 375.5 Q573 393 531 410 Q489 427 436 446 Q362 473 302 502 Q242 531 200 568.5 Q158 606 135.5 656 Q113 706 113 776 Q113 848 143 903 Q173 958 224.5 995.5 Q276 1033 345.5 1052 Q415 1071 494 1071 Q561 1071 619 1057 Q677 1043 724.5 1020 Q772 997 810 966.5 Q848 936 877 903 L698 758 Z M673 1180 L501 1321 L329 1180 L84 1180 L374 1499 L630 1499 L919 1180 L673 1180 Z " />
<glyph glyph-name="Scedilla" unicode="&#x15e;" horiz-adv-x="1300" d="M649 -500 Q563 -500 509 -472.5 Q455 -445 424 -403 L539 -317 Q551 -333 572.5 -344.5 Q594 -356 623 -356 Q671 -356 696 -335 Q721 -314 721 -276 Q721 -239 695 -218 Q669 -197 621 -197 Q574 -197 532 -225 L477 -158 L590 -20 Q501 -12 424.5 18.5 Q348 49 285.5 99.5 Q223 150 176.5 218 Q130 286 102 369 L354 463 Q377 413 409.5 371.5 Q442 330 482 300.5 Q522 271 568.5 254.5 Q615 238 668 238 Q720 238 762.5 249 Q805 260 835.5 282 Q866 304 882.5 336.5 Q899 369 899 412 Q899 464 867 499.5 Q835 535 783 561.5 Q731 588 664.5 609.5 Q598 631 528.5 655 Q459 679 392.5 711 Q326 743 274 790 Q222 837 190 903 Q158 969 158 1063 Q158 1144 190.5 1215.5 Q223 1287 285 1341 Q347 1395 437 1426.5 Q527 1458 643 1458 Q740 1458 818.5 1433 Q897 1408 957 1363.5 Q1017 1319 1058 1258.5 Q1099 1198 1120 1126 L872 1044 Q859 1076 837 1104 Q815 1132 784.5 1152.5 Q754 1173 714.5 1184.5 Q675 1196 627 1196 Q537 1196 486.5 1160 Q436 1124 436 1059 Q436 1016 468 987 Q500 958 552 934.5 Q604 911 670.5 890 Q737 869 807 843.5 Q877 818 943.5 783.5 Q1010 749 1062 698.5 Q1114 648 1146 578.5 Q1178 509 1178 412 Q1178 317 1145 242 Q1112 167 1054 112.5 Q996 58 915.5 25 Q835 -8 741 -18 L696 -94 Q756 -94 799.5 -108 Q843 -122 871.5 -147 Q900 -172 914 -206 Q928 -240 928 -279 Q928 -327 909.5 -367.5 Q891 -408 855.5 -437.5 Q820 -467 768 -483.5 Q716 -500 649 -500 Z " />
<glyph glyph-name="scedilla" unicode="&#x15f;" horiz-adv-x="1012" d="M475 -500 Q388 -500 334.5 -472.5 Q281 -445 250 -403 L365 -317 Q377 -333 398.5 -344.5 Q420 -356 449 -356 Q497 -356 522 -335 Q547 -314 547 -276 Q547 -239 520.5 -218 Q494 -197 446 -197 Q400 -197 358 -225 L303 -158 L418 -18 Q366 -11 316.5 4.5 Q267 20 223.5 43.5 Q180 67 143.5 97.5 Q107 128 82 164 L258 313 Q275 297 299.5 277.5 Q324 258 355.5 241 Q387 224 424.5 212.5 Q462 201 504 201 Q573 201 617.5 221.5 Q662 242 662 293 Q662 318 646.5 338 Q631 358 602 375.5 Q573 393 531 410 Q489 427 436 446 Q362 473 302 502 Q242 531 200 568.5 Q158 606 135.5 656 Q113 706 113 776 Q113 848 143 903 Q173 958 224.5 995.5 Q276 1033 345.5 1052 Q415 1071 494 1071 Q561 1071 619 1057 Q677 1043 724.5 1020 Q772 997 810 966.5 Q848 936 877 903 L698 758 Q683 773 663.5 789 Q644 805 619 817.5 Q594 830 562.5 838 Q531 846 494 846 Q434 846 397 826 Q360 806 360 768 Q360 747 377 729 Q394 711 422.5 696 Q451 681 488 667.5 Q525 654 565 641 Q632 619 694.5 591 Q757 563 804.5 523 Q852 483 880.5 427 Q909 371 909 293 Q909 223 885 168 Q861 113 816.5 73.5 Q772 34 708.5 10.5 Q645 -13 567 -20 L522 -94 Q582 -94 625.5 -108 Q669 -122 697.5 -147 Q726 -172 740 -206 Q754 -240 754 -279 Q754 -327 735.5 -367.5 Q717 -408 681.5 -437.5 Q646 -467 594 -483.5 Q542 -500 475 -500 Z " />
<glyph glyph-name="uni0162" unicode="&#x162;" horiz-adv-x="1280" d="M612 -500 Q526 -500 472 -472.5 Q418 -445 387 -403 L502 -317 Q514 -333 535.5 -344.5 Q557 -356 586 -356 Q634 -356 659 -335 Q684 -314 684 -276 Q684 -239 658 -218 Q632 -197 584 -197 Q536 -197 496 -225 L440 -158 L569 0 L502 0 L502 1167 L92 1167 L92 1434 L1188 1434 L1188 1167 L778 1167 L778 0 L717 0 L659 -94 Q719 -94 762.5 -108 Q806 -122 834.5 -147 Q863 -172 877 -206 Q891 -240 891 -279 Q891 -327 872.5 -367.5 Q854 -408 818.5 -437.5 Q783 -467 731 -483.5 Q679 -500 612 -500 Z " />
</font>
</svg>
