<?xml version="1.0" encoding="UTF-8"?>
<svg xmlns="http://www.w3.org/2000/svg" xmlns:xlink="http://www.w3.org/1999/xlink" version="1.2" >
<font id="Overpass-ExtraLightItalic">
<font-face  font-family="Overpass" units-per-em="1000" ascent="750" descent="-250" font-style="italic" font-weight="200" font-stretch="normal" slope="-10" cap-height="700" x-height="511" underline-position="-123" underline-thickness="20" />
<missing-glyph  horiz-adv-x="230" d="" />
<glyph glyph-name="Eth" unicode="&#xd0;" horiz-adv-x="645" d="M145 331 L77 331 L82 367 L151 367 L210 700 L360 700 Q432 700 481 676.5 Q530 653 560.5 614 Q591 575 604 525 Q617 475 617 422 Q617 340 593 264 Q569 188 521 129.5 Q473 71 401 35.5 Q329 0 233 0 L87 0 L145 331 Z M240 36 Q319 36 381.5 66 Q444 96 487 148.5 Q530 201 553 271.5 Q576 342 576 422 Q576 469 565 513 Q554 557 528 590.5 Q502 624 459 644 Q416 664 353 664 L240 664 L188 367 L363 367 L358 331 L182 331 L131 36 L240 36 Z " />
<glyph glyph-name="eth" unicode="&#xf0;" horiz-adv-x="520" d="M401 639 Q455 590 477.5 516.5 Q500 443 500 352 Q500 264 483 196 Q466 128 434.5 82 Q403 36 358 12 Q313 -12 258 -12 Q219 -12 188 3 Q157 18 135.5 45 Q114 72 103 108.5 Q92 145 92 187 Q92 246 110.5 295.5 Q129 345 161 380.5 Q193 416 235.5 436 Q278 456 325 456 Q358 456 383 446 Q408 436 425.5 420.5 Q443 405 453 385 Q463 365 468 345 Q468 442 446 507 Q424 572 376 615 L292 537 L273 559 L352 633 Q326 650 293.5 662 Q261 674 225 680 L231 712 Q276 704 312 690.5 Q348 677 378 657 L452 727 L471 705 L401 639 Z M316 420 Q278 420 244.5 402.5 Q211 385 186 354 Q161 323 146 280.5 Q131 238 131 189 Q131 153 140 123 Q149 93 166 71 Q183 49 207.5 36.5 Q232 24 264 24 Q306 24 340 42 Q374 60 398 91 Q422 122 435 163.5 Q448 205 448 251 Q448 287 439 318 Q430 349 413 371.5 Q396 394 371.5 407 Q347 420 316 420 Z " />
<glyph glyph-name="Lslash" unicode="&#x141;" horiz-adv-x="511" d="M87 0 L140 299 L55 241 L62 281 L147 339 L211 700 L247 700 L188 366 L335 466 L327 426 L182 327 L130 33 L468 33 L462 0 L87 0 Z " />
<glyph glyph-name="lslash" unicode="&#x142;" horiz-adv-x="222" d="M84 0 L136 293 L48 234 L55 273 L142 331 L208 704 L247 722 L183 358 L271 417 L264 378 L177 320 L121 0 L84 0 Z " />
<glyph glyph-name="Scaron" unicode="&#x160;" horiz-adv-x="570" d="M510 586 Q500 630 468 653.5 Q436 677 381 677 Q303 677 258.5 639 Q214 601 214 538 Q214 498 236 472.5 Q258 447 290.5 427 Q323 407 361 389.5 Q399 372 431.5 348 Q464 324 486 290 Q508 256 508 204 Q508 153 490.5 113 Q473 73 442 45.5 Q411 18 369 3 Q327 -12 279 -12 Q238 -12 205.5 0 Q173 12 148 32 Q123 52 107 78.5 Q91 105 84 135 L121 147 Q136 91 177.5 57 Q219 23 283 23 Q321 23 354.5 34.5 Q388 46 413.5 68.5 Q439 91 454 123 Q469 155 469 197 Q469 243 447 273.5 Q425 304 392.5 326 Q360 348 322 366 Q284 384 251.5 406 Q219 428 197 459 Q175 490 175 537 Q175 573 189.5 605 Q204 637 231 661 Q258 685 296.5 698.5 Q335 712 382 712 Q450 712 494.5 680.5 Q539 649 547 596 L510 586 Z M408 766 L376 766 L253 922 L288 922 L396 802 L548 922 L587 922 L408 766 Z " />
<glyph glyph-name="scaron" unicode="&#x161;" horiz-adv-x="437" d="M392 438 Q375 458 348.5 473.5 Q322 489 282 489 Q225 489 191 459 Q157 429 157 386 Q157 356 174 336.5 Q191 317 216.5 302.5 Q242 288 272 275.5 Q302 263 327.5 245.5 Q353 228 370 202.5 Q387 177 387 138 Q387 70 344.5 29 Q302 -12 222 -12 Q170 -12 131 10.5 Q92 33 69 65 L98 88 Q118 60 149.5 41 Q181 22 224 22 Q281 22 315.5 51 Q350 80 350 135 Q350 169 333 190 Q316 211 290.5 225.5 Q265 240 235.5 252.5 Q206 265 180.5 281.5 Q155 298 138 322.5 Q121 347 121 386 Q121 413 132.5 438 Q144 463 166 482 Q188 501 218 512 Q248 523 286 523 Q331 523 365.5 504.5 Q400 486 420 460 L392 438 Z M312 576 L280 576 L157 732 L192 732 L300 612 L452 732 L491 732 L312 576 Z " />
<glyph glyph-name="Yacute" unicode="&#xdd;" horiz-adv-x="580" d="M255 0 L304 277 L154 700 L191 700 L326 315 L594 700 L635 700 L340 277 L291 0 L255 0 Z M373 766 L336 766 L514 922 L569 922 L373 766 Z " />
<glyph glyph-name="yacute" unicode="&#xfd;" horiz-adv-x="485" d="M209 14 L119 511 L154 511 L234 59 L475 511 L514 511 L136 -194 L98 -194 L209 14 Z M278 576 L241 576 L419 732 L474 732 L278 576 Z " />
<glyph glyph-name="Thorn" unicode="&#xde;" horiz-adv-x="579" d="M87 0 L209 700 L246 700 L223 561 L404 561 Q457 561 493 546 Q529 531 551.5 506.5 Q574 482 583.5 451 Q593 420 593 387 Q593 347 578.5 305 Q564 263 532.5 228.5 Q501 194 451.5 172 Q402 150 333 150 L150 150 L124 0 L87 0 Z M336 186 Q394 186 435 205 Q476 224 502 253 Q528 282 540 318 Q552 354 552 387 Q552 413 544 438 Q536 463 518 482.5 Q500 502 470.5 513.5 Q441 525 398 525 L216 525 L156 186 L336 186 Z " />
<glyph glyph-name="thorn" unicode="&#xfe;" horiz-adv-x="538" d="M270 -12 Q224 -12 187.5 14 Q151 40 136 85 L89 -185 L48 -203 L207 704 L247 722 L197 436 Q230 479 269 501 Q308 523 358 523 Q394 523 423 508.5 Q452 494 472.5 467 Q493 440 503.5 402.5 Q514 365 514 319 Q514 242 496 180.5 Q478 119 445.5 76 Q413 33 368.5 10.5 Q324 -12 270 -12 Z M270 24 Q318 24 356 45.5 Q394 67 420.5 105 Q447 143 461 196.5 Q475 250 475 315 Q475 393 443.5 440 Q412 487 350 487 Q305 487 262 460.5 Q219 434 189 389 L144 132 Q159 81 191.5 52.5 Q224 24 270 24 Z " />
<glyph glyph-name="Zcaron" unicode="&#x17d;" horiz-adv-x="575" d="M44 0 L48 19 L565 667 L185 667 L190 700 L619 700 L615 679 L99 33 L500 33 L496 0 L44 0 Z M421 766 L389 766 L266 922 L301 922 L409 802 L561 922 L600 922 L421 766 Z " />
<glyph glyph-name="zcaron" unicode="&#x17e;" horiz-adv-x="475" d="M49 0 L53 22 L427 478 L153 478 L159 511 L484 511 L480 490 L105 33 L399 33 L394 0 L49 0 Z M339 576 L307 576 L184 732 L219 732 L327 612 L479 732 L518 732 L339 576 Z " />
<glyph glyph-name="onehalf" unicode="&#xbd;" horiz-adv-x="699" d="M1 -12 L605 712 L649 712 L45 -12 L1 -12 Z M112 283 L171 617 L115 617 L119 639 Q157 641 173 657 Q189 673 200 705 L225 705 L151 283 L112 283 Z M443 331 Q460 371 495.5 400 Q531 429 584 429 Q633 429 664.5 401 Q696 373 696 325 Q696 294 688 270.5 Q680 247 663.5 228 Q647 209 621.5 192 Q596 175 561 156 Q506 127 478.5 100 Q451 73 437 40 L645 40 L638 0 L384 0 Q391 37 407 65.5 Q423 94 445.5 116.5 Q468 139 495 157 Q522 175 551 191 Q578 206 598 220 Q618 234 631 248.5 Q644 263 650.5 280.5 Q657 298 657 321 Q657 334 653 347 Q649 360 640 370 Q631 380 617 386.5 Q603 393 583 393 Q540 393 515.5 371.5 Q491 350 475 317 L443 331 Z " />
<glyph glyph-name="onequarter" unicode="&#xbc;" horiz-adv-x="650" d="M1 -12 L605 712 L649 712 L45 -12 L1 -12 Z M112 283 L171 617 L115 617 L119 639 Q157 641 173 657 Q189 673 200 705 L225 705 L151 283 L112 283 Z M508 0 L528 117 L315 117 L319 137 L588 423 L620 423 L572 153 L628 153 L622 117 L566 117 L546 0 L508 0 Z M534 153 L571 358 L377 153 L534 153 Z " />
<glyph glyph-name="onesuperior" unicode="&#xb9;" horiz-adv-x="176" d="M126 444 L185 778 L129 778 L133 800 Q171 802 187 818 Q203 834 214 866 L239 866 L165 444 L126 444 Z " />
<glyph glyph-name="threequarters" unicode="&#xbe;" horiz-adv-x="794" d="M144 -12 L748 712 L792 712 L188 -12 L144 -12 Z M110 376 Q124 343 144.5 325 Q165 307 207 307 Q255 307 288 333.5 Q321 360 321 408 Q321 440 302.5 460.5 Q284 481 247 481 L216 481 L223 517 L244 517 Q265 517 282.5 525 Q300 533 313 546.5 Q326 560 333.5 577.5 Q341 595 341 614 Q341 640 324.5 658 Q308 676 274 676 Q239 676 213 658.5 Q187 641 167 612 L135 627 Q159 667 196 689.5 Q233 712 275 712 Q323 712 351.5 687.5 Q380 663 380 615 Q380 578 359 547 Q338 516 297 501 Q326 493 342.5 469 Q359 445 359 408 Q359 376 346.5 351 Q334 326 313 308 Q292 290 264.5 280.5 Q237 271 207 271 Q154 271 121 296.5 Q88 322 76 364 L110 376 Z M651 0 L671 117 L458 117 L462 137 L731 423 L763 423 L715 153 L771 153 L765 117 L709 117 L689 0 L651 0 Z M677 153 L714 358 L520 153 L677 153 Z " />
<glyph glyph-name="threesuperior" unicode="&#xb3;" horiz-adv-x="343" d="M135 538 Q146 505 168 487 Q190 469 229 469 Q277 469 310 495.5 Q343 522 343 570 Q343 602 324.5 622.5 Q306 643 268 643 L237 643 L245 679 L266 679 Q287 679 304.5 687 Q322 695 334.5 708.5 Q347 722 354.5 739.5 Q362 757 362 776 Q362 802 346 820 Q330 838 295 838 Q260 838 234.5 820.5 Q209 803 190 774 L159 788 Q182 828 217.5 851 Q253 874 298 874 Q343 874 372 848 Q401 822 401 778 Q401 740 378.5 709 Q356 678 318 664 Q347 656 364 632.5 Q381 609 381 570 Q381 539 369 513.5 Q357 488 336 470 Q315 452 287.5 442.5 Q260 433 229 433 Q173 433 142 459.5 Q111 486 100 526 L135 538 Z " />
<glyph glyph-name="twosuperior" unicode="&#xb2;" horiz-adv-x="346" d="M150 776 Q167 816 202.5 844.5 Q238 873 291 873 Q341 873 373 843 Q405 813 405 765 Q405 735 397 712.5 Q389 690 372.5 671.5 Q356 653 330.5 636 Q305 619 270 600 Q215 571 187 544.5 Q159 518 145 485 L354 485 L348 444 L93 444 Q100 481 116 509.5 Q132 538 154.5 560.5 Q177 583 203.5 600.5 Q230 618 259 634 Q287 649 307 663 Q327 677 340 692 Q353 707 359.5 724.5 Q366 742 366 765 Q366 778 361.5 791 Q357 804 348 814 Q339 824 324.5 830.5 Q310 837 291 837 Q248 837 223 816 Q198 795 183 762 L150 776 Z " />
<glyph glyph-name="brokenbar" unicode="&#xa6;" horiz-adv-x="246" d="M153 393 L210 720 L247 720 L190 393 L153 393 Z M63 -120 L120 205 L157 205 L100 -120 L63 -120 Z " />
<glyph glyph-name="minus" unicode="&#x2212;" horiz-adv-x="636" d="M133 324 L133 360 L603 360 L603 324 L133 324 Z " />
<glyph glyph-name="multiply" unicode="&#xd7;" horiz-adv-x="636" d="M368 316 L179 127 L154 151 L344 341 L154 531 L179 555 L368 366 L557 555 L582 531 L392 341 L582 151 L557 127 L368 316 Z " />
<glyph glyph-name="space" unicode="&#x20;" horiz-adv-x="230" d="" />
<glyph glyph-name="exclam" unicode="&#x21;" horiz-adv-x="246" d="M147 193 L169 460 L213 712 L252 712 L208 460 L157 193 L147 193 Z M123 -14 Q112 -14 105 -6.5 Q98 1 98 12 Q98 26 108 36 Q118 46 132 46 Q143 46 150 38 Q157 30 157 19 Q157 5 147 -4.5 Q137 -14 123 -14 Z " />
<glyph glyph-name="quotedbl" unicode="&#x22;" horiz-adv-x="342" d="M171 700 L209 700 L162 433 L124 433 L171 700 Z M339 700 L377 700 L330 433 L292 433 L339 700 Z " />
<glyph glyph-name="numbersign" unicode="&#x23;" horiz-adv-x="661" d="M142 0 L208 218 L87 218 L98 254 L218 254 L280 457 L159 457 L170 493 L290 493 L352 700 L390 700 L328 493 L515 493 L577 700 L619 700 L557 493 L675 493 L665 457 L547 457 L485 254 L604 254 L593 218 L475 218 L410 0 L368 0 L433 218 L246 218 L181 0 L142 0 Z M256 254 L443 254 L505 457 L318 457 L256 254 Z " />
<glyph glyph-name="dollar" unicode="&#x24;" horiz-adv-x="568" d="M517 585 Q506 629 476 653 Q446 677 389 677 Q350 677 317.5 667 Q285 657 261.5 639 Q238 621 225.5 595 Q213 569 213 538 Q213 509 225.5 487.5 Q238 466 258 449.5 Q278 433 304.5 419.5 Q331 406 358 394 Q385 382 413 365.5 Q441 349 463.5 326.5 Q486 304 500 274 Q514 244 514 204 Q514 155 497.5 116 Q481 77 451 49 Q421 21 379.5 5.5 Q338 -10 289 -11 L274 -98 L238 -98 L253 -11 Q217 -8 188.5 5 Q160 18 139 38 Q118 58 104 83 Q90 108 83 136 L120 148 Q137 88 175 56 Q213 24 282 24 Q321 24 356.5 35.5 Q392 47 418 69 Q444 91 459.5 123 Q475 155 475 197 Q475 227 463.5 252 Q452 277 433 297 Q414 317 389 332 Q364 347 337 359 Q307 371 278 386.5 Q249 402 226 422.5 Q203 443 189 470 Q175 497 175 533 Q175 570 188.5 601.5 Q202 633 228.5 657 Q255 681 293 695.5 Q331 710 380 712 L394 789 L430 789 L416 710 Q473 705 507.5 675 Q542 645 553 596 L517 585 Z " />
<glyph glyph-name="percent" unicode="&#x25;" horiz-adv-x="865" d="M266 356 Q231 356 207 368 Q183 380 167 400 Q151 420 144 445.5 Q137 471 137 498 Q137 530 147.5 567.5 Q158 605 180.5 637 Q203 669 238 690.5 Q273 712 322 712 Q357 712 381.5 699 Q406 686 421 665 Q436 644 442.5 618.5 Q449 593 449 568 Q449 533 439 496 Q429 459 407 427.5 Q385 396 350 376 Q315 356 266 356 Z M269 392 Q306 392 333 408.5 Q360 425 377 450 Q394 475 402.5 505 Q411 535 411 563 Q411 582 406.5 602.5 Q402 623 391 639 Q380 655 362.5 665.5 Q345 676 319 676 Q281 676 254 659 Q227 642 210 616 Q193 590 184.5 559.5 Q176 529 176 503 Q176 482 181 462.5 Q186 443 197 427 Q208 411 225.5 401.5 Q243 392 269 392 Z M203 -12 L160 -12 L765 712 L808 712 L203 -12 Z M647 -12 Q612 -12 587.5 0 Q563 12 547.5 32 Q532 52 525 77.5 Q518 103 518 130 Q518 162 528.5 199.5 Q539 237 561 269 Q583 301 618 322.5 Q653 344 702 344 Q737 344 761.5 331 Q786 318 801 297 Q816 276 822.5 250.5 Q829 225 829 200 Q829 165 819 128 Q809 91 787 59.5 Q765 28 730.5 8 Q696 -12 647 -12 Z M649 24 Q686 24 713 40.5 Q740 57 757 82 Q774 107 782.5 137 Q791 167 791 195 Q791 214 786.5 234.5 Q782 255 771 271 Q760 287 742.5 297.5 Q725 308 699 308 Q661 308 634.5 291 Q608 274 590.5 248 Q573 222 565 191.5 Q557 161 557 135 Q557 114 562 94.5 Q567 75 577.5 59 Q588 43 605.5 33.5 Q623 24 649 24 Z " />
<glyph glyph-name="ampersand" unicode="&#x26;" horiz-adv-x="626" d="M541 0 L470 107 Q422 56 360 22 Q298 -12 225 -12 Q150 -12 107.5 28.5 Q65 69 65 139 Q65 184 81.5 220 Q98 256 127.5 286 Q157 316 196.5 341.5 Q236 367 282 391 Q247 445 231.5 483 Q216 521 216 552 Q216 589 229 618.5 Q242 648 265 669 Q288 690 319 701 Q350 712 385 712 Q412 712 436 703 Q460 694 478 678 Q496 662 506 639 Q516 616 516 588 Q516 525 470.5 477.5 Q425 430 335 383 L478 170 Q504 205 522.5 243.5 Q541 282 553 319 L591 319 Q580 277 557 230.5 Q534 184 499 140 L593 0 L541 0 Z M231 24 Q297 24 352 55.5 Q407 87 451 136 L299 364 Q207 317 155 266 Q103 215 103 145 Q103 87 138.5 55.5 Q174 24 231 24 Z M256 558 Q256 526 272.5 489.5 Q289 453 318 409 Q395 448 435.5 488 Q476 528 476 584 Q476 626 450 651 Q424 676 382 676 Q354 676 330.5 667 Q307 658 290.5 642.5 Q274 627 265 605 Q256 583 256 558 Z " />
<glyph glyph-name="quotesingle" unicode="&#x27;" horiz-adv-x="174" d="M171 700 L209 700 L162 433 L124 433 L171 700 Z " />
<glyph glyph-name="parenleft" unicode="&#x28;" horiz-adv-x="316" d="M183 -130 Q157 -83 138.5 -9.5 Q120 64 120 165 Q120 261 140 344 Q160 427 191.5 496 Q223 565 263 619 Q303 673 342 712 L378 712 Q359 692 322.5 646 Q286 600 250 531 Q214 462 187 371 Q160 280 160 172 Q160 111 167 61 Q174 11 183.5 -27.5 Q193 -66 203 -92 Q213 -118 219 -130 L183 -130 Z " />
<glyph glyph-name="parenright" unicode="&#x29;" horiz-adv-x="316" d="M31 -130 Q48 -111 82 -68 Q116 -25 150.5 41 Q185 107 210.5 196 Q236 285 236 397 Q236 457 228.5 509 Q221 561 210 602 Q199 643 187.5 671 Q176 699 168 712 L204 712 Q233 661 254 582.5 Q275 504 275 402 Q275 304 256.5 223.5 Q238 143 208.5 77.5 Q179 12 142 -39 Q105 -90 67 -130 L31 -130 Z " />
<glyph glyph-name="asterisk" unicode="&#x2a;" horiz-adv-x="504" d="M354 393 L319 483 L253 393 L178 310 L150 334 L223 417 L311 490 L216 512 L125 544 L144 579 L236 547 L314 502 L318 595 L336 700 L376 700 L358 595 L328 502 L424 548 L526 580 L533 542 L432 510 L329 490 L388 417 L437 332 L401 308 L354 393 Z " />
<glyph glyph-name="plus" unicode="&#x2b;" horiz-adv-x="636" d="M386 324 L386 108 L348 108 L348 324 L133 324 L133 360 L348 360 L348 578 L386 578 L386 360 L603 360 L603 324 L386 324 Z " />
<glyph glyph-name="comma" unicode="&#x2c;" horiz-adv-x="182" d="M39 -138 Q57 -118 72 -86.5 Q87 -55 92 -27 Q93 -22 93 -14 Q82 -14 74 -7 Q66 0 66 12 Q66 26 75 36 Q84 46 99 46 Q110 46 118.5 38 Q127 30 127 11 Q127 -10 119.5 -32.5 Q112 -55 100 -75.5 Q88 -96 74 -113.5 Q60 -131 48 -141 L39 -138 Z " />
<glyph glyph-name="hyphen" unicode="&#x2d;" horiz-adv-x="379" d="M116 280 L122 316 L345 316 L339 280 L116 280 Z " />
<glyph glyph-name="period" unicode="&#x2e;" horiz-adv-x="182" d="M87 -14 Q76 -14 69.5 -6.5 Q63 1 63 12 Q64 26 74.5 36 Q85 46 99 46 Q110 46 116.5 38 Q123 30 123 19 Q122 5 111.5 -4.5 Q101 -14 87 -14 Z " />
<glyph glyph-name="slash" unicode="&#x2f;" horiz-adv-x="462" d="M-30 -130 L509 712 L549 712 L9 -130 L-30 -130 Z " />
<glyph glyph-name="zero" unicode="0" horiz-adv-x="596" d="M287 -12 Q237 -12 203.5 11 Q170 34 150 71.5 Q130 109 122 155 Q114 201 114 248 Q114 283 119.5 331 Q125 379 138.5 431 Q152 483 173.5 533 Q195 583 227 623 Q259 663 302.5 687.5 Q346 712 403 712 Q451 712 483.5 689.5 Q516 667 536 630.5 Q556 594 565 547 Q574 500 574 451 Q574 412 568 363 Q562 314 548 262.5 Q534 211 512 161.5 Q490 112 458 73.5 Q426 35 383.5 11.5 Q341 -12 287 -12 Z M291 24 Q336 24 372 46 Q408 68 435 103.5 Q462 139 481 184.5 Q500 230 512 277.5 Q524 325 529.5 370.5 Q535 416 535 451 Q535 493 528.5 533.5 Q522 574 506 605.5 Q490 637 463.5 656.5 Q437 676 397 676 Q351 676 315.5 654 Q280 632 252.5 595.5 Q225 559 206 513 Q187 467 175.5 419.5 Q164 372 158.5 327 Q153 282 153 248 Q153 206 160 165.5 Q167 125 183 93.5 Q199 62 225.5 43 Q252 24 291 24 Z " />
<glyph glyph-name="one" unicode="1" horiz-adv-x="310" d="M151 0 L254 582 L139 582 L142 606 Q175 606 197.5 609.5 Q220 613 235.5 623 Q251 633 263 651.5 Q275 670 287 700 L311 700 L187 0 L151 0 Z " />
<glyph glyph-name="two" unicode="2" horiz-adv-x="576" d="M63 0 Q73 59 94 101 Q115 143 145.5 175.5 Q176 208 215 234 Q254 260 301 287 Q343 311 384 336.5 Q425 362 457.5 393 Q490 424 510 462.5 Q530 501 530 551 Q530 607 496 641.5 Q462 676 397 676 Q330 676 281.5 640 Q233 604 207 546 L176 562 Q190 594 212 621.5 Q234 649 262.5 669 Q291 689 325.5 700.5 Q360 712 398 712 Q481 712 525 667 Q569 622 569 551 Q569 494 546.5 451 Q524 408 487.5 373.5 Q451 339 406 311 Q361 283 316 257 Q271 231 236.5 207 Q202 183 177 157.5 Q152 132 135.5 102.5 Q119 73 109 36 L486 36 L479 0 L63 0 Z " />
<glyph glyph-name="three" unicode="3" horiz-adv-x="566" d="M265 -12 Q220 -12 185 0.5 Q150 13 125.5 34 Q101 55 85.5 82 Q70 109 63 139 L98 152 Q114 90 157 57 Q200 24 265 24 Q307 24 344.5 36 Q382 48 410 72 Q438 96 454.5 131.5 Q471 167 471 214 Q471 275 436 310.5 Q401 346 323 346 L292 346 L298 381 L320 381 Q358 381 391.5 393.5 Q425 406 450 429.5 Q475 453 489.5 485.5 Q504 518 504 559 Q504 613 470.5 644.5 Q437 676 380 676 Q347 676 319 666 Q291 656 268 640 Q245 624 227.5 604.5 Q210 585 198 567 L166 581 Q181 605 203 628.5 Q225 652 252.5 670.5 Q280 689 313.5 700.5 Q347 712 385 712 Q420 712 449.5 701 Q479 690 500 670.5 Q521 651 532.5 623.5 Q544 596 544 563 Q544 534 535 504.5 Q526 475 507.5 448.5 Q489 422 461 400 Q433 378 394 365 Q450 351 479 312.5 Q508 274 508 216 Q508 163 489 120.5 Q470 78 437.5 48.5 Q405 19 360.5 3.5 Q316 -12 265 -12 Z " />
<glyph glyph-name="four" unicode="4" horiz-adv-x="563" d="M362 0 L398 204 L64 204 L68 225 L506 700 L523 700 L442 237 L545 237 L538 204 L435 204 L399 0 L362 0 Z M405 237 L471 620 L122 237 L405 237 Z " />
<glyph glyph-name="five" unicode="5" horiz-adv-x="604" d="M281 -12 Q243 -12 210.5 -3 Q178 6 152.5 19.5 Q127 33 108.5 49 Q90 65 80 79 L109 109 Q118 95 133 80.5 Q148 66 169 53 Q190 40 218 32 Q246 24 281 24 Q340 24 384 44.5 Q428 65 457 98.5 Q486 132 500.5 174.5 Q515 217 515 260 Q515 330 473.5 373 Q432 416 361 416 Q303 416 258 392.5 Q213 369 181 337 L152 345 L271 700 L586 700 L580 664 L297 664 L207 396 Q239 422 279.5 437 Q320 452 367 452 Q409 452 443.5 438 Q478 424 502 399 Q526 374 539.5 339.5 Q553 305 553 264 Q553 213 536 163.5 Q519 114 485 75 Q451 36 400 12 Q349 -12 281 -12 Z " />
<glyph glyph-name="six" unicode="6" horiz-adv-x="562" d="M260 -12 Q213 -12 179.5 4.5 Q146 21 125 48 Q104 75 94.5 109.5 Q85 144 85 180 Q85 269 117 352 Q149 435 205.5 504.5 Q262 574 339 628 Q416 682 505 712 L495 675 Q436 655 382 619.5 Q328 584 282.5 538 Q237 492 202.5 438 Q168 384 148 327 Q185 377 234.5 401 Q284 425 336 425 Q378 425 410.5 411 Q443 397 464.5 372.5 Q486 348 497.5 314.5 Q509 281 509 242 Q509 190 490 143.5 Q471 97 437.5 62.5 Q404 28 358.5 8 Q313 -12 260 -12 Z M331 389 Q288 389 250 371.5 Q212 354 183.5 325 Q155 296 138.5 256.5 Q122 217 122 174 Q122 106 159 65 Q196 24 262 24 Q305 24 343 41 Q381 58 409.5 88 Q438 118 454 157.5 Q470 197 470 242 Q470 308 434 348.5 Q398 389 331 389 Z " />
<glyph glyph-name="seven" unicode="7" horiz-adv-x="475" d="M152 0 Q168 85 193 168.5 Q218 252 258 335 Q298 418 355 500 Q412 582 493 664 L142 664 L149 700 L538 700 L533 669 Q444 583 384 492.5 Q324 402 285 315 Q246 228 224.5 147.5 Q203 67 191 0 L152 0 Z " />
<glyph glyph-name="eight" unicode="8" horiz-adv-x="574" d="M279 24 Q319 24 355.5 37.5 Q392 51 419.5 76.5 Q447 102 463 138.5 Q479 175 479 220 Q479 251 469.5 278 Q460 305 441.5 325 Q423 345 396.5 357 Q370 369 337 369 Q294 369 257 352 Q220 335 193 306.5 Q166 278 150.5 240.5 Q135 203 135 162 Q135 98 175 61 Q215 24 279 24 Z M397 712 Q433 712 461 700.5 Q489 689 508.5 669 Q528 649 538 621.5 Q548 594 548 562 Q548 533 539 505.5 Q530 478 511.5 454 Q493 430 465.5 411.5 Q438 393 402 384 Q458 368 488 325 Q518 282 518 224 Q518 173 499.5 130 Q481 87 449 55.5 Q417 24 373.5 6 Q330 -12 279 -12 Q236 -12 202 1 Q168 14 144 37.5 Q120 61 107.5 92.5 Q95 124 95 161 Q95 201 108.5 237.5 Q122 274 146.5 304 Q171 334 204.5 356 Q238 378 277 388 Q255 395 238.5 408 Q222 421 210.5 438 Q199 455 193.5 474.5 Q188 494 188 514 Q188 554 203.5 590 Q219 626 246.5 653 Q274 680 312.5 696 Q351 712 397 712 Z M345 401 Q381 401 411.5 413 Q442 425 464 446.5 Q486 468 498.5 497.5 Q511 527 511 562 Q511 616 478 646 Q445 676 392 676 Q359 676 328.5 664.5 Q298 653 275.5 632 Q253 611 239.5 581 Q226 551 226 514 Q226 463 257 432 Q288 401 345 401 Z " />
<glyph glyph-name="nine" unicode="9" horiz-adv-x="562" d="M379 712 Q423 712 456.5 697 Q490 682 512.5 656.5 Q535 631 546.5 597 Q558 563 558 526 Q558 441 527 355.5 Q496 270 442.5 197 Q389 124 316.5 68.5 Q244 13 161 -12 L167 24 Q225 42 277 78.5 Q329 115 372 163 Q415 211 446.5 268 Q478 325 496 384 Q461 342 413.5 315 Q366 288 308 288 Q264 288 232 302.5 Q200 317 178 342 Q156 367 145.5 400.5 Q135 434 135 471 Q135 522 153.5 566 Q172 610 204.5 642.5 Q237 675 281.5 693.5 Q326 712 379 712 Z M310 324 Q354 324 392.5 340 Q431 356 459 383 Q487 410 503 447 Q519 484 519 526 Q519 558 509 585.5 Q499 613 481 633 Q463 653 437 664.5 Q411 676 379 676 Q336 676 298.5 660.5 Q261 645 233.5 617 Q206 589 190.5 551.5 Q175 514 175 471 Q175 407 210.5 365.5 Q246 324 310 324 Z " />
<glyph glyph-name="colon" unicode="&#x3a;" horiz-adv-x="182" d="M78 -14 Q67 -14 60.5 -6.5 Q54 1 54 12 Q55 26 65.5 36 Q76 46 90 46 Q101 46 107.5 38 Q114 30 114 19 Q113 5 102.5 -4.5 Q92 -14 78 -14 Z M155 423 Q144 423 137.5 430.5 Q131 438 131 449 Q132 463 142.5 473 Q153 483 167 483 Q178 483 184.5 475 Q191 467 191 456 Q190 442 179.5 432.5 Q169 423 155 423 Z " />
<glyph glyph-name="semicolon" unicode="&#x3b;" horiz-adv-x="182" d="M155 423 Q144 423 137.5 430.5 Q131 438 131 449 Q132 463 142.5 473 Q153 483 167 483 Q178 483 184.5 475 Q191 467 191 456 Q190 442 179.5 432.5 Q169 423 155 423 Z M28 -138 Q46 -118 61 -86.5 Q76 -55 81 -27 Q82 -22 82 -14 Q71 -14 63 -7 Q55 0 55 12 Q55 26 64 36 Q73 46 88 46 Q99 46 107.5 38 Q116 30 116 11 Q116 -10 108.5 -32.5 Q101 -55 89 -75.5 Q77 -96 63 -113.5 Q49 -131 37 -141 L28 -138 Z " />
<glyph glyph-name="less" unicode="&#x3c;" horiz-adv-x="636" d="M603 120 L133 324 L133 362 L603 566 L603 525 L180 343 L603 161 L603 120 Z " />
<glyph glyph-name="equal" unicode="&#x3d;" horiz-adv-x="636" d="M133 229 L133 265 L603 265 L603 229 L133 229 Z M133 419 L133 455 L603 455 L603 419 L133 419 Z " />
<glyph glyph-name="greater" unicode="&#x3e;" horiz-adv-x="636" d="M603 324 L133 120 L133 161 L556 343 L133 525 L133 566 L603 362 L603 324 Z " />
<glyph glyph-name="question" unicode="&#x3f;" horiz-adv-x="502" d="M236 156 L242 190 Q251 237 273 271 Q295 305 322.5 332 Q350 359 380 382 Q410 405 435 430 Q460 455 476 485 Q492 515 492 556 Q492 607 459 641.5 Q426 676 359 676 Q294 676 247 645.5 Q200 615 172 555 L140 570 Q174 639 232.5 675.5 Q291 712 363 712 Q445 712 488 668 Q531 624 531 557 Q531 513 514.5 480.5 Q498 448 473 421 Q448 394 417.5 370.5 Q387 347 359 321 Q331 295 309.5 263.5 Q288 232 280 190 L274 156 L236 156 Z M224 -14 Q213 -14 206.5 -6.5 Q200 1 200 12 Q201 26 211.5 36 Q222 46 236 46 Q247 46 253.5 38 Q260 30 260 19 Q259 5 248.5 -4.5 Q238 -14 224 -14 Z " />
<glyph glyph-name="at" unicode="&#x40;" horiz-adv-x="775" d="M389 -12 Q325 -12 271 8.5 Q217 29 177.5 68 Q138 107 116 163 Q94 219 94 289 Q94 382 129 460 Q164 538 221.5 594 Q279 650 352 681 Q425 712 501 712 Q567 712 619.5 693 Q672 674 708.5 639.5 Q745 605 765 557 Q785 509 785 452 Q785 392 768.5 338.5 Q752 285 725 245.5 Q698 206 663.5 183 Q629 160 593 160 Q561 160 542 178 Q523 196 523 230 Q492 186 453.5 168.5 Q415 151 380 151 Q323 151 290.5 189 Q258 227 258 293 Q258 336 272.5 378.5 Q287 421 314 454.5 Q341 488 379.5 508.5 Q418 529 465 529 Q492 529 511.5 520 Q531 511 544.5 497 Q558 483 565 464 Q572 445 574 426 L602 516 L637 516 L573 311 Q566 291 562 271 Q558 251 558 239 Q558 191 597 191 Q625 191 652 212.5 Q679 234 700 270.5 Q721 307 733.5 354 Q746 401 746 452 Q746 502 728.5 543 Q711 584 679 613.5 Q647 643 602 659.5 Q557 676 501 676 Q429 676 362.5 646.5 Q296 617 245 565 Q194 513 163.5 442 Q133 371 133 289 Q133 233 150 184.5 Q167 136 199.5 100.5 Q232 65 279.5 44.5 Q327 24 389 24 Q423 24 457 27 Q491 30 520 37 L507 1 Q479 -6 449 -9 Q419 -12 389 -12 Z M462 494 Q423 494 392.5 477 Q362 460 340.5 432 Q319 404 307.5 368.5 Q296 333 296 296 Q296 245 321 215.5 Q346 186 389 186 Q423 186 453 203 Q483 220 505 247.5 Q527 275 540 310.5 Q553 346 553 382 Q553 433 528.5 463.5 Q504 494 462 494 Z " />
<glyph glyph-name="A" unicode="A" horiz-adv-x="638" d="M515 0 L482 197 L198 197 L98 0 L58 0 L413 700 L439 700 L552 0 L515 0 Z M478 227 L432 528 Q431 534 428.5 548 Q426 562 423.5 578.5 Q421 595 418.5 612 Q416 629 415 640 Q410 628 402.5 611 Q395 594 387 577 Q379 560 372.5 546.5 Q366 533 364 528 L212 227 L478 227 Z " />
<glyph glyph-name="B" unicode="B" horiz-adv-x="612" d="M210 700 L415 700 Q463 700 495.5 688.5 Q528 677 548 656.5 Q568 636 576.5 609 Q585 582 585 552 Q585 516 572 484.5 Q559 453 536.5 428.5 Q514 404 482.5 387 Q451 370 414 364 Q476 359 514 318.5 Q552 278 552 210 Q552 176 540 139 Q528 102 500.5 71 Q473 40 427 20 Q381 0 313 0 L87 0 L210 700 Z M317 32 Q372 32 410 48 Q448 64 471 89.5 Q494 115 504.5 146.5 Q515 178 515 210 Q515 239 507 264 Q499 289 479.5 307.5 Q460 326 427.5 336.5 Q395 347 346 347 L185 347 L129 32 L317 32 Z M337 379 Q386 379 425.5 392 Q465 405 493 428.5 Q521 452 535.5 483.5 Q550 515 550 552 Q550 575 543.5 596 Q537 617 521.5 633 Q506 649 479.5 658.5 Q453 668 413 668 L242 668 L191 379 L337 379 Z " />
<glyph glyph-name="C" unicode="C" horiz-adv-x="620" d="M327 -12 Q269 -12 229 11 Q189 34 163.5 73 Q138 112 126.5 162 Q115 212 115 266 Q115 348 137.5 428 Q160 508 202.5 571 Q245 634 307.5 673 Q370 712 450 712 Q491 712 520.5 702.5 Q550 693 570.5 677 Q591 661 605 640.5 Q619 620 629 599 L595 581 Q585 602 573 619 Q561 636 544 649 Q527 662 504 669 Q481 676 449 676 Q378 676 323.5 640 Q269 604 231.5 546 Q194 488 174.5 415 Q155 342 155 267 Q155 219 164.5 175 Q174 131 195 97.5 Q216 64 249.5 44 Q283 24 331 24 Q365 24 394 33.5 Q423 43 446.5 58 Q470 73 488 92 Q506 111 519 131 L553 116 Q538 92 517 69 Q496 46 468.5 28 Q441 10 406 -1 Q371 -12 327 -12 Z " />
<glyph glyph-name="D" unicode="D" horiz-adv-x="645" d="M210 700 L360 700 Q432 700 481 676.5 Q530 653 560.5 614 Q591 575 604 525 Q617 475 617 422 Q617 340 593 264 Q569 188 521 129.5 Q473 71 401 35.5 Q329 0 233 0 L87 0 L210 700 Z M240 36 Q319 36 381.5 66 Q444 96 487 148.5 Q530 201 553 271.5 Q576 342 576 422 Q576 469 565 513 Q554 557 528 590.5 Q502 624 459 644 Q416 664 353 664 L240 664 L131 36 L240 36 Z " />
<glyph glyph-name="E" unicode="E" horiz-adv-x="562" d="M87 0 L210 700 L567 700 L562 667 L242 667 L191 379 L404 379 L398 346 L185 346 L130 33 L472 33 L466 0 L87 0 Z " />
<glyph glyph-name="F" unicode="F" horiz-adv-x="530" d="M87 0 L210 700 L577 700 L572 667 L242 667 L191 379 L411 379 L405 346 L185 346 L124 0 L87 0 Z " />
<glyph glyph-name="G" unicode="G" horiz-adv-x="661" d="M329 -12 Q271 -12 230 11 Q189 34 163.5 72 Q138 110 126.5 160.5 Q115 211 115 265 Q115 347 136.5 427 Q158 507 200 570.5 Q242 634 305 673 Q368 712 452 712 Q489 712 517 703.5 Q545 695 566 681.5 Q587 668 601.5 651 Q616 634 626 616 L590 595 Q573 627 539.5 651.5 Q506 676 448 676 Q397 676 355 658 Q313 640 280.5 609 Q248 578 224 537 Q200 496 184.5 451 Q169 406 161.5 359 Q154 312 154 269 Q154 220 164 175.5 Q174 131 195 97.5 Q216 64 249.5 44 Q283 24 331 24 Q416 24 474.5 84 Q533 144 556 269 L558 281 L416 281 L421 316 L602 316 L596 281 Q582 203 556.5 147.5 Q531 92 496 56.5 Q461 21 418.5 4.5 Q376 -12 329 -12 Z " />
<glyph glyph-name="H" unicode="H" horiz-adv-x="648" d="M488 0 L549 347 L185 347 L124 0 L87 0 L210 700 L247 700 L192 381 L556 381 L611 700 L648 700 L525 0 L488 0 Z " />
<glyph glyph-name="I" unicode="I" horiz-adv-x="236" d="M87 0 L210 700 L247 700 L124 0 L87 0 Z " />
<glyph glyph-name="J" unicode="J" horiz-adv-x="512" d="M204 -12 Q168 -12 140.5 -2.5 Q113 7 92.5 23 Q72 39 59 61 Q46 83 39 107 L72 123 Q78 102 87.5 84 Q97 66 112.5 52 Q128 38 150 30 Q172 22 204 22 Q234 22 264 31 Q294 40 320.5 62.5 Q347 85 367 124 Q387 163 398 223 L481 700 L519 700 L436 225 Q423 153 398.5 107 Q374 61 342.5 34.5 Q311 8 275 -2 Q239 -12 204 -12 Z " />
<glyph glyph-name="K" unicode="K" horiz-adv-x="599" d="M485 0 L331 434 L170 264 L124 0 L87 0 L210 700 L247 700 L180 319 L541 700 L584 700 L359 463 L523 0 L485 0 Z " />
<glyph glyph-name="L" unicode="L" horiz-adv-x="511" d="M87 0 L210 700 L247 700 L130 33 L468 33 L462 0 L87 0 Z " />
<glyph glyph-name="M" unicode="M" horiz-adv-x="778" d="M615 0 L719 594 L369 -12 L228 596 L123 0 L86 0 L209 700 L242 700 L383 84 L740 700 L775 700 L652 0 L615 0 Z " />
<glyph glyph-name="N" unicode="N" horiz-adv-x="661" d="M504 0 L234 631 L123 0 L86 0 L209 700 L244 700 L514 69 L625 700 L662 700 L539 0 L504 0 Z " />
<glyph glyph-name="O" unicode="O" horiz-adv-x="696" d="M338 24 Q390 24 431.5 42.5 Q473 61 505.5 92 Q538 123 561 164.5 Q584 206 599 251.5 Q614 297 621 344.5 Q628 392 628 436 Q628 483 618.5 526.5 Q609 570 587.5 603 Q566 636 531.5 656 Q497 676 447 676 Q369 676 313.5 636.5 Q258 597 222.5 536.5 Q187 476 170.5 404 Q154 332 154 266 Q154 218 163.5 174 Q173 130 195 96.5 Q217 63 252 43.5 Q287 24 338 24 Z M333 -12 Q274 -12 232.5 12 Q191 36 165 76 Q139 116 127 166.5 Q115 217 115 270 Q115 318 123.5 369 Q132 420 150 469.5 Q168 519 195 563 Q222 607 259.5 640 Q297 673 345 692.5 Q393 712 452 712 Q512 712 552.5 689 Q593 666 618.5 627.5 Q644 589 655 539 Q666 489 666 435 Q666 387 657.5 335 Q649 283 632 233 Q615 183 588 138.5 Q561 94 524 60.5 Q487 27 439.5 7.5 Q392 -12 333 -12 Z " />
<glyph glyph-name="P" unicode="P" horiz-adv-x="579" d="M87 0 L210 700 L411 700 Q467 700 504.5 685.5 Q542 671 565 646 Q588 621 597.5 589 Q607 557 607 523 Q607 484 592 443 Q577 402 545 367.5 Q513 333 464 311 Q415 289 347 289 L175 289 L124 0 L87 0 Z M349 325 Q406 325 447 343.5 Q488 362 514.5 390.5 Q541 419 554 454 Q567 489 567 523 Q567 551 559.5 577 Q552 603 533.5 622 Q515 641 484.5 652.5 Q454 664 408 664 L240 664 L182 325 L349 325 Z " />
<glyph glyph-name="Q" unicode="Q" horiz-adv-x="696" d="M333 -12 Q274 -12 232.5 12 Q191 36 165 76 Q139 116 127 166.5 Q115 217 115 270 Q115 318 123.5 369 Q132 420 150 469.5 Q168 519 195 563 Q222 607 259.5 640 Q297 673 345 692.5 Q393 712 452 712 Q512 712 552.5 689 Q593 666 618.5 627.5 Q644 589 655 539 Q666 489 666 435 Q666 385 657 331 Q648 277 629 226 Q610 175 581.5 129.5 Q553 84 513 51 L557 -38 L527 -57 L484 30 Q419 -12 333 -12 Z M497 84 Q531 114 556 156 Q581 198 597 245 Q613 292 620.5 341.5 Q628 391 628 436 Q628 483 618.5 526.5 Q609 570 587.5 603 Q566 636 531.5 656 Q497 676 447 676 Q369 676 313.5 636.5 Q258 597 222.5 536.5 Q187 476 170.5 404 Q154 332 154 266 Q154 218 163.5 174 Q173 130 195 96.5 Q217 63 252 43.5 Q287 24 338 24 Q376 24 408 34 Q440 44 468 62 L422 155 L453 174 L497 84 Z " />
<glyph glyph-name="R" unicode="R" horiz-adv-x="624" d="M612 537 Q612 492 595.5 455.5 Q579 419 549.5 392.5 Q520 366 480 350.5 Q440 335 394 331 L497 0 L457 0 L354 329 L182 329 L124 0 L87 0 L210 700 L435 700 Q484 700 517.5 685.5 Q551 671 572 647.5 Q593 624 602.5 595 Q612 566 612 537 Z M355 362 Q397 362 436.5 372 Q476 382 506 403 Q536 424 554.5 457 Q573 490 573 537 Q573 559 566.5 582 Q560 605 544.5 624 Q529 643 502 655 Q475 667 435 667 L242 667 L188 362 L355 362 Z " />
<glyph glyph-name="S" unicode="S" horiz-adv-x="570" d="M510 586 Q500 630 468 653.5 Q436 677 381 677 Q303 677 258.5 639 Q214 601 214 538 Q214 498 236 472.5 Q258 447 290.5 427 Q323 407 361 389.5 Q399 372 431.5 348 Q464 324 486 290 Q508 256 508 204 Q508 153 490.5 113 Q473 73 442 45.5 Q411 18 369 3 Q327 -12 279 -12 Q238 -12 205.5 0 Q173 12 148 32 Q123 52 107 78.5 Q91 105 84 135 L121 147 Q136 91 177.5 57 Q219 23 283 23 Q321 23 354.5 34.5 Q388 46 413.5 68.5 Q439 91 454 123 Q469 155 469 197 Q469 243 447 273.5 Q425 304 392.5 326 Q360 348 322 366 Q284 384 251.5 406 Q219 428 197 459 Q175 490 175 537 Q175 573 189.5 605 Q204 637 231 661 Q258 685 296.5 698.5 Q335 712 382 712 Q450 712 494.5 680.5 Q539 649 547 596 L510 586 Z " />
<glyph glyph-name="T" unicode="T" horiz-adv-x="537" d="M392 667 L274 0 L237 0 L355 667 L168 667 L174 700 L586 700 L580 667 L392 667 Z " />
<glyph glyph-name="U" unicode="U" horiz-adv-x="638" d="M305 -12 Q266 -12 232 -1 Q198 10 173.5 33 Q149 56 135 92.5 Q121 129 121 179 Q121 198 123 218.5 Q125 239 129 262 L206 700 L244 700 L168 269 Q163 245 161.5 224 Q160 203 160 185 Q160 134 173.5 102.5 Q187 71 208.5 53.5 Q230 36 255.5 29.5 Q281 23 305 23 Q340 23 374.5 32.5 Q409 42 439 67.5 Q469 93 492 137.5 Q515 182 527 251 L605 700 L642 700 L564 249 Q552 179 529 129.5 Q506 80 473 48.5 Q440 17 397.5 2.5 Q355 -12 305 -12 Z " />
<glyph glyph-name="V" unicode="V" horiz-adv-x="612" d="M301 0 L274 0 L161 700 L200 700 L299 76 L614 700 L655 700 L301 0 Z " />
<glyph glyph-name="W" unicode="W" horiz-adv-x="812" d="M853 700 L567 0 L536 0 L491 608 L239 0 L207 0 L161 700 L201 700 L239 90 L491 700 L521 700 L566 90 L814 700 L853 700 Z " />
<glyph glyph-name="X" unicode="X" horiz-adv-x="526" d="M328 363 L458 0 L419 0 L302 326 L71 0 L28 0 L288 367 L169 700 L208 700 L314 403 L524 700 L567 700 L328 363 Z " />
<glyph glyph-name="Y" unicode="Y" horiz-adv-x="580" d="M255 0 L304 277 L154 700 L191 700 L326 315 L594 700 L635 700 L340 277 L291 0 L255 0 Z " />
<glyph glyph-name="Z" unicode="Z" horiz-adv-x="575" d="M44 0 L48 19 L565 667 L185 667 L190 700 L619 700 L615 679 L99 33 L500 33 L496 0 L44 0 Z " />
<glyph glyph-name="bracketleft" unicode="&#x5b;" horiz-adv-x="355" d="M87 -130 L234 712 L409 712 L404 678 L266 678 L130 -96 L268 -96 L262 -130 L87 -130 Z " />
<glyph glyph-name="backslash" unicode="&#x5c;" horiz-adv-x="462" d="M363 -130 L117 712 L156 712 L402 -130 L363 -130 Z " />
<glyph glyph-name="bracketright" unicode="&#x5d;" horiz-adv-x="355" d="M202 -130 L27 -130 L33 -96 L171 -96 L307 678 L169 678 L174 712 L349 712 L202 -130 Z " />
<glyph glyph-name="asciicircum" unicode="&#x5e;" horiz-adv-x="636" d="M543 362 L368 663 L193 362 L155 362 L349 712 L387 712 L581 362 L543 362 Z " />
<glyph glyph-name="underscore" unicode="&#x5f;" horiz-adv-x="506" d="M-24 -155 L-18 -122 L491 -122 L485 -155 L-24 -155 Z " />
<glyph glyph-name="grave" unicode="&#x60;" horiz-adv-x="311" d="M271 576 L129 732 L184 732 L308 576 L271 576 Z " />
<glyph glyph-name="a" unicode="a" horiz-adv-x="497" d="M371 0 L384 75 Q352 40 309.5 14 Q267 -12 211 -12 Q150 -12 113.5 24.5 Q77 61 77 130 Q77 173 93 207.5 Q109 242 136.5 266.5 Q164 291 200.5 304 Q237 317 277 317 Q323 317 356.5 302.5 Q390 288 417 265 L429 330 Q433 353 434.5 367 Q436 381 436 394 Q436 423 428.5 441.5 Q421 460 408 471 Q395 482 377 486 Q359 490 339 490 Q295 490 252.5 473.5 Q210 457 178 439 L171 471 Q202 488 245.5 505.5 Q289 523 340 523 Q367 523 391 517 Q415 511 433 496 Q451 481 461.5 456.5 Q472 432 472 395 Q472 386 471 374 Q470 362 466 338 L407 0 L371 0 Z M213 21 Q243 21 268.5 30 Q294 39 316.5 53.5 Q339 68 357.5 86 Q376 104 392 122 L412 233 Q386 253 352 268 Q318 283 275 283 Q244 283 215.5 272.5 Q187 262 165.5 242 Q144 222 131 193.5 Q118 165 118 130 Q118 80 143 50.5 Q168 21 213 21 Z " />
<glyph glyph-name="b" unicode="b" horiz-adv-x="534" d="M277 -12 Q227 -12 192.5 9 Q158 30 134 75 L121 0 L84 0 L207 703 L247 722 L197 436 Q227 476 269 499.5 Q311 523 358 523 Q430 523 470.5 468 Q511 413 511 319 Q511 243 494 181.5 Q477 120 446 77 Q415 34 372 11 Q329 -12 277 -12 Z M277 24 Q323 24 359 47 Q395 70 420 109.5 Q445 149 458.5 203 Q472 257 472 319 Q472 400 441.5 443.5 Q411 487 353 487 Q324 487 298.5 477 Q273 467 252 451.5 Q231 436 215 417.5 Q199 399 188 383 L143 126 Q159 81 192.5 52.5 Q226 24 277 24 Z " />
<glyph glyph-name="c" unicode="c" horiz-adv-x="453" d="M243 -12 Q171 -12 129 39.5 Q87 91 87 189 Q87 259 104 320 Q121 381 151.5 426 Q182 471 224.5 497 Q267 523 318 523 Q349 523 373 513.5 Q397 504 413.5 489 Q430 474 439.5 454.5 Q449 435 451 415 L417 402 Q410 443 384 465 Q358 487 317 487 Q274 487 238.5 464 Q203 441 178 400.5 Q153 360 139.5 306 Q126 252 126 189 Q126 111 155.5 67.5 Q185 24 243 24 Q285 24 319 49 Q353 74 373 119 L407 105 Q381 51 340 19.5 Q299 -12 243 -12 Z " />
<glyph glyph-name="d" unicode="d" horiz-adv-x="534" d="M409 73 Q369 27 329.5 7.5 Q290 -12 253 -12 Q176 -12 135.5 46.5 Q95 105 95 202 Q95 274 113 333.5 Q131 393 163.5 435 Q196 477 241 500 Q286 523 340 523 Q368 523 390.5 514.5 Q413 506 429 493.5 Q445 481 455.5 465 Q466 449 472 434 L520 704 L559 722 L433 0 L396 0 L409 73 Z M253 24 Q298 24 341 51.5 Q384 79 419 130 L463 384 Q457 400 447.5 418 Q438 436 423 451.5 Q408 467 387 477 Q366 487 338 487 Q291 487 253.5 466 Q216 445 189.5 407 Q163 369 148.5 316.5 Q134 264 134 202 Q134 165 141.5 132.5 Q149 100 163.5 76 Q178 52 200.5 38 Q223 24 253 24 Z " />
<glyph glyph-name="e" unicode="e" horiz-adv-x="501" d="M129 245 Q126 218 126 191 Q126 154 132.5 123 Q139 92 154.5 70 Q170 48 195 36 Q220 24 257 24 Q286 24 317 35 Q348 46 379 69 L398 41 Q367 18 330.5 3 Q294 -12 248 -12 Q169 -12 128 40.5 Q87 93 87 191 Q87 267 106.5 328 Q126 389 159.5 432.5 Q193 476 238.5 499.5 Q284 523 335 523 Q367 523 395 513.5 Q423 504 443.5 483 Q464 462 476 429 Q488 396 488 350 Q488 311 476 256 L474 245 L129 245 Z M336 490 Q291 490 257 472 Q223 454 198 424.5 Q173 395 157.5 357 Q142 319 134 278 L443 278 Q446 298 448 315.5 Q450 333 450 350 Q450 392 439.5 419 Q429 446 412.5 461.5 Q396 477 375.5 483.5 Q355 490 336 490 Z " />
<glyph glyph-name="f" unicode="f" horiz-adv-x="297" d="M222 478 L138 0 L101 0 L185 478 L105 478 L111 511 L191 511 L207 603 Q217 657 243.5 684.5 Q270 712 318 712 Q336 712 351.5 707.5 Q367 703 378 696 L372 664 Q360 670 347 674.5 Q334 679 316 679 Q282 679 266 660 Q250 641 243 599 L228 511 L346 511 L340 478 L222 478 Z " />
<glyph glyph-name="g" unicode="g" horiz-adv-x="536" d="M160 -181 Q216 -178 256.5 -166.5 Q297 -155 324.5 -134.5 Q352 -114 368 -85 Q384 -56 391 -18 L409 84 Q377 34 334 11 Q291 -12 243 -12 Q177 -12 133 40 Q89 92 89 195 Q89 270 108 330.5 Q127 391 160 434 Q193 477 238 500 Q283 523 336 523 Q364 523 386 515.5 Q408 508 425 495.5 Q442 483 453.5 467.5 Q465 452 471 437 L484 511 L520 511 L427 -23 Q417 -78 392 -113.5 Q367 -149 332 -170 Q297 -191 256 -200.5 Q215 -210 174 -213 L160 -181 Z M250 24 Q278 24 302.5 33 Q327 42 348 57 Q369 72 386.5 92 Q404 112 418 135 L462 389 Q445 437 410.5 462 Q376 487 333 487 Q285 487 247 466 Q209 445 182.5 407 Q156 369 142 316.5 Q128 264 128 201 Q128 116 162 70 Q196 24 250 24 Z " />
<glyph glyph-name="h" unicode="h" horiz-adv-x="532" d="M355 523 Q418 523 453 488 Q488 453 488 383 Q488 349 482 312 L427 0 L391 0 L446 316 Q449 335 450 350.5 Q451 366 451 383 Q451 440 423 464.5 Q395 489 350 489 Q319 489 290.5 479 Q262 469 239 446.5 Q216 424 198.5 386.5 Q181 349 172 295 L121 0 L84 0 L208 704 L247 722 L194 419 Q209 447 228.5 467 Q248 487 270 499.5 Q292 512 313.5 517.5 Q335 523 355 523 Z " />
<glyph glyph-name="i" unicode="i" horiz-adv-x="228" d="M86 0 L176 511 L212 511 L123 0 L86 0 Z M213 623 Q202 623 195.5 630 Q189 637 189 648 Q189 662 198 672.5 Q207 683 223 683 Q235 683 241 675.5 Q247 668 247 657 Q247 643 238 633 Q229 623 213 623 Z " />
<glyph glyph-name="j" unicode="j" horiz-adv-x="234" d="M116 -40 Q107 -90 90 -122.5 Q73 -155 50.5 -174 Q28 -193 1.5 -201.5 Q-25 -210 -54 -213 L-67 -182 Q-35 -179 -10.5 -170 Q14 -161 31.5 -144.5 Q49 -128 61 -102.5 Q73 -77 79 -40 L176 511 L212 511 L116 -40 Z M213 623 Q202 623 195.5 630 Q189 637 189 648 Q189 662 198 672.5 Q207 683 223 683 Q235 683 241 675.5 Q247 668 247 657 Q247 643 238 633 Q229 623 213 623 Z " />
<glyph glyph-name="k" unicode="k" horiz-adv-x="479" d="M316 371 L437 0 L399 0 L287 344 L161 226 L121 0 L84 0 L208 704 L247 722 L169 276 L420 511 L465 511 L316 371 Z " />
<glyph glyph-name="l" unicode="l" horiz-adv-x="222" d="M84 0 L208 704 L247 722 L121 0 L84 0 Z " />
<glyph glyph-name="m" unicode="m" horiz-adv-x="815" d="M638 523 Q700 523 732.5 485 Q765 447 765 377 Q765 367 764 350 Q763 333 760 317 L704 0 L668 0 L723 318 Q725 332 726.5 349.5 Q728 367 728 378 Q728 400 723.5 420 Q719 440 708 455.5 Q697 471 678.5 480 Q660 489 631 489 Q597 489 570 475.5 Q543 462 522.5 439 Q502 416 488.5 386 Q475 356 469 323 L412 0 L376 0 L431 318 Q433 332 434.5 349 Q436 366 436 378 Q436 399 432.5 418.5 Q429 438 419 454 Q409 470 391 479.5 Q373 489 345 489 Q276 489 232 439 Q188 389 174 308 L121 0 L84 0 L174 511 L209 511 L193 419 Q206 444 224.5 463.5 Q243 483 264 496.5 Q285 510 307.5 516.5 Q330 523 351 523 Q400 523 431 493.5 Q462 464 464 398 Q492 461 539.5 492 Q587 523 638 523 Z " />
<glyph glyph-name="n" unicode="n" horiz-adv-x="532" d="M193 419 Q208 447 227.5 467 Q247 487 268.5 499.5 Q290 512 312 517.5 Q334 523 353 523 Q419 523 453.5 487 Q488 451 488 382 Q488 346 481 305 L427 0 L391 0 L444 305 Q449 331 450 348 Q451 365 451 382 Q451 439 423.5 464 Q396 489 348 489 Q319 489 291 479 Q263 469 239.5 446.5 Q216 424 198.5 387.5 Q181 351 172 297 L121 0 L84 0 L174 511 L209 511 L193 419 Z " />
<glyph glyph-name="o" unicode="o" horiz-adv-x="520" d="M259 24 Q306 24 343.5 45.5 Q381 67 407 105.5 Q433 144 447 197.5 Q461 251 461 315 Q461 397 428 442 Q395 487 334 487 Q285 487 247 465 Q209 443 183.5 403.5 Q158 364 144.5 310 Q131 256 131 192 Q131 113 163 68.5 Q195 24 259 24 Z M337 523 Q414 523 457 470.5 Q500 418 500 321 Q500 246 483 184.5 Q466 123 434.5 79.5 Q403 36 357 12 Q311 -12 253 -12 Q178 -12 135 39 Q92 90 92 193 Q92 269 109.5 330.5 Q127 392 159.5 434.5 Q192 477 237 500 Q282 523 337 523 Z " />
<glyph glyph-name="p" unicode="p" horiz-adv-x="538" d="M270 -12 Q224 -12 187.5 14 Q151 40 136 85 L89 -185 L48 -203 L174 511 L211 511 L197 436 Q230 479 269 501 Q308 523 358 523 Q394 523 423 508.5 Q452 494 472.5 467 Q493 440 503.5 402.5 Q514 365 514 319 Q514 242 496 180.5 Q478 119 445.5 76 Q413 33 368.5 10.5 Q324 -12 270 -12 Z M270 24 Q318 24 356 45.5 Q394 67 420.5 105 Q447 143 461 196.5 Q475 250 475 315 Q475 393 443.5 440 Q412 487 350 487 Q305 487 262 460.5 Q219 434 189 389 L144 132 Q159 81 191.5 52.5 Q224 24 270 24 Z " />
<glyph glyph-name="q" unicode="q" horiz-adv-x="538" d="M250 -12 Q178 -12 136 38.5 Q94 89 94 192 Q94 267 112 328 Q130 389 161.5 432.5 Q193 476 236 499.5 Q279 523 329 523 Q383 523 418 500 Q453 477 471 437 L484 511 L521 511 L400 -181 L360 -200 L409 82 Q380 37 337.5 12.5 Q295 -12 250 -12 Z M253 24 Q301 24 343.5 53.5 Q386 83 418 134 L463 389 Q448 434 414 460.5 Q380 487 329 487 Q287 487 251 466 Q215 445 188.5 406.5 Q162 368 147.5 313.5 Q133 259 133 192 Q133 105 163 64.5 Q193 24 253 24 Z " />
<glyph glyph-name="r" unicode="r" horiz-adv-x="360" d="M84 0 L174 511 L209 511 L190 402 Q225 465 269 494 Q313 523 352 523 Q381 523 397 516 Q413 509 421 502 L408 471 Q400 476 385 481.5 Q370 487 346 487 Q322 487 295 475 Q268 463 243.5 438 Q219 413 199 374.5 Q179 336 170 283 L121 0 L84 0 Z " />
<glyph glyph-name="s" unicode="s" horiz-adv-x="437" d="M392 438 Q375 458 348.5 473.5 Q322 489 282 489 Q225 489 191 459 Q157 429 157 386 Q157 356 174 336.5 Q191 317 216.5 302.5 Q242 288 272 275.5 Q302 263 327.5 245.5 Q353 228 370 202.5 Q387 177 387 138 Q387 70 344.5 29 Q302 -12 222 -12 Q170 -12 131 10.5 Q92 33 69 65 L98 88 Q118 60 149.5 41 Q181 22 224 22 Q281 22 315.5 51 Q350 80 350 135 Q350 169 333 190 Q316 211 290.5 225.5 Q265 240 235.5 252.5 Q206 265 180.5 281.5 Q155 298 138 322.5 Q121 347 121 386 Q121 413 132.5 438 Q144 463 166 482 Q188 501 218 512 Q248 523 286 523 Q331 523 365.5 504.5 Q400 486 420 460 L392 438 Z " />
<glyph glyph-name="t" unicode="t" horiz-adv-x="341" d="M206 -12 Q164 -12 145 9.5 Q126 31 126 66 Q126 86 132 119 L195 478 L111 478 L117 511 L201 511 L235 704 L274 722 L237 511 L364 511 L358 478 L231 478 L168 115 Q166 103 164.5 92 Q163 81 163 70 Q163 50 173.5 36.5 Q184 23 212 23 Q234 23 254.5 31 Q275 39 289 47 L278 9 Q261 -1 242.5 -6.5 Q224 -12 206 -12 Z " />
<glyph glyph-name="u" unicode="u" horiz-adv-x="532" d="M387 0 L402 88 Q385 59 365.5 40 Q346 21 325 9.5 Q304 -2 283.5 -7 Q263 -12 244 -12 Q177 -12 142 24 Q107 60 107 129 Q107 144 109 162 Q111 180 114 199 L169 511 L205 511 L150 191 Q147 174 145.5 158 Q144 142 144 129 Q144 71 171.5 46 Q199 21 250 21 Q278 21 305 31 Q332 41 355.5 64 Q379 87 397 123.5 Q415 160 424 214 L475 511 L512 511 L422 0 L387 0 Z " />
<glyph glyph-name="v" unicode="v" horiz-adv-x="476" d="M240 0 L213 0 L123 511 L159 511 L237 66 L469 511 L507 511 L240 0 Z " />
<glyph glyph-name="w" unicode="w" horiz-adv-x="678" d="M488 0 L461 0 L400 441 L189 0 L162 0 L123 511 L159 511 L188 68 L399 511 L425 511 L483 70 L666 511 L703 511 L488 0 Z " />
<glyph glyph-name="x" unicode="x" horiz-adv-x="468" d="M33 0 L248 268 L138 511 L176 511 L272 298 L443 511 L485 511 L287 264 L407 0 L369 0 L263 234 L75 0 L33 0 Z " />
<glyph glyph-name="y" unicode="y" horiz-adv-x="485" d="M209 14 L119 511 L154 511 L234 59 L475 511 L514 511 L136 -194 L98 -194 L209 14 Z " />
<glyph glyph-name="z" unicode="z" horiz-adv-x="475" d="M49 0 L53 22 L427 478 L153 478 L159 511 L484 511 L480 490 L105 33 L399 33 L394 0 L49 0 Z " />
<glyph glyph-name="braceleft" unicode="&#x7b;" horiz-adv-x="354" d="M269 -130 Q204 -126 175 -90.5 Q146 -55 146 11 Q146 31 148.5 53.5 Q151 76 156 101 L163 141 Q166 157 168 169 Q170 181 170 191 Q170 231 149 252 Q128 273 92 273 L88 273 L95 310 L99 310 Q141 310 171.5 338 Q202 366 212 421 L227 508 Q235 554 249.5 591.5 Q264 629 287.5 656 Q311 683 343 697.5 Q375 712 417 712 L411 680 Q352 678 316 638 Q280 598 268 526 L254 444 Q246 400 233.5 371.5 Q221 343 203.5 326.5 Q186 310 164 302.5 Q142 295 116 293 L115 289 Q156 284 179 261.5 Q202 239 202 185 Q202 157 196 120 L185 57 Q183 43 181.5 30 Q180 17 180 5 Q180 -95 275 -98 L269 -130 Z " />
<glyph glyph-name="bar" unicode="&#x7c;" horiz-adv-x="246" d="M48 -205 L225 805 L262 805 L85 -205 L48 -205 Z " />
<glyph glyph-name="braceright" unicode="&#x7d;" horiz-adv-x="354" d="M345 272 Q303 272 272.5 244 Q242 216 232 161 L217 74 Q209 28 194.5 -9.5 Q180 -47 156.5 -74 Q133 -101 101 -115.5 Q69 -130 27 -130 L33 -98 Q92 -96 128.5 -56 Q165 -16 177 56 L191 138 Q198 182 210.5 210.5 Q223 239 240.5 255.5 Q258 272 280 279.5 Q302 287 328 289 L329 293 Q288 298 265.5 320.5 Q243 343 243 397 Q243 424 249 462 L260 525 Q262 539 263.5 552 Q265 565 265 577 Q265 677 169 680 L175 712 Q240 708 269 672.5 Q298 637 298 571 Q298 551 295.5 528.5 Q293 506 288 481 L281 441 Q278 425 276 413 Q274 401 274 391 Q274 351 295 330 Q316 309 352 309 L356 309 L349 272 L345 272 Z " />
<glyph glyph-name="asciitilde" unicode="&#x7e;" horiz-adv-x="636" d="M483 277 Q448 277 418.5 291.5 Q389 306 362 324 Q335 342 308 356.5 Q281 371 251 371 Q215 371 194.5 346.5 Q174 322 172 277 L135 277 Q135 301 142 324.5 Q149 348 163.5 366.5 Q178 385 200 396 Q222 407 253 407 Q288 407 317.5 392.5 Q347 378 374 360 Q401 342 428 327.5 Q455 313 485 313 Q521 313 541.5 338 Q562 363 564 407 L601 407 Q601 383 594 359.5 Q587 336 573 317.5 Q559 299 536.5 288 Q514 277 483 277 Z " />
<glyph glyph-name="Adieresis" unicode="&#xc4;" horiz-adv-x="638" d="M515 0 L482 197 L198 197 L98 0 L58 0 L413 700 L439 700 L552 0 L515 0 Z M478 227 L432 528 Q431 534 428.5 548 Q426 562 423.5 578.5 Q421 595 418.5 612 Q416 629 415 640 Q410 628 402.5 611 Q395 594 387 577 Q379 560 372.5 546.5 Q366 533 364 528 L212 227 L478 227 Z M358 794 Q347 794 340.5 801.5 Q334 809 334 820 Q335 834 345.5 844 Q356 854 370 854 Q381 854 387.5 846 Q394 838 394 827 Q393 813 382.5 803.5 Q372 794 358 794 Z M524 794 Q513 794 506.5 801.5 Q500 809 500 820 Q501 834 511.5 844 Q522 854 536 854 Q547 854 553.5 846 Q560 838 560 827 Q559 813 548.5 803.5 Q538 794 524 794 Z " />
<glyph glyph-name="Aring" unicode="&#xc5;" horiz-adv-x="638" d="M515 0 L482 197 L198 197 L98 0 L58 0 L382 639 Q350 649 331 674.5 Q312 700 312 734 Q312 761 322 784 Q332 807 349 823.5 Q366 840 390 849.5 Q414 859 441 859 Q488 859 516.5 829 Q545 799 545 759 Q545 713 518 680.5 Q491 648 449 638 L552 0 L515 0 Z M416 665 Q456 665 483.5 691 Q511 717 511 759 Q511 789 491 808.5 Q471 828 441 828 Q422 828 404.5 821 Q387 814 374 802 Q361 790 353.5 772.5 Q346 755 346 734 Q346 702 366.5 683.5 Q387 665 416 665 Z M478 227 L432 528 Q431 534 428.5 548 Q426 562 423.5 578.5 Q421 595 418.5 612 Q416 629 415 640 Q410 628 402.5 611 Q395 594 387 577 Q379 560 372.5 546.5 Q366 533 364 528 L212 227 L478 227 Z " />
<glyph glyph-name="Ccedilla" unicode="&#xc7;" horiz-adv-x="620" d="M291 -234 Q268 -234 251.5 -226.5 Q235 -219 225 -206 L253 -188 Q259 -194 269 -199.5 Q279 -205 295 -205 Q330 -205 350 -184.5 Q370 -164 370 -135 Q370 -112 355.5 -98 Q341 -84 315 -84 Q293 -84 276 -92 L268 -80 L328 -12 Q270 -12 229.5 11 Q189 34 163.5 73 Q138 112 126.5 162 Q115 212 115 266 Q115 348 137.5 428 Q160 508 202.5 571 Q245 634 307.5 673 Q370 712 450 712 Q491 712 520.5 702.5 Q550 693 570.5 677 Q591 661 605 640.5 Q619 620 629 599 L595 581 Q585 602 573 619 Q561 636 544 649 Q527 662 504 669 Q481 676 449 676 Q378 676 323.5 640 Q269 604 231.5 546 Q194 488 174.5 415 Q155 342 155 267 Q155 219 164.5 175 Q174 131 195 97.5 Q216 64 249.5 44 Q283 24 331 24 Q365 24 394 33.5 Q423 43 446.5 58 Q470 73 488 92 Q506 111 519 131 L553 116 Q539 94 520.5 73 Q502 52 478 34.5 Q454 17 424 5.5 Q394 -6 357 -10 L321 -59 Q366 -59 385.5 -81.5 Q405 -104 405 -131 Q405 -152 396.5 -170.5 Q388 -189 373 -203 Q358 -217 337 -225.5 Q316 -234 291 -234 Z " />
<glyph glyph-name="Eacute" unicode="&#xc9;" horiz-adv-x="562" d="M87 0 L210 700 L567 700 L562 667 L242 667 L191 379 L404 379 L398 346 L185 346 L130 33 L472 33 L466 0 L87 0 Z M358 766 L321 766 L499 922 L554 922 L358 766 Z " />
<glyph glyph-name="Ntilde" unicode="&#xd1;" horiz-adv-x="661" d="M504 0 L234 631 L123 0 L86 0 L209 700 L244 700 L514 69 L625 700 L662 700 L539 0 L504 0 Z M535 792 Q509 792 489.5 804.5 Q470 817 452.5 832.5 Q435 848 417.5 860.5 Q400 873 379 873 Q331 873 314 796 L286 796 Q294 844 319.5 875 Q345 906 387 906 Q413 906 432.5 893.5 Q452 881 469.5 865.5 Q487 850 504.5 837.5 Q522 825 543 825 Q591 825 608 902 L636 902 Q628 854 602.5 823 Q577 792 535 792 Z " />
<glyph glyph-name="Odieresis" unicode="&#xd6;" horiz-adv-x="696" d="M338 24 Q390 24 431.5 42.5 Q473 61 505.5 92 Q538 123 561 164.5 Q584 206 599 251.5 Q614 297 621 344.5 Q628 392 628 436 Q628 483 618.5 526.5 Q609 570 587.5 603 Q566 636 531.5 656 Q497 676 447 676 Q369 676 313.5 636.5 Q258 597 222.5 536.5 Q187 476 170.5 404 Q154 332 154 266 Q154 218 163.5 174 Q173 130 195 96.5 Q217 63 252 43.5 Q287 24 338 24 Z M333 -12 Q274 -12 232.5 12 Q191 36 165 76 Q139 116 127 166.5 Q115 217 115 270 Q115 318 123.5 369 Q132 420 150 469.5 Q168 519 195 563 Q222 607 259.5 640 Q297 673 345 692.5 Q393 712 452 712 Q512 712 552.5 689 Q593 666 618.5 627.5 Q644 589 655 539 Q666 489 666 435 Q666 387 657.5 335 Q649 283 632 233 Q615 183 588 138.5 Q561 94 524 60.5 Q487 27 439.5 7.5 Q392 -12 333 -12 Z M383 794 Q372 794 365.5 801.5 Q359 809 359 820 Q360 834 370.5 844 Q381 854 395 854 Q406 854 412.5 846 Q419 838 419 827 Q418 813 407.5 803.5 Q397 794 383 794 Z M549 794 Q538 794 531.5 801.5 Q525 809 525 820 Q526 834 536.5 844 Q547 854 561 854 Q572 854 578.5 846 Q585 838 585 827 Q584 813 573.5 803.5 Q563 794 549 794 Z " />
<glyph glyph-name="Udieresis" unicode="&#xdc;" horiz-adv-x="638" d="M305 -12 Q266 -12 232 -1 Q198 10 173.5 33 Q149 56 135 92.5 Q121 129 121 179 Q121 198 123 218.5 Q125 239 129 262 L206 700 L244 700 L168 269 Q163 245 161.5 224 Q160 203 160 185 Q160 134 173.5 102.5 Q187 71 208.5 53.5 Q230 36 255.5 29.5 Q281 23 305 23 Q340 23 374.5 32.5 Q409 42 439 67.5 Q469 93 492 137.5 Q515 182 527 251 L605 700 L642 700 L564 249 Q552 179 529 129.5 Q506 80 473 48.5 Q440 17 397.5 2.5 Q355 -12 305 -12 Z M355 794 Q344 794 337.5 801.5 Q331 809 331 820 Q332 834 342.5 844 Q353 854 367 854 Q378 854 384.5 846 Q391 838 391 827 Q390 813 379.5 803.5 Q369 794 355 794 Z M521 794 Q510 794 503.5 801.5 Q497 809 497 820 Q498 834 508.5 844 Q519 854 533 854 Q544 854 550.5 846 Q557 838 557 827 Q556 813 545.5 803.5 Q535 794 521 794 Z " />
<glyph glyph-name="aacute" unicode="&#xe1;" horiz-adv-x="497" d="M371 0 L384 75 Q352 40 309.5 14 Q267 -12 211 -12 Q150 -12 113.5 24.5 Q77 61 77 130 Q77 173 93 207.5 Q109 242 136.5 266.5 Q164 291 200.5 304 Q237 317 277 317 Q323 317 356.5 302.5 Q390 288 417 265 L429 330 Q433 353 434.5 367 Q436 381 436 394 Q436 423 428.5 441.5 Q421 460 408 471 Q395 482 377 486 Q359 490 339 490 Q295 490 252.5 473.5 Q210 457 178 439 L171 471 Q202 488 245.5 505.5 Q289 523 340 523 Q367 523 391 517 Q415 511 433 496 Q451 481 461.5 456.5 Q472 432 472 395 Q472 386 471 374 Q470 362 466 338 L407 0 L371 0 Z M213 21 Q243 21 268.5 30 Q294 39 316.5 53.5 Q339 68 357.5 86 Q376 104 392 122 L412 233 Q386 253 352 268 Q318 283 275 283 Q244 283 215.5 272.5 Q187 262 165.5 242 Q144 222 131 193.5 Q118 165 118 130 Q118 80 143 50.5 Q168 21 213 21 Z M317 576 L280 576 L458 732 L513 732 L317 576 Z " />
<glyph glyph-name="agrave" unicode="&#xe0;" horiz-adv-x="497" d="M371 0 L384 75 Q352 40 309.5 14 Q267 -12 211 -12 Q150 -12 113.5 24.5 Q77 61 77 130 Q77 173 93 207.5 Q109 242 136.5 266.5 Q164 291 200.5 304 Q237 317 277 317 Q323 317 356.5 302.5 Q390 288 417 265 L429 330 Q433 353 434.5 367 Q436 381 436 394 Q436 423 428.5 441.5 Q421 460 408 471 Q395 482 377 486 Q359 490 339 490 Q295 490 252.5 473.5 Q210 457 178 439 L171 471 Q202 488 245.5 505.5 Q289 523 340 523 Q367 523 391 517 Q415 511 433 496 Q451 481 461.5 456.5 Q472 432 472 395 Q472 386 471 374 Q470 362 466 338 L407 0 L371 0 Z M213 21 Q243 21 268.5 30 Q294 39 316.5 53.5 Q339 68 357.5 86 Q376 104 392 122 L412 233 Q386 253 352 268 Q318 283 275 283 Q244 283 215.5 272.5 Q187 262 165.5 242 Q144 222 131 193.5 Q118 165 118 130 Q118 80 143 50.5 Q168 21 213 21 Z M384 576 L242 732 L297 732 L421 576 L384 576 Z " />
<glyph glyph-name="acircumflex" unicode="&#xe2;" horiz-adv-x="497" d="M371 0 L384 75 Q352 40 309.5 14 Q267 -12 211 -12 Q150 -12 113.5 24.5 Q77 61 77 130 Q77 173 93 207.5 Q109 242 136.5 266.5 Q164 291 200.5 304 Q237 317 277 317 Q323 317 356.5 302.5 Q390 288 417 265 L429 330 Q433 353 434.5 367 Q436 381 436 394 Q436 423 428.5 441.5 Q421 460 408 471 Q395 482 377 486 Q359 490 339 490 Q295 490 252.5 473.5 Q210 457 178 439 L171 471 Q202 488 245.5 505.5 Q289 523 340 523 Q367 523 391 517 Q415 511 433 496 Q451 481 461.5 456.5 Q472 432 472 395 Q472 386 471 374 Q470 362 466 338 L407 0 L371 0 Z M213 21 Q243 21 268.5 30 Q294 39 316.5 53.5 Q339 68 357.5 86 Q376 104 392 122 L412 233 Q386 253 352 268 Q318 283 275 283 Q244 283 215.5 272.5 Q187 262 165.5 242 Q144 222 131 193.5 Q118 165 118 130 Q118 80 143 50.5 Q168 21 213 21 Z M179 576 L358 732 L390 732 L513 576 L478 576 L369 696 L218 576 L179 576 Z " />
<glyph glyph-name="adieresis" unicode="&#xe4;" horiz-adv-x="497" d="M371 0 L384 75 Q352 40 309.5 14 Q267 -12 211 -12 Q150 -12 113.5 24.5 Q77 61 77 130 Q77 173 93 207.5 Q109 242 136.5 266.5 Q164 291 200.5 304 Q237 317 277 317 Q323 317 356.5 302.5 Q390 288 417 265 L429 330 Q433 353 434.5 367 Q436 381 436 394 Q436 423 428.5 441.5 Q421 460 408 471 Q395 482 377 486 Q359 490 339 490 Q295 490 252.5 473.5 Q210 457 178 439 L171 471 Q202 488 245.5 505.5 Q289 523 340 523 Q367 523 391 517 Q415 511 433 496 Q451 481 461.5 456.5 Q472 432 472 395 Q472 386 471 374 Q470 362 466 338 L407 0 L371 0 Z M213 21 Q243 21 268.5 30 Q294 39 316.5 53.5 Q339 68 357.5 86 Q376 104 392 122 L412 233 Q386 253 352 268 Q318 283 275 283 Q244 283 215.5 272.5 Q187 262 165.5 242 Q144 222 131 193.5 Q118 165 118 130 Q118 80 143 50.5 Q168 21 213 21 Z M272 623 Q261 623 254.5 630.5 Q248 638 248 649 Q249 663 259.5 673 Q270 683 284 683 Q295 683 301.5 675 Q308 667 308 656 Q307 642 296.5 632.5 Q286 623 272 623 Z M438 623 Q427 623 420.5 630.5 Q414 638 414 649 Q415 663 425.5 673 Q436 683 450 683 Q461 683 467.5 675 Q474 667 474 656 Q473 642 462.5 632.5 Q452 623 438 623 Z " />
<glyph glyph-name="atilde" unicode="&#xe3;" horiz-adv-x="497" d="M371 0 L384 75 Q352 40 309.5 14 Q267 -12 211 -12 Q150 -12 113.5 24.5 Q77 61 77 130 Q77 173 93 207.5 Q109 242 136.5 266.5 Q164 291 200.5 304 Q237 317 277 317 Q323 317 356.5 302.5 Q390 288 417 265 L429 330 Q433 353 434.5 367 Q436 381 436 394 Q436 423 428.5 441.5 Q421 460 408 471 Q395 482 377 486 Q359 490 339 490 Q295 490 252.5 473.5 Q210 457 178 439 L171 471 Q202 488 245.5 505.5 Q289 523 340 523 Q367 523 391 517 Q415 511 433 496 Q451 481 461.5 456.5 Q472 432 472 395 Q472 386 471 374 Q470 362 466 338 L407 0 L371 0 Z M213 21 Q243 21 268.5 30 Q294 39 316.5 53.5 Q339 68 357.5 86 Q376 104 392 122 L412 233 Q386 253 352 268 Q318 283 275 283 Q244 283 215.5 272.5 Q187 262 165.5 242 Q144 222 131 193.5 Q118 165 118 130 Q118 80 143 50.5 Q168 21 213 21 Z M436 602 Q410 602 390.5 614.5 Q371 627 353.5 642.5 Q336 658 318.5 670.5 Q301 683 280 683 Q232 683 215 606 L187 606 Q195 654 220.5 685 Q246 716 288 716 Q314 716 333.5 703.5 Q353 691 370.5 675.5 Q388 660 405.5 647.5 Q423 635 444 635 Q492 635 509 712 L537 712 Q529 664 503.5 633 Q478 602 436 602 Z " />
<glyph glyph-name="aring" unicode="&#xe5;" horiz-adv-x="497" d="M371 0 L384 75 Q352 40 309.5 14 Q267 -12 211 -12 Q150 -12 113.5 24.5 Q77 61 77 130 Q77 173 93 207.5 Q109 242 136.5 266.5 Q164 291 200.5 304 Q237 317 277 317 Q323 317 356.5 302.5 Q390 288 417 265 L429 330 Q433 353 434.5 367 Q436 381 436 394 Q436 423 428.5 441.5 Q421 460 408 471 Q395 482 377 486 Q359 490 339 490 Q295 490 252.5 473.5 Q210 457 178 439 L171 471 Q202 488 245.5 505.5 Q289 523 340 523 Q367 523 391 517 Q415 511 433 496 Q451 481 461.5 456.5 Q472 432 472 395 Q472 386 471 374 Q470 362 466 338 L407 0 L371 0 Z M213 21 Q243 21 268.5 30 Q294 39 316.5 53.5 Q339 68 357.5 86 Q376 104 392 122 L412 233 Q386 253 352 268 Q318 283 275 283 Q244 283 215.5 272.5 Q187 262 165.5 242 Q144 222 131 193.5 Q118 165 118 130 Q118 80 143 50.5 Q168 21 213 21 Z M355 575 Q333 575 314 582.5 Q295 590 281 603.5 Q267 617 259 635.5 Q251 654 251 675 Q251 702 261 725 Q271 748 288 764.5 Q305 781 329 790.5 Q353 800 380 800 Q427 800 455.5 770 Q484 740 484 700 Q484 673 474 650 Q464 627 447 610.5 Q430 594 406 584.5 Q382 575 355 575 Z M355 606 Q395 606 422.5 632 Q450 658 450 700 Q450 730 430 749.5 Q410 769 380 769 Q361 769 343.5 762 Q326 755 313 743 Q300 731 292.5 713.5 Q285 696 285 675 Q285 643 305.5 624.5 Q326 606 355 606 Z " />
<glyph glyph-name="ccedilla" unicode="&#xe7;" horiz-adv-x="453" d="M196 -234 Q173 -234 156.5 -226.5 Q140 -219 130 -206 L158 -188 Q164 -194 174 -199.5 Q184 -205 200 -205 Q235 -205 255 -184.5 Q275 -164 275 -135 Q275 -112 260.5 -98 Q246 -84 220 -84 Q198 -84 181 -92 L173 -80 L233 -12 Q165 -8 126 43 Q87 94 87 189 Q87 259 104 320 Q121 381 151.5 426 Q182 471 224.5 497 Q267 523 318 523 Q349 523 373 513.5 Q397 504 413.5 489 Q430 474 439.5 454.5 Q449 435 451 415 L417 402 Q410 443 384 465 Q358 487 317 487 Q274 487 238.5 464 Q203 441 178 400.5 Q153 360 139.5 306 Q126 252 126 189 Q126 111 155.5 67.5 Q185 24 243 24 Q285 24 319 49 Q353 74 373 119 L407 105 Q384 55 347 24.5 Q310 -6 261 -11 L226 -59 Q271 -59 290.5 -81.5 Q310 -104 310 -131 Q310 -152 301.5 -170.5 Q293 -189 278 -203 Q263 -217 242 -225.5 Q221 -234 196 -234 Z " />
<glyph glyph-name="eacute" unicode="&#xe9;" horiz-adv-x="501" d="M129 245 Q126 218 126 191 Q126 154 132.5 123 Q139 92 154.5 70 Q170 48 195 36 Q220 24 257 24 Q286 24 317 35 Q348 46 379 69 L398 41 Q367 18 330.5 3 Q294 -12 248 -12 Q169 -12 128 40.5 Q87 93 87 191 Q87 267 106.5 328 Q126 389 159.5 432.5 Q193 476 238.5 499.5 Q284 523 335 523 Q367 523 395 513.5 Q423 504 443.5 483 Q464 462 476 429 Q488 396 488 350 Q488 311 476 256 L474 245 L129 245 Z M336 490 Q291 490 257 472 Q223 454 198 424.5 Q173 395 157.5 357 Q142 319 134 278 L443 278 Q446 298 448 315.5 Q450 333 450 350 Q450 392 439.5 419 Q429 446 412.5 461.5 Q396 477 375.5 483.5 Q355 490 336 490 Z M307 576 L270 576 L448 732 L503 732 L307 576 Z " />
<glyph glyph-name="egrave" unicode="&#xe8;" horiz-adv-x="501" d="M129 245 Q126 218 126 191 Q126 154 132.5 123 Q139 92 154.5 70 Q170 48 195 36 Q220 24 257 24 Q286 24 317 35 Q348 46 379 69 L398 41 Q367 18 330.5 3 Q294 -12 248 -12 Q169 -12 128 40.5 Q87 93 87 191 Q87 267 106.5 328 Q126 389 159.5 432.5 Q193 476 238.5 499.5 Q284 523 335 523 Q367 523 395 513.5 Q423 504 443.5 483 Q464 462 476 429 Q488 396 488 350 Q488 311 476 256 L474 245 L129 245 Z M336 490 Q291 490 257 472 Q223 454 198 424.5 Q173 395 157.5 357 Q142 319 134 278 L443 278 Q446 298 448 315.5 Q450 333 450 350 Q450 392 439.5 419 Q429 446 412.5 461.5 Q396 477 375.5 483.5 Q355 490 336 490 Z M380 576 L238 732 L293 732 L417 576 L380 576 Z " />
<glyph glyph-name="ecircumflex" unicode="&#xea;" horiz-adv-x="501" d="M129 245 Q126 218 126 191 Q126 154 132.5 123 Q139 92 154.5 70 Q170 48 195 36 Q220 24 257 24 Q286 24 317 35 Q348 46 379 69 L398 41 Q367 18 330.5 3 Q294 -12 248 -12 Q169 -12 128 40.5 Q87 93 87 191 Q87 267 106.5 328 Q126 389 159.5 432.5 Q193 476 238.5 499.5 Q284 523 335 523 Q367 523 395 513.5 Q423 504 443.5 483 Q464 462 476 429 Q488 396 488 350 Q488 311 476 256 L474 245 L129 245 Z M336 490 Q291 490 257 472 Q223 454 198 424.5 Q173 395 157.5 357 Q142 319 134 278 L443 278 Q446 298 448 315.5 Q450 333 450 350 Q450 392 439.5 419 Q429 446 412.5 461.5 Q396 477 375.5 483.5 Q355 490 336 490 Z M174 576 L353 732 L385 732 L508 576 L473 576 L364 696 L213 576 L174 576 Z " />
<glyph glyph-name="edieresis" unicode="&#xeb;" horiz-adv-x="501" d="M129 245 Q126 218 126 191 Q126 154 132.5 123 Q139 92 154.5 70 Q170 48 195 36 Q220 24 257 24 Q286 24 317 35 Q348 46 379 69 L398 41 Q367 18 330.5 3 Q294 -12 248 -12 Q169 -12 128 40.5 Q87 93 87 191 Q87 267 106.5 328 Q126 389 159.5 432.5 Q193 476 238.5 499.5 Q284 523 335 523 Q367 523 395 513.5 Q423 504 443.5 483 Q464 462 476 429 Q488 396 488 350 Q488 311 476 256 L474 245 L129 245 Z M336 490 Q291 490 257 472 Q223 454 198 424.5 Q173 395 157.5 357 Q142 319 134 278 L443 278 Q446 298 448 315.5 Q450 333 450 350 Q450 392 439.5 419 Q429 446 412.5 461.5 Q396 477 375.5 483.5 Q355 490 336 490 Z M267 623 Q256 623 249.5 630.5 Q243 638 243 649 Q244 663 254.5 673 Q265 683 279 683 Q290 683 296.5 675 Q303 667 303 656 Q302 642 291.5 632.5 Q281 623 267 623 Z M433 623 Q422 623 415.5 630.5 Q409 638 409 649 Q410 663 420.5 673 Q431 683 445 683 Q456 683 462.5 675 Q469 667 469 656 Q468 642 457.5 632.5 Q447 623 433 623 Z " />
<glyph glyph-name="iacute" unicode="&#xed;" horiz-adv-x="228" d="M86 0 L176 511 L211 511 L122 0 L86 0 Z M186 576 L149 576 L327 732 L382 732 L186 576 Z " />
<glyph glyph-name="igrave" unicode="&#xec;" horiz-adv-x="228" d="M86 0 L176 511 L211 511 L122 0 L86 0 Z M224 576 L82 732 L137 732 L261 576 L224 576 Z " />
<glyph glyph-name="icircumflex" unicode="&#xee;" horiz-adv-x="228" d="M86 0 L176 511 L211 511 L122 0 L86 0 Z M36 576 L215 732 L247 732 L370 576 L335 576 L226 696 L75 576 L36 576 Z " />
<glyph glyph-name="idieresis" unicode="&#xef;" horiz-adv-x="228" d="M86 0 L176 511 L211 511 L122 0 L86 0 Z M129 623 Q118 623 111.5 630.5 Q105 638 105 649 Q106 663 116.5 673 Q127 683 141 683 Q152 683 158.5 675 Q165 667 165 656 Q164 642 153.5 632.5 Q143 623 129 623 Z M295 623 Q284 623 277.5 630.5 Q271 638 271 649 Q272 663 282.5 673 Q293 683 307 683 Q318 683 324.5 675 Q331 667 331 656 Q330 642 319.5 632.5 Q309 623 295 623 Z " />
<glyph glyph-name="ntilde" unicode="&#xf1;" horiz-adv-x="532" d="M193 419 Q208 447 227.5 467 Q247 487 268.5 499.5 Q290 512 312 517.5 Q334 523 353 523 Q419 523 453.5 487 Q488 451 488 382 Q488 346 481 305 L427 0 L391 0 L444 305 Q449 331 450 348 Q451 365 451 382 Q451 439 423.5 464 Q396 489 348 489 Q319 489 291 479 Q263 469 239.5 446.5 Q216 424 198.5 387.5 Q181 351 172 297 L121 0 L84 0 L174 511 L209 511 L193 419 Z M446 602 Q420 602 400.5 614.5 Q381 627 363.5 642.5 Q346 658 328.5 670.5 Q311 683 290 683 Q242 683 225 606 L197 606 Q205 654 230.5 685 Q256 716 298 716 Q324 716 343.5 703.5 Q363 691 380.5 675.5 Q398 660 415.5 647.5 Q433 635 454 635 Q502 635 519 712 L547 712 Q539 664 513.5 633 Q488 602 446 602 Z " />
<glyph glyph-name="oacute" unicode="&#xf3;" horiz-adv-x="520" d="M259 24 Q306 24 343.5 45.5 Q381 67 407 105.5 Q433 144 447 197.5 Q461 251 461 315 Q461 397 428 442 Q395 487 334 487 Q285 487 247 465 Q209 443 183.5 403.5 Q158 364 144.5 310 Q131 256 131 192 Q131 113 163 68.5 Q195 24 259 24 Z M337 523 Q414 523 457 470.5 Q500 418 500 321 Q500 246 483 184.5 Q466 123 434.5 79.5 Q403 36 357 12 Q311 -12 253 -12 Q178 -12 135 39 Q92 90 92 193 Q92 269 109.5 330.5 Q127 392 159.5 434.5 Q192 477 237 500 Q282 523 337 523 Z M324 576 L287 576 L465 732 L520 732 L324 576 Z " />
<glyph glyph-name="ograve" unicode="&#xf2;" horiz-adv-x="520" d="M259 24 Q306 24 343.5 45.5 Q381 67 407 105.5 Q433 144 447 197.5 Q461 251 461 315 Q461 397 428 442 Q395 487 334 487 Q285 487 247 465 Q209 443 183.5 403.5 Q158 364 144.5 310 Q131 256 131 192 Q131 113 163 68.5 Q195 24 259 24 Z M337 523 Q414 523 457 470.5 Q500 418 500 321 Q500 246 483 184.5 Q466 123 434.5 79.5 Q403 36 357 12 Q311 -12 253 -12 Q178 -12 135 39 Q92 90 92 193 Q92 269 109.5 330.5 Q127 392 159.5 434.5 Q192 477 237 500 Q282 523 337 523 Z M371 576 L229 732 L284 732 L408 576 L371 576 Z " />
<glyph glyph-name="ocircumflex" unicode="&#xf4;" horiz-adv-x="520" d="M259 24 Q306 24 343.5 45.5 Q381 67 407 105.5 Q433 144 447 197.5 Q461 251 461 315 Q461 397 428 442 Q395 487 334 487 Q285 487 247 465 Q209 443 183.5 403.5 Q158 364 144.5 310 Q131 256 131 192 Q131 113 163 68.5 Q195 24 259 24 Z M337 523 Q414 523 457 470.5 Q500 418 500 321 Q500 246 483 184.5 Q466 123 434.5 79.5 Q403 36 357 12 Q311 -12 253 -12 Q178 -12 135 39 Q92 90 92 193 Q92 269 109.5 330.5 Q127 392 159.5 434.5 Q192 477 237 500 Q282 523 337 523 Z M182 576 L361 732 L393 732 L516 576 L481 576 L372 696 L221 576 L182 576 Z " />
<glyph glyph-name="odieresis" unicode="&#xf6;" horiz-adv-x="520" d="M259 24 Q306 24 343.5 45.5 Q381 67 407 105.5 Q433 144 447 197.5 Q461 251 461 315 Q461 397 428 442 Q395 487 334 487 Q285 487 247 465 Q209 443 183.5 403.5 Q158 364 144.5 310 Q131 256 131 192 Q131 113 163 68.5 Q195 24 259 24 Z M337 523 Q414 523 457 470.5 Q500 418 500 321 Q500 246 483 184.5 Q466 123 434.5 79.5 Q403 36 357 12 Q311 -12 253 -12 Q178 -12 135 39 Q92 90 92 193 Q92 269 109.5 330.5 Q127 392 159.5 434.5 Q192 477 237 500 Q282 523 337 523 Z M275 623 Q264 623 257.5 630.5 Q251 638 251 649 Q252 663 262.5 673 Q273 683 287 683 Q298 683 304.5 675 Q311 667 311 656 Q310 642 299.5 632.5 Q289 623 275 623 Z M441 623 Q430 623 423.5 630.5 Q417 638 417 649 Q418 663 428.5 673 Q439 683 453 683 Q464 683 470.5 675 Q477 667 477 656 Q476 642 465.5 632.5 Q455 623 441 623 Z " />
<glyph glyph-name="otilde" unicode="&#xf5;" horiz-adv-x="520" d="M259 24 Q306 24 343.5 45.5 Q381 67 407 105.5 Q433 144 447 197.5 Q461 251 461 315 Q461 397 428 442 Q395 487 334 487 Q285 487 247 465 Q209 443 183.5 403.5 Q158 364 144.5 310 Q131 256 131 192 Q131 113 163 68.5 Q195 24 259 24 Z M337 523 Q414 523 457 470.5 Q500 418 500 321 Q500 246 483 184.5 Q466 123 434.5 79.5 Q403 36 357 12 Q311 -12 253 -12 Q178 -12 135 39 Q92 90 92 193 Q92 269 109.5 330.5 Q127 392 159.5 434.5 Q192 477 237 500 Q282 523 337 523 Z M439 602 Q413 602 393.5 614.5 Q374 627 356.5 642.5 Q339 658 321.5 670.5 Q304 683 283 683 Q235 683 218 606 L190 606 Q198 654 223.5 685 Q249 716 291 716 Q317 716 336.5 703.5 Q356 691 373.5 675.5 Q391 660 408.5 647.5 Q426 635 447 635 Q495 635 512 712 L540 712 Q532 664 506.5 633 Q481 602 439 602 Z " />
<glyph glyph-name="uacute" unicode="&#xfa;" horiz-adv-x="532" d="M387 0 L402 88 Q385 59 365.5 40 Q346 21 325 9.5 Q304 -2 283.5 -7 Q263 -12 244 -12 Q177 -12 142 24 Q107 60 107 129 Q107 144 109 162 Q111 180 114 199 L169 511 L205 511 L150 191 Q147 174 145.5 158 Q144 142 144 129 Q144 71 171.5 46 Q199 21 250 21 Q278 21 305 31 Q332 41 355.5 64 Q379 87 397 123.5 Q415 160 424 214 L475 511 L512 511 L422 0 L387 0 Z M314 576 L277 576 L455 732 L510 732 L314 576 Z " />
<glyph glyph-name="ugrave" unicode="&#xf9;" horiz-adv-x="532" d="M387 0 L402 88 Q385 59 365.5 40 Q346 21 325 9.5 Q304 -2 283.5 -7 Q263 -12 244 -12 Q177 -12 142 24 Q107 60 107 129 Q107 144 109 162 Q111 180 114 199 L169 511 L205 511 L150 191 Q147 174 145.5 158 Q144 142 144 129 Q144 71 171.5 46 Q199 21 250 21 Q278 21 305 31 Q332 41 355.5 64 Q379 87 397 123.5 Q415 160 424 214 L475 511 L512 511 L422 0 L387 0 Z M379 576 L237 732 L292 732 L416 576 L379 576 Z " />
<glyph glyph-name="ucircumflex" unicode="&#xfb;" horiz-adv-x="532" d="M387 0 L402 88 Q385 59 365.5 40 Q346 21 325 9.5 Q304 -2 283.5 -7 Q263 -12 244 -12 Q177 -12 142 24 Q107 60 107 129 Q107 144 109 162 Q111 180 114 199 L169 511 L205 511 L150 191 Q147 174 145.5 158 Q144 142 144 129 Q144 71 171.5 46 Q199 21 250 21 Q278 21 305 31 Q332 41 355.5 64 Q379 87 397 123.5 Q415 160 424 214 L475 511 L512 511 L422 0 L387 0 Z M180 576 L359 732 L391 732 L514 576 L479 576 L370 696 L219 576 L180 576 Z " />
<glyph glyph-name="udieresis" unicode="&#xfc;" horiz-adv-x="532" d="M387 0 L402 88 Q385 59 365.5 40 Q346 21 325 9.5 Q304 -2 283.5 -7 Q263 -12 244 -12 Q177 -12 142 24 Q107 60 107 129 Q107 144 109 162 Q111 180 114 199 L169 511 L205 511 L150 191 Q147 174 145.5 158 Q144 142 144 129 Q144 71 171.5 46 Q199 21 250 21 Q278 21 305 31 Q332 41 355.5 64 Q379 87 397 123.5 Q415 160 424 214 L475 511 L512 511 L422 0 L387 0 Z M272 623 Q261 623 254.5 630.5 Q248 638 248 649 Q249 663 259.5 673 Q270 683 284 683 Q295 683 301.5 675 Q308 667 308 656 Q307 642 296.5 632.5 Q286 623 272 623 Z M438 623 Q427 623 420.5 630.5 Q414 638 414 649 Q415 663 425.5 673 Q436 683 450 683 Q461 683 467.5 675 Q474 667 474 656 Q473 642 462.5 632.5 Q452 623 438 623 Z " />
<glyph glyph-name="dagger" unicode="&#x2020;" horiz-adv-x="536" d="M350 464 L336 338 L237 -141 L230 -141 L299 338 L329 464 L187 455 L152 455 L159 489 L194 489 L332 480 L343 587 L364 712 L401 712 L380 587 L353 480 L495 489 L530 489 L523 455 L488 455 L350 464 Z " />
<glyph glyph-name="degree" unicode="&#xb0;" horiz-adv-x="376" d="M252 482 Q201 482 169.5 514 Q138 546 138 595 Q138 629 150.5 657.5 Q163 686 184.5 706.5 Q206 727 235.5 738.5 Q265 750 298 750 Q349 750 380.5 718 Q412 686 412 637 Q412 603 399.5 574.5 Q387 546 365 525.5 Q343 505 314 493.5 Q285 482 252 482 Z M257 514 Q281 514 303 523.5 Q325 533 341.5 549 Q358 565 368 586.5 Q378 608 378 632 Q378 669 354.5 693.5 Q331 718 293 718 Q268 718 246 708.5 Q224 699 207.5 683 Q191 667 181.5 645.5 Q172 624 172 600 Q172 564 195 539 Q218 514 257 514 Z " />
<glyph glyph-name="cent" unicode="&#xa2;" horiz-adv-x="487" d="M220 -12 L237 84 Q179 95 146.5 145 Q114 195 114 282 Q114 349 129.5 408 Q145 467 173.5 511.5 Q202 556 241.5 583.5 Q281 611 329 615 L346 712 L382 712 L365 615 Q417 609 445.5 577 Q474 545 478 508 L444 495 Q437 536 411 558 Q385 580 344 580 Q301 580 265.5 557 Q230 534 205 493.5 Q180 453 166.5 399 Q153 345 153 282 Q153 204 182.5 160.5 Q212 117 270 117 Q312 117 346 142 Q380 167 400 212 L434 198 Q408 144 367.5 113 Q327 82 272 81 L256 -12 L220 -12 Z " />
<glyph glyph-name="sterling" unicode="&#xa3;" horiz-adv-x="580" d="M73 0 L80 40 Q128 76 156.5 109 Q185 142 199.5 173 Q214 204 218.5 232 Q223 260 223 286 L223 311 L128 311 L133 344 L219 344 Q214 382 206 420 Q198 458 198 495 Q198 539 213 578.5 Q228 618 258.5 647.5 Q289 677 334.5 694.5 Q380 712 440 712 Q493 712 535 697.5 Q577 683 606 658 L587 626 Q567 644 530.5 660.5 Q494 677 434 677 Q384 677 347 662 Q310 647 285.5 622 Q261 597 249 565 Q237 533 237 499 Q237 461 245.5 422.5 Q254 384 259 344 L427 344 L422 311 L262 311 L262 289 Q262 213 221.5 148.5 Q181 84 111 33 L513 33 L507 0 L73 0 Z " />
<glyph glyph-name="section" unicode="&#xa7;" horiz-adv-x="508" d="M476 625 Q461 641 428.5 658.5 Q396 676 345 676 Q278 676 234.5 645 Q191 614 191 558 Q191 533 200.5 515 Q210 497 229.5 483 Q249 469 278.5 455.5 Q308 442 347 426 Q371 416 393.5 405 Q416 394 433 379.5 Q450 365 460.5 345.5 Q471 326 471 299 Q471 261 447 224 Q423 187 368 167 Q400 148 414 118.5 Q428 89 428 56 Q428 12 411.5 -21 Q395 -54 366.5 -76 Q338 -98 298.5 -109 Q259 -120 214 -120 Q179 -120 151.5 -113 Q124 -106 103 -95.5 Q82 -85 66.5 -71.5 Q51 -58 41 -45 L73 -20 Q81 -29 93 -40.5 Q105 -52 122 -61.5 Q139 -71 161.5 -77.5 Q184 -84 214 -84 Q250 -84 282 -76 Q314 -68 338 -51.5 Q362 -35 375.5 -9 Q389 17 389 54 Q389 84 373.5 104.5 Q358 125 333.5 140 Q309 155 279 167 Q249 179 219 192 Q194 202 174 212.5 Q154 223 139.5 236.5 Q125 250 117 267 Q109 284 109 308 Q109 357 143.5 388.5 Q178 420 234 434 Q189 454 170.5 485.5 Q152 517 152 555 Q152 592 167 621 Q182 650 208.5 670 Q235 690 270 701 Q305 712 345 712 Q408 712 448 691.5 Q488 671 507 650 L476 625 Z M431 290 Q431 314 418.5 332 Q406 350 384 364 Q362 378 332.5 390 Q303 402 270 414 Q215 406 181.5 378 Q148 350 148 312 Q148 284 173 263 Q198 242 236 227 Q267 215 293.5 204 Q320 193 336 185 Q375 198 403 225 Q431 252 431 290 Z " />
<glyph glyph-name="bullet" unicode="&#x2022;" horiz-adv-x="392" d="M226 264 Q193 264 172.5 285.5 Q152 307 152 338 Q152 359 160.5 377 Q169 395 183.5 408.5 Q198 422 217 430 Q236 438 256 438 Q289 438 310 416.5 Q331 395 331 364 Q331 343 322 325 Q313 307 298.5 293.5 Q284 280 265 272 Q246 264 226 264 Z " />
<glyph glyph-name="paragraph" unicode="&#xb6;" horiz-adv-x="578" d="M403 -109 L536 647 L431 647 L290 -157 L249 -174 L331 295 Q266 295 222.5 311 Q179 327 153 352 Q127 377 115.5 408.5 Q104 440 104 470 Q104 506 117 544 Q130 582 159 612.5 Q188 643 236 663 Q284 683 353 683 L579 683 L443 -91 L403 -109 Z M394 647 L349 647 Q291 647 251.5 630.5 Q212 614 188 588.5 Q164 563 153.5 531.5 Q143 500 143 470 Q143 444 152.5 419.5 Q162 395 185 375 Q208 355 245 343 Q282 331 338 331 L394 647 Z " />
<glyph glyph-name="germandbls" unicode="&#xdf;" horiz-adv-x="542" d="M286 24 Q319 24 352.5 36.5 Q386 49 412 74.5 Q438 100 454.5 138.5 Q471 177 471 228 Q471 254 463 278.5 Q455 303 437 321.5 Q419 340 389.5 351.5 Q360 363 317 363 L313 363 L319 396 L323 396 Q398 396 446.5 437 Q495 478 495 565 Q495 617 466.5 646.5 Q438 676 383 676 Q317 676 266.5 631 Q216 586 198 486 L82 -176 L41 -194 L161 486 Q172 548 195 591 Q218 634 248 661 Q278 688 312.5 700 Q347 712 383 712 Q454 712 494 672 Q534 632 534 566 Q534 542 527.5 513 Q521 484 504 457 Q487 430 458.5 408.5 Q430 387 387 379 Q420 373 443 358.5 Q466 344 481 323.5 Q496 303 503 278.5 Q510 254 510 228 Q510 173 491.5 128.5 Q473 84 441.5 53 Q410 22 369.5 5 Q329 -12 285 -12 Q262 -12 246.5 -9.5 Q231 -7 222 -3 L245 28 Q261 24 286 24 Z " />
<glyph glyph-name="registered" unicode="&#xae;" horiz-adv-x="850" d="M470 -12 Q393 -12 327 15.5 Q261 43 212 92 Q163 141 135.5 207 Q108 273 108 350 Q108 427 135.5 493 Q163 559 212 608 Q261 657 327 684.5 Q393 712 470 712 Q547 712 613 684.5 Q679 657 728 608 Q777 559 804.5 493 Q832 427 832 350 Q832 273 804.5 207 Q777 141 728 92 Q679 43 613 15.5 Q547 -12 470 -12 Z M470 22 Q540 22 600 47 Q660 72 703.5 116 Q747 160 771.5 220 Q796 280 796 350 Q796 420 771.5 480 Q747 540 703.5 584 Q660 628 600 653 Q540 678 470 678 Q399 678 339.5 653 Q280 628 236.5 584 Q193 540 168.5 480 Q144 420 144 350 Q144 280 168.5 220 Q193 160 236.5 116 Q280 72 339.5 47 Q399 22 470 22 Z M629 438 Q629 393 602 359.5 Q575 326 518 321 L623 137 L581 137 L479 319 L369 319 L369 137 L333 137 L333 560 L511 560 Q544 560 566.5 548 Q589 536 603 518 Q617 500 623 478.5 Q629 457 629 438 Z M502 355 Q527 355 544 362 Q561 369 571.5 380.5 Q582 392 586.5 407 Q591 422 591 438 Q591 453 587 468.5 Q583 484 573 496.5 Q563 509 545.5 516.5 Q528 524 502 524 L369 524 L369 355 L502 355 Z " />
<glyph glyph-name="copyright" unicode="&#xa9;" horiz-adv-x="850" d="M470 -12 Q393 -12 327 15.5 Q261 43 212 92 Q163 141 135.5 207 Q108 273 108 350 Q108 427 135.5 493 Q163 559 212 608 Q261 657 327 684.5 Q393 712 470 712 Q547 712 613 684.5 Q679 657 728 608 Q777 559 804.5 493 Q832 427 832 350 Q832 273 804.5 207 Q777 141 728 92 Q679 43 613 15.5 Q547 -12 470 -12 Z M470 22 Q540 22 600 47 Q660 72 703.5 116 Q747 160 771.5 220 Q796 280 796 350 Q796 420 771.5 480 Q747 540 703.5 584 Q660 628 600 653 Q540 678 470 678 Q399 678 339.5 653 Q280 628 236.5 584 Q193 540 168.5 480 Q144 420 144 350 Q144 280 168.5 220 Q193 160 236.5 116 Q280 72 339.5 47 Q399 22 470 22 Z M476 138 Q394 138 351.5 193.5 Q309 249 309 355 Q309 454 351.5 513.5 Q394 573 475 573 Q527 573 560.5 550 Q594 527 612 485 L578 471 Q565 499 539.5 518.5 Q514 538 475 538 Q411 538 379 489 Q347 440 347 355 Q347 264 380 218.5 Q413 173 476 173 Q513 173 543.5 190 Q574 207 588 249 L618 237 Q601 189 564.5 163.5 Q528 138 476 138 Z " />
<glyph glyph-name="trademark" unicode="&#x2122;" horiz-adv-x="762" d="M264 666 L264 278 L228 278 L228 666 L108 666 L108 700 L383 700 L383 666 L264 666 Z M728 278 L728 575 L599 268 L470 575 L470 278 L434 278 L434 700 L456 700 L599 358 L742 700 L764 700 L764 278 L728 278 Z " />
<glyph glyph-name="acute" unicode="&#xb4;" horiz-adv-x="311" d="M199 576 L162 576 L340 732 L395 732 L199 576 Z " />
<glyph glyph-name="dieresis" unicode="&#xa8;" horiz-adv-x="311" d="M161 623 Q150 623 143.5 630.5 Q137 638 137 649 Q138 663 148.5 673 Q159 683 173 683 Q184 683 190.5 675 Q197 667 197 656 Q196 642 185.5 632.5 Q175 623 161 623 Z M327 623 Q316 623 309.5 630.5 Q303 638 303 649 Q304 663 314.5 673 Q325 683 339 683 Q350 683 356.5 675 Q363 667 363 656 Q362 642 351.5 632.5 Q341 623 327 623 Z " />
<glyph glyph-name="notequal" unicode="&#x2260;" horiz-adv-x="636" d="M335 229 L280 123 L237 123 L292 229 L133 229 L133 265 L310 265 L390 419 L133 419 L133 455 L408 455 L455 546 L498 546 L451 455 L603 455 L603 419 L433 419 L353 265 L603 265 L603 229 L335 229 Z " />
<glyph glyph-name="AE" unicode="&#xc6;" horiz-adv-x="829" d="M383 0 L418 197 L173 197 L26 0 L-19 0 L508 700 L842 700 L837 667 L538 667 L487 379 L679 379 L673 346 L481 346 L426 33 L747 33 L741 0 L383 0 Z M423 227 L492 623 L195 227 L423 227 Z " />
<glyph glyph-name="Oslash" unicode="&#xd8;" horiz-adv-x="696" d="M630 607 Q649 570 657.5 526.5 Q666 483 666 435 Q666 387 657.5 335 Q649 283 632 233 Q615 183 588 138.5 Q561 94 524 60.5 Q487 27 439.5 7.5 Q392 -12 333 -12 Q278 -12 238.5 8.5 Q199 29 173 64 L109 -12 L67 -12 L155 92 Q134 130 124.5 176 Q115 222 115 270 Q115 318 123.5 369 Q132 420 150 469.5 Q168 519 195 563 Q222 607 259.5 640 Q297 673 345 692.5 Q393 712 452 712 Q509 712 548 691.5 Q587 671 613 636 L677 712 L719 712 L630 607 Z M154 266 Q154 226 160 189.5 Q166 153 180 123 L587 605 Q565 637 531 656.5 Q497 676 447 676 Q369 676 313.5 636.5 Q258 597 222.5 536.5 Q187 476 170.5 404 Q154 332 154 266 Z M338 24 Q390 24 431.5 42.5 Q473 61 505.5 92 Q538 123 561 164.5 Q584 206 599 251.5 Q614 297 621 344.5 Q628 392 628 436 Q628 474 622 509 Q616 544 603 574 L197 93 Q219 61 253.5 42.5 Q288 24 338 24 Z " />
<glyph glyph-name="infinity" unicode="&#x221e;" horiz-adv-x="978" d="M742 143 Q700 143 667 157 Q634 171 609.5 196.5 Q585 222 567 256 Q549 290 536 331 Q511 292 483 258 Q455 224 423 198.5 Q391 173 354.5 158 Q318 143 277 143 Q238 143 204.5 155 Q171 167 146.5 190.5 Q122 214 108.5 247.5 Q95 281 95 325 Q95 383 114.5 429.5 Q134 476 167.5 507.5 Q201 539 245 556 Q289 573 337 573 Q378 573 410 557.5 Q442 542 466.5 516 Q491 490 509.5 455.5 Q528 421 542 383 Q567 424 594.5 459 Q622 494 653.5 519.5 Q685 545 721 559 Q757 573 800 573 Q840 573 873.5 560.5 Q907 548 931.5 524.5 Q956 501 969.5 467 Q983 433 983 389 Q983 331 963.5 285 Q944 239 910.5 207.5 Q877 176 833.5 159.5 Q790 143 742 143 Z M746 176 Q786 176 822 190.5 Q858 205 885 232 Q912 259 928 297.5 Q944 336 944 384 Q944 457 903 498.5 Q862 540 796 540 Q757 540 722 524 Q687 508 656 482.5 Q625 457 599 424 Q573 391 551 357 Q563 322 580.5 289.5 Q598 257 621.5 231.5 Q645 206 675.5 191 Q706 176 746 176 Z M281 176 Q321 176 356 191 Q391 206 421.5 231.5 Q452 257 478 289.5 Q504 322 526 357 Q514 391 497 424 Q480 457 457 482.5 Q434 508 403.5 524 Q373 540 333 540 Q293 540 257 525.5 Q221 511 193.5 483.5 Q166 456 149.5 417 Q133 378 133 330 Q133 257 175 216.5 Q217 176 281 176 Z " />
<glyph glyph-name="plusminus" unicode="&#xb1;" horiz-adv-x="636" d="M385 388 L385 204 L349 204 L349 388 L133 388 L133 424 L349 424 L349 608 L385 608 L385 424 L603 424 L603 388 L385 388 Z M133 0 L133 36 L603 36 L603 0 L133 0 Z " />
<glyph glyph-name="lessequal" unicode="&#x2264;" horiz-adv-x="636" d="M603 156 L133 360 L133 398 L603 602 L603 561 L180 379 L603 197 L603 156 Z M133 0 L133 36 L603 36 L603 0 L133 0 Z " />
<glyph glyph-name="greaterequal" unicode="&#x2265;" horiz-adv-x="636" d="M133 0 L133 36 L603 36 L603 0 L133 0 Z M133 156 L133 197 L556 379 L133 561 L133 602 L603 398 L603 360 L133 156 Z " />
<glyph glyph-name="yen" unicode="&#xa5;" horiz-adv-x="534" d="M342 309 L496 309 L491 276 L322 276 L301 156 L470 156 L464 123 L295 123 L273 0 L236 0 L258 123 L77 123 L83 156 L264 156 L285 276 L104 276 L109 309 L275 309 L131 700 L169 700 L308 318 L583 700 L624 700 L342 309 Z " />
<glyph glyph-name="mu" unicode="&#xb5;" horiz-adv-x="532" d="M392 0 L407 88 Q380 40 338.5 14 Q297 -12 251 -12 Q208 -12 177 3 Q146 18 130 50 L90 -181 L49 -200 L174 511 L210 511 L155 191 Q149 156 149 132 Q149 96 158.5 74 Q168 52 183 40.5 Q198 29 217 25 Q236 21 255 21 Q283 21 310.5 31 Q338 41 361 64 Q384 87 402 124 Q420 161 429 214 L480 511 L517 511 L427 0 L392 0 Z " />
<glyph glyph-name="partialdiff" unicode="&#x2202;" horiz-adv-x="562" d="M241 -12 Q199 -12 166 1 Q133 14 109.5 38 Q86 62 73.5 94.5 Q61 127 61 166 Q61 224 83 273.5 Q105 323 141.5 359 Q178 395 225 415 Q272 435 323 435 Q412 435 454.5 388 Q497 341 497 263 Q501 280 505 296.5 Q509 313 512 333 Q515 353 516.5 379 Q518 405 518 441 Q518 550 468 609 Q418 668 328 680 L342 712 Q448 696 501.5 627.5 Q555 559 555 441 Q555 361 537.5 280.5 Q520 200 482 135 Q444 70 384.5 29 Q325 -12 241 -12 Z M241 24 Q288 24 329 42 Q370 60 400 91 Q430 122 447.5 162 Q465 202 465 247 Q465 322 426 359.5 Q387 397 321 397 Q278 397 238 379 Q198 361 167.5 330.5 Q137 300 119 258 Q101 216 101 168 Q101 102 138.5 63 Q176 24 241 24 Z " />
<glyph glyph-name="summation" unicode="&#x2211;" horiz-adv-x="606" d="M25 -142 L30 -110 L397 293 L181 674 L185 698 L647 698 L641 662 L233 662 L443 290 L83 -106 L526 -106 L520 -142 L25 -142 Z " />
<glyph glyph-name="product" unicode="&#x220f;" horiz-adv-x="676" d="M503 -140 L644 664 L244 664 L103 -140 L65 -140 L212 700 L688 700 L541 -140 L503 -140 Z " />
<glyph glyph-name="pi" unicode="&#x3c0;" horiz-adv-x="622" d="M481 -12 Q440 -12 420.5 9.5 Q401 31 401 66 Q401 77 403 92 Q405 107 407 119 L470 475 L271 475 L246 333 Q234 264 218 209.5 Q202 155 180 112 Q158 69 128.5 36.5 Q99 4 61 -20 L36 3 Q63 19 87.5 42 Q112 65 133.5 101.5 Q155 138 173.5 192 Q192 246 207 326 L234 475 L137 475 L143 511 L639 511 L632 475 L506 475 L443 115 Q441 106 439.5 95.5 Q438 85 438 70 Q438 23 487 23 Q509 23 529.5 31 Q550 39 564 47 L553 9 Q536 -1 517.5 -6.5 Q499 -12 481 -12 Z " />
<glyph glyph-name="integral" unicode="&#x222b;" horiz-adv-x="348" d="M61 -140 Q45 -140 29.5 -135.5 Q14 -131 3 -124 L8 -92 Q20 -98 33 -102.5 Q46 -107 66 -107 Q101 -107 117.5 -88 Q134 -69 142 -27 L253 603 Q263 657 291 684.5 Q319 712 369 712 Q385 712 400.5 707.5 Q416 703 427 696 L422 664 Q410 670 397 674.5 Q384 679 364 679 Q329 679 312.5 660 Q296 641 288 599 L177 -31 Q167 -85 139 -112.5 Q111 -140 61 -140 Z " />
<glyph glyph-name="ordfeminine" unicode="&#xaa;" horiz-adv-x="428" d="M352 283 L362 340 Q336 312 300 292.5 Q264 273 226 273 Q176 273 144 304.5 Q112 336 112 389 Q112 430 127.5 459.5 Q143 489 167.5 508.5 Q192 528 222 537.5 Q252 547 281 547 Q314 547 343 535 Q372 523 391 506 L399 551 Q401 565 403.5 578 Q406 591 406 604 Q406 642 385.5 660 Q365 678 329 678 Q310 678 290.5 673.5 Q271 669 253 662 Q235 655 218.5 647.5 Q202 640 190 633 L184 666 Q196 673 213 681.5 Q230 690 249.5 696.5 Q269 703 289.5 707.5 Q310 712 329 712 Q381 712 412.5 687 Q444 662 444 604 Q444 594 442 581.5 Q440 569 437 551 L389 283 L352 283 Z M227 306 Q249 306 270 313 Q291 320 309 331 Q327 342 342.5 355.5 Q358 369 370 381 L386 474 Q368 488 340 501 Q312 514 279 514 Q258 514 235.5 506.5 Q213 499 194 484 Q175 469 163 445.5 Q151 422 151 390 Q151 348 173 327 Q195 306 227 306 Z " />
<glyph glyph-name="ordmasculine" unicode="&#xba;" horiz-adv-x="445" d="M266 272 Q203 272 166.5 316.5 Q130 361 130 441 Q130 503 145 553 Q160 603 187 638.5 Q214 674 251.5 693 Q289 712 335 712 Q400 712 436 666.5 Q472 621 472 543 Q472 481 457 431 Q442 381 415 346 Q388 311 350 291.5 Q312 272 266 272 Z M272 308 Q308 308 337.5 324.5 Q367 341 388.5 371.5 Q410 402 421.5 445.5 Q433 489 433 543 Q433 608 406 642 Q379 676 331 676 Q294 676 264 659.5 Q234 643 213 612.5 Q192 582 180.5 538.5 Q169 495 169 441 Q169 378 196.5 343 Q224 308 272 308 Z " />
<glyph glyph-name="ae" unicode="&#xe6;" horiz-adv-x="826" d="M216 21 Q245 21 272.5 31.5 Q300 42 325 59.5 Q350 77 372.5 100.5 Q395 124 414 151 Q413 160 412.5 172 Q412 184 412 196 Q412 208 412.5 217.5 Q413 227 414 232 Q388 252 353.5 267.5 Q319 283 275 283 Q248 283 220 273.5 Q192 264 169.5 245 Q147 226 132.5 197.5 Q118 169 118 130 Q118 82 142 51.5 Q166 21 216 21 Z M573 -12 Q510 -12 471.5 21.5 Q433 55 419 118 Q366 46 314 17 Q262 -12 215 -12 Q145 -12 111 27 Q77 66 77 130 Q77 175 94 210 Q111 245 139.5 269 Q168 293 203.5 305 Q239 317 277 317 Q322 317 356.5 302.5 Q391 288 417 265 L431 342 Q434 357 435 370 Q436 383 436 394 Q436 423 428.5 441.5 Q421 460 407.5 471 Q394 482 376.5 486 Q359 490 340 490 Q295 490 253 473.5 Q211 457 178 439 L171 471 Q203 488 245.5 505.5 Q288 523 341 523 Q363 523 385 518.5 Q407 514 425 501.5 Q443 489 455.5 467.5 Q468 446 471 412 Q505 466 554 494.5 Q603 523 660 523 Q692 523 720 513.5 Q748 504 768.5 483 Q789 462 801 429 Q813 396 813 350 Q813 311 801 256 L799 245 L454 245 Q451 218 451 191 Q451 154 457.5 123 Q464 92 479.5 70 Q495 48 520 36 Q545 24 582 24 Q611 24 642 35 Q673 46 704 69 L723 41 Q692 18 655.5 3 Q619 -12 573 -12 Z M661 490 Q616 490 582 472 Q548 454 523 424.5 Q498 395 482.5 357 Q467 319 459 278 L768 278 Q771 298 773 315.5 Q775 333 775 350 Q775 392 764.5 419 Q754 446 737.5 461.5 Q721 477 700.5 483.5 Q680 490 661 490 Z " />
<glyph glyph-name="oslash" unicode="&#xf8;" horiz-adv-x="520" d="M476 438 Q500 391 500 321 Q500 246 483 184.5 Q466 123 434.5 79.5 Q403 36 357 12 Q311 -12 253 -12 Q174 -12 132 43 L84 -12 L41 -12 L114 72 Q92 122 92 193 Q92 269 109.5 330.5 Q127 392 159.5 434.5 Q192 477 237 500 Q282 523 337 523 Q376 523 406.5 508.5 Q437 494 458 467 L507 523 L550 523 L476 438 Z M259 24 Q306 24 343.5 45.5 Q381 67 407 105.5 Q433 144 447 197.5 Q461 251 461 315 Q461 366 447 405 L159 74 Q191 24 259 24 Z M131 192 Q131 142 143 106 L431 436 Q399 487 334 487 Q285 487 247 465 Q209 443 183.5 403.5 Q158 364 144.5 310 Q131 256 131 192 Z " />
<glyph glyph-name="questiondown" unicode="&#xbf;" horiz-adv-x="502" d="M216 -200 Q134 -200 91 -156 Q48 -112 48 -45 Q48 -1 64.5 31.5 Q81 64 106 91 Q131 118 161.5 141.5 Q192 165 220 191 Q248 217 269.5 248.5 Q291 280 299 322 L305 356 L343 356 L337 322 Q328 275 306 241 Q284 207 256.5 180 Q229 153 199 130 Q169 107 144 82 Q119 57 103 27 Q87 -3 87 -44 Q87 -95 120 -129.5 Q153 -164 220 -164 Q285 -164 332 -133.5 Q379 -103 407 -43 L439 -58 Q405 -127 346.5 -163.5 Q288 -200 216 -200 Z M343 463 Q332 463 325.5 471 Q319 479 319 490 Q320 504 330.5 513.5 Q341 523 355 523 Q366 523 372.5 515.5 Q379 508 379 497 Q378 483 367.5 473 Q357 463 343 463 Z " />
<glyph glyph-name="exclamdown" unicode="&#xa1;" horiz-adv-x="246" d="M162 319 L140 52 L96 -200 L57 -200 L101 52 L152 319 L162 319 Z M177 463 Q166 463 159 471 Q152 479 152 490 Q152 504 162 513.5 Q172 523 186 523 Q197 523 204 515.5 Q211 508 211 497 Q211 483 201 473 Q191 463 177 463 Z " />
<glyph glyph-name="logicalnot" unicode="&#xac;" horiz-adv-x="636" d="M567 176 L567 427 L133 427 L133 463 L603 463 L603 176 L567 176 Z " />
<glyph glyph-name="radical" unicode="&#x221a;" horiz-adv-x="534" d="M613 712 L221 -105 L175 -105 L63 222 L100 222 L200 -70 L574 712 L613 712 Z " />
<glyph glyph-name="florin" unicode="&#x192;" horiz-adv-x="306" d="M-47 -182 Q18 -177 53 -147.5 Q88 -118 100 -51 L192 478 L111 478 L117 511 L199 511 L215 603 Q233 712 333 712 Q349 712 364 707.5 Q379 703 390 696 L385 664 Q372 670 359 674.5 Q346 679 326 679 Q291 679 275 660 Q259 641 251 599 L236 511 L358 511 L352 478 L229 478 L137 -49 Q129 -96 112 -126 Q95 -156 72.5 -174.5 Q50 -193 22.5 -201.5 Q-5 -210 -34 -213 L-47 -182 Z " />
<glyph glyph-name="approxequal" unicode="&#x2248;" horiz-adv-x="636" d="M483 366 Q448 366 418.5 380.5 Q389 395 362 413 Q335 431 308 445.5 Q281 460 251 460 Q215 460 194.5 435.5 Q174 411 172 366 L135 366 Q135 390 142 413.5 Q149 437 163.5 455.5 Q178 474 200 485 Q222 496 253 496 Q288 496 317.5 481.5 Q347 467 374 449 Q401 431 428 416.5 Q455 402 485 402 Q521 402 541.5 427 Q562 452 564 496 L601 496 Q601 472 594 448.5 Q587 425 573 406.5 Q559 388 536.5 377 Q514 366 483 366 Z M483 190 Q448 190 418.5 204.5 Q389 219 362 237 Q335 255 308 269.5 Q281 284 251 284 Q215 284 194.5 259.5 Q174 235 172 190 L135 190 Q135 214 142 237.5 Q149 261 163.5 279.5 Q178 298 200 309 Q222 320 253 320 Q288 320 317.5 305.5 Q347 291 374 273 Q401 255 428 240.5 Q455 226 485 226 Q521 226 541.5 251 Q562 276 564 320 L601 320 Q601 296 594 272.5 Q587 249 573 230.5 Q559 212 536.5 201 Q514 190 483 190 Z " />
<glyph glyph-name="Delta" unicode="&#x2206;" horiz-adv-x="638" d="M51 0 L416 700 L441 700 L560 0 L51 0 Z M416 629 L107 36 L519 36 L416 629 Z " />
<glyph glyph-name="guillemotleft" unicode="&#xab;" horiz-adv-x="441" d="M180 0 L73 256 L269 511 L311 511 L115 256 L222 0 L180 0 Z M360 0 L253 256 L449 511 L491 511 L295 256 L402 0 L360 0 Z " />
<glyph glyph-name="guillemotright" unicode="&#xbb;" horiz-adv-x="441" d="M21 0 L218 256 L110 511 L152 511 L260 256 L63 0 L21 0 Z M201 0 L398 256 L290 511 L332 511 L440 256 L243 0 L201 0 Z " />
<glyph glyph-name="ellipsis" unicode="&#x2026;" horiz-adv-x="796" d="M126 -14 Q115 -14 108.5 -6.5 Q102 1 102 12 Q103 26 113.5 36 Q124 46 138 46 Q149 46 155.5 38 Q162 30 162 19 Q161 5 150.5 -4.5 Q140 -14 126 -14 Z M390 -14 Q379 -14 372.5 -6.5 Q366 1 366 12 Q367 26 377.5 36 Q388 46 402 46 Q413 46 419.5 38 Q426 30 426 19 Q425 5 414.5 -4.5 Q404 -14 390 -14 Z M653 -14 Q642 -14 635.5 -6.5 Q629 1 629 12 Q630 26 640.5 36 Q651 46 665 46 Q676 46 682.5 38 Q689 30 689 19 Q688 5 677.5 -4.5 Q667 -14 653 -14 Z " />
<glyph glyph-name="Agrave" unicode="&#xc0;" horiz-adv-x="638" d="M515 0 L482 197 L198 197 L98 0 L58 0 L413 700 L439 700 L552 0 L515 0 Z M478 227 L432 528 Q431 534 428.5 548 Q426 562 423.5 578.5 Q421 595 418.5 612 Q416 629 415 640 Q410 628 402.5 611 Q395 594 387 577 Q379 560 372.5 546.5 Q366 533 364 528 L212 227 L478 227 Z M461 766 L319 922 L374 922 L498 766 L461 766 Z " />
<glyph glyph-name="Atilde" unicode="&#xc3;" horiz-adv-x="638" d="M515 0 L482 197 L198 197 L98 0 L58 0 L413 700 L439 700 L552 0 L515 0 Z M478 227 L432 528 Q431 534 428.5 548 Q426 562 423.5 578.5 Q421 595 418.5 612 Q416 629 415 640 Q410 628 402.5 611 Q395 594 387 577 Q379 560 372.5 546.5 Q366 533 364 528 L212 227 L478 227 Z M525 792 Q499 792 479.5 804.5 Q460 817 442.5 832.5 Q425 848 407.5 860.5 Q390 873 369 873 Q321 873 304 796 L276 796 Q284 844 309.5 875 Q335 906 377 906 Q403 906 422.5 893.5 Q442 881 459.5 865.5 Q477 850 494.5 837.5 Q512 825 533 825 Q581 825 598 902 L626 902 Q618 854 592.5 823 Q567 792 525 792 Z " />
<glyph glyph-name="Otilde" unicode="&#xd5;" horiz-adv-x="696" d="M338 24 Q390 24 431.5 42.5 Q473 61 505.5 92 Q538 123 561 164.5 Q584 206 599 251.5 Q614 297 621 344.5 Q628 392 628 436 Q628 483 618.5 526.5 Q609 570 587.5 603 Q566 636 531.5 656 Q497 676 447 676 Q369 676 313.5 636.5 Q258 597 222.5 536.5 Q187 476 170.5 404 Q154 332 154 266 Q154 218 163.5 174 Q173 130 195 96.5 Q217 63 252 43.5 Q287 24 338 24 Z M333 -12 Q274 -12 232.5 12 Q191 36 165 76 Q139 116 127 166.5 Q115 217 115 270 Q115 318 123.5 369 Q132 420 150 469.5 Q168 519 195 563 Q222 607 259.5 640 Q297 673 345 692.5 Q393 712 452 712 Q512 712 552.5 689 Q593 666 618.5 627.5 Q644 589 655 539 Q666 489 666 435 Q666 387 657.5 335 Q649 283 632 233 Q615 183 588 138.5 Q561 94 524 60.5 Q487 27 439.5 7.5 Q392 -12 333 -12 Z M550 792 Q524 792 504.5 804.5 Q485 817 467.5 832.5 Q450 848 432.5 860.5 Q415 873 394 873 Q346 873 329 796 L301 796 Q309 844 334.5 875 Q360 906 402 906 Q428 906 447.5 893.5 Q467 881 484.5 865.5 Q502 850 519.5 837.5 Q537 825 558 825 Q606 825 623 902 L651 902 Q643 854 617.5 823 Q592 792 550 792 Z " />
<glyph glyph-name="OE" unicode="&#x152;" horiz-adv-x="902" d="M467 0 L471 23 Q451 11 416 -0.5 Q381 -12 333 -12 Q274 -12 233 12 Q192 36 165.5 75.5 Q139 115 127 165 Q115 215 115 267 Q115 316 123.5 368 Q132 420 150 469.5 Q168 519 195.5 563 Q223 607 260.5 640 Q298 673 346 692.5 Q394 712 453 712 Q502 712 533.5 698 Q565 684 584 667 L589 700 L907 700 L901 667 L621 667 L570 379 L743 379 L737 346 L564 346 L509 33 L811 33 L806 0 L467 0 Z M338 24 Q386 24 421 38 Q456 52 478 69 L576 620 Q568 629 556.5 639 Q545 649 529.5 657.5 Q514 666 493.5 671 Q473 676 447 676 Q395 676 353 658 Q311 640 278.5 609 Q246 578 222.5 537 Q199 496 184 450.5 Q169 405 161.5 357.5 Q154 310 154 266 Q154 218 163.5 174 Q173 130 195 97 Q217 64 252 44 Q287 24 338 24 Z " />
<glyph glyph-name="oe" unicode="&#x153;" horiz-adv-x="866" d="M496 245 Q493 215 493 189 Q493 104 525.5 64 Q558 24 625 24 Q683 24 746 69 L765 41 Q733 18 697.5 3 Q662 -12 616 -12 Q547 -12 509.5 26 Q472 64 461 130 Q426 53 371.5 20.5 Q317 -12 253 -12 Q179 -12 135.5 38 Q92 88 92 193 Q92 260 107.5 320 Q123 380 153.5 425 Q184 470 230 496.5 Q276 523 337 523 Q400 523 441.5 485.5 Q483 448 494 374 Q510 411 533 439 Q556 467 583.5 486 Q611 505 641 514 Q671 523 702 523 Q769 523 812 482 Q855 441 855 354 Q855 332 852.5 307.5 Q850 283 843 257 L840 245 L496 245 Z M259 24 Q304 24 341.5 44.5 Q379 65 405.5 103 Q432 141 446.5 194.5 Q461 248 461 315 Q461 391 430 439 Q399 487 334 487 Q286 487 248 465 Q210 443 184 404 Q158 365 144.5 310.5 Q131 256 131 192 Q131 112 163.5 68 Q196 24 259 24 Z M703 490 Q632 490 578 439 Q524 388 501 278 L810 278 Q814 299 815.5 317 Q817 335 817 351 Q817 392 806.5 419 Q796 446 779.5 461.5 Q763 477 742.5 483.5 Q722 490 703 490 Z " />
<glyph glyph-name="endash" unicode="&#x2013;" horiz-adv-x="501" d="M97 269 L103 305 L484 305 L478 269 L97 269 Z " />
<glyph glyph-name="emdash" unicode="&#x2014;" horiz-adv-x="581" d="M35 269 L41 305 L626 305 L620 269 L35 269 Z " />
<glyph glyph-name="quotedblleft" unicode="&#x201c;" horiz-adv-x="358" d="M338 525 Q326 525 318 533.5 Q310 542 310 560 Q310 581 317.5 603.5 Q325 626 337 646.5 Q349 667 363 684 Q377 701 389 712 L398 709 Q379 688 364 656 Q349 624 345 598 Q344 593 344 590 Q344 587 344 585 Q355 585 363 578 Q371 571 371 559 Q371 544 361.5 534.5 Q352 525 338 525 Z M162 525 Q150 525 142 533.5 Q134 542 134 560 Q134 581 141.5 603.5 Q149 626 161 646.5 Q173 667 187 684 Q201 701 213 712 L222 709 Q203 688 188 656 Q173 624 169 598 Q168 593 168 590 Q168 587 168 585 Q179 585 187 578 Q195 571 195 559 Q195 544 185.5 534.5 Q176 525 162 525 Z " />
<glyph glyph-name="quotedblright" unicode="&#x201d;" horiz-adv-x="358" d="M132 528 Q151 549 166 581 Q181 613 185 639 Q186 644 186 647 Q186 650 186 652 Q175 652 167 659 Q159 666 159 678 Q159 693 168.5 702.5 Q178 712 192 712 Q204 712 212 703.5 Q220 695 220 677 Q220 656 212.5 633.5 Q205 611 193 590.5 Q181 570 167 552.5 Q153 535 141 525 L132 528 Z M308 528 Q327 549 342 581 Q357 613 361 639 Q362 644 362 647 Q362 650 362 652 Q351 652 343 659 Q335 666 335 678 Q335 693 344.5 702.5 Q354 712 368 712 Q380 712 388 703.5 Q396 695 396 677 Q396 656 388.5 633.5 Q381 611 369 590.5 Q357 570 343 552.5 Q329 535 317 525 L308 528 Z " />
<glyph glyph-name="quoteleft" unicode="&#x2018;" horiz-adv-x="182" d="M222 709 Q203 688 188 656 Q173 624 169 598 Q168 593 168 590 Q168 587 168 585 Q179 585 187 578 Q195 571 195 559 Q195 544 185.5 534.5 Q176 525 162 525 Q150 525 142 533.5 Q134 542 134 560 Q134 581 141.5 603.5 Q149 626 161 646.5 Q173 667 187 684 Q201 701 213 712 L222 709 Z " />
<glyph glyph-name="quoteright" unicode="&#x2019;" horiz-adv-x="182" d="M132 528 Q151 549 166 581 Q181 613 185 639 Q186 644 186 647 Q186 650 186 652 Q175 652 167 659 Q159 666 159 678 Q159 693 168.5 702.5 Q178 712 192 712 Q204 712 212 703.5 Q220 695 220 677 Q220 656 212.5 633.5 Q205 611 193 590.5 Q181 570 167 552.5 Q153 535 141 525 L132 528 Z " />
<glyph glyph-name="divide" unicode="&#xf7;" horiz-adv-x="636" d="M133 325 L133 359 L603 359 L603 325 L133 325 Z M365 520 Q353 520 344.5 528.5 Q336 537 336 549 Q336 562 344.5 571 Q353 580 365 580 Q378 580 386 571 Q394 562 394 549 Q394 537 386 528.5 Q378 520 365 520 Z M365 105 Q353 105 344.5 113.5 Q336 122 336 134 Q336 147 344.5 156 Q353 165 365 165 Q378 165 386 156 Q394 147 394 134 Q394 122 386 113.5 Q378 105 365 105 Z " />
<glyph glyph-name="lozenge" unicode="&#x25ca;" horiz-adv-x="596" d="M267 -12 L128 350 L393 712 L429 712 L568 350 L303 -12 L267 -12 Z M408 680 L165 346 L288 20 L531 354 L408 680 Z " />
<glyph glyph-name="ydieresis" unicode="&#xff;" horiz-adv-x="485" d="M209 14 L119 511 L154 511 L234 59 L475 511 L514 511 L136 -194 L98 -194 L209 14 Z M250 623 Q239 623 232.5 630.5 Q226 638 226 649 Q227 663 237.5 673 Q248 683 262 683 Q273 683 279.5 675 Q286 667 286 656 Q285 642 274.5 632.5 Q264 623 250 623 Z M416 623 Q405 623 398.5 630.5 Q392 638 392 649 Q393 663 403.5 673 Q414 683 428 683 Q439 683 445.5 675 Q452 667 452 656 Q451 642 440.5 632.5 Q430 623 416 623 Z " />
<glyph glyph-name="Ydieresis" unicode="&#x178;" horiz-adv-x="580" d="M255 0 L304 277 L154 700 L191 700 L326 315 L594 700 L635 700 L340 277 L291 0 L255 0 Z M326 794 Q315 794 308.5 801.5 Q302 809 302 820 Q303 834 313.5 844 Q324 854 338 854 Q349 854 355.5 846 Q362 838 362 827 Q361 813 350.5 803.5 Q340 794 326 794 Z M492 794 Q481 794 474.5 801.5 Q468 809 468 820 Q469 834 479.5 844 Q490 854 504 854 Q515 854 521.5 846 Q528 838 528 827 Q527 813 516.5 803.5 Q506 794 492 794 Z " />
<glyph glyph-name="fraction" unicode="&#x2044;" horiz-adv-x="301" d="M-124 -12 L480 712 L524 712 L-80 -12 L-124 -12 Z " />
<glyph glyph-name="Euro" unicode="&#x20ac;" horiz-adv-x="566" d="M337 -12 Q282 -12 244.5 8 Q207 28 184 62 Q161 96 151 139.5 Q141 183 141 230 L141 244 L78 244 L98 277 L142 277 Q145 308 150 339.5 Q155 371 166 409 L107 409 L127 442 L176 442 Q193 493 218 541.5 Q243 590 278 628 Q313 666 359.5 689 Q406 712 465 712 Q506 712 544 702 Q582 692 608 672 L590 640 Q566 657 533 666.5 Q500 676 462 676 Q413 676 374 656 Q335 636 305 603 Q275 570 253 528 Q231 486 216 442 L472 442 L452 409 L205 409 Q196 377 190.5 344.5 Q185 312 181 277 L374 277 L355 244 L180 244 L180 234 Q180 193 187.5 155.5 Q195 118 213.5 88.5 Q232 59 262.5 41.5 Q293 24 338 24 Q386 24 425 44 Q464 64 496 93 L523 71 Q492 39 445.5 13.5 Q399 -12 337 -12 Z " />
<glyph glyph-name="guilsinglleft" unicode="&#x2039;" horiz-adv-x="261" d="M180 0 L73 256 L269 511 L311 511 L115 256 L222 0 L180 0 Z " />
<glyph glyph-name="guilsinglright" unicode="&#x203a;" horiz-adv-x="261" d="M21 0 L218 256 L110 511 L152 511 L260 256 L63 0 L21 0 Z " />
<glyph glyph-name="fi" unicode="&#xfb01;" horiz-adv-x="499" d="M222 478 L138 0 L101 0 L185 478 L105 478 L111 511 L191 511 L207 603 Q217 657 243.5 684.5 Q270 712 318 712 Q336 712 351.5 707.5 Q367 703 378 696 L372 664 Q360 670 347 674.5 Q334 679 316 679 Q282 679 266 660 Q250 641 243 599 L228 511 L346 511 L340 478 L222 478 Z M357 0 L447 511 L483 511 L394 0 L357 0 Z M484 623 Q473 623 466.5 630 Q460 637 460 648 Q460 662 469 672.5 Q478 683 494 683 Q506 683 512 675.5 Q518 668 518 657 Q518 643 509 633 Q500 623 484 623 Z " />
<glyph glyph-name="fl" unicode="&#xfb02;" horiz-adv-x="493" d="M222 478 L138 0 L101 0 L185 478 L105 478 L111 511 L191 511 L207 603 Q217 657 243.5 684.5 Q270 712 318 712 Q336 712 351.5 707.5 Q367 703 378 696 L372 664 Q360 670 347 674.5 Q334 679 316 679 Q282 679 266 660 Q250 641 243 599 L228 511 L346 511 L340 478 L222 478 Z M355 0 L479 704 L518 722 L392 0 L355 0 Z " />
<glyph glyph-name="daggerdbl" unicode="&#x2021;" horiz-adv-x="536" d="M429 116 L464 116 L457 82 L422 82 L284 91 L273 -16 L252 -141 L216 -141 L237 -16 L264 91 L122 82 L87 82 L94 116 L129 116 L267 107 L281 233 L299 338 L330 464 L187 455 L152 455 L159 489 L194 489 L332 480 L343 587 L365 712 L401 712 L379 587 L352 480 L494 489 L529 489 L522 455 L487 455 L350 464 L335 338 L317 233 L287 107 L429 116 Z " />
<glyph glyph-name="periodcentered" unicode="&#xb7;" horiz-adv-x="182" d="M134 320 Q123 320 116.5 327.5 Q110 335 110 346 Q111 360 121.5 370 Q132 380 146 380 Q157 380 163.5 372 Q170 364 170 353 Q169 339 158.5 329.5 Q148 320 134 320 Z " />
<glyph glyph-name="quotesinglbase" unicode="&#x201a;" horiz-adv-x="182" d="M39 -138 Q57 -118 72 -86.5 Q87 -55 92 -27 Q93 -22 93 -14 Q82 -14 74 -7 Q66 0 66 12 Q66 26 75 36 Q84 46 99 46 Q110 46 118.5 38 Q127 30 127 11 Q127 -10 119.5 -32.5 Q112 -55 100 -75.5 Q88 -96 74 -113.5 Q60 -131 48 -141 L39 -138 Z " />
<glyph glyph-name="quotedblbase" unicode="&#x201e;" horiz-adv-x="358" d="M37 -138 Q56 -117 71 -85 Q86 -53 90 -27 Q91 -22 91 -19 Q91 -16 91 -14 Q80 -14 72 -7 Q64 0 64 12 Q64 27 73.5 36.5 Q83 46 97 46 Q109 46 117 37.5 Q125 29 125 11 Q125 -10 117.5 -32.5 Q110 -55 98 -75.5 Q86 -96 72 -113.5 Q58 -131 46 -141 L37 -138 Z M213 -138 Q232 -117 247 -85 Q262 -53 266 -27 Q267 -22 267 -19 Q267 -16 267 -14 Q256 -14 248 -7 Q240 0 240 12 Q240 27 249.5 36.5 Q259 46 273 46 Q285 46 293 37.5 Q301 29 301 11 Q301 -10 293.5 -32.5 Q286 -55 274 -75.5 Q262 -96 248 -113.5 Q234 -131 222 -141 L213 -138 Z " />
<glyph glyph-name="perthousand" unicode="&#x2030;" horiz-adv-x="1260" d="M266 356 Q231 356 207 368 Q183 380 167 400 Q151 420 144 445.5 Q137 471 137 498 Q137 530 147.5 567.5 Q158 605 180.5 637 Q203 669 238 690.5 Q273 712 322 712 Q357 712 381.5 699 Q406 686 421 665 Q436 644 442.5 618.5 Q449 593 449 568 Q449 533 439 496 Q429 459 407 427.5 Q385 396 350 376 Q315 356 266 356 Z M269 392 Q306 392 333 408.5 Q360 425 377 450 Q394 475 402.5 505 Q411 535 411 563 Q411 582 406.5 602.5 Q402 623 391 639 Q380 655 362.5 665.5 Q345 676 319 676 Q281 676 254 659 Q227 642 210 616 Q193 590 184.5 559.5 Q176 529 176 503 Q176 482 181 462.5 Q186 443 197 427 Q208 411 225.5 401.5 Q243 392 269 392 Z M203 -12 L160 -12 L765 712 L808 712 L203 -12 Z M647 -12 Q612 -12 587.5 0 Q563 12 547.5 32 Q532 52 525 77.5 Q518 103 518 130 Q518 162 528.5 199.5 Q539 237 561 269 Q583 301 618 322.5 Q653 344 702 344 Q737 344 761.5 331 Q786 318 801 297 Q816 276 822.5 250.5 Q829 225 829 200 Q829 165 819 128 Q809 91 787 59.5 Q765 28 730.5 8 Q696 -12 647 -12 Z M649 24 Q686 24 713 40.5 Q740 57 757 82 Q774 107 782.5 137 Q791 167 791 195 Q791 214 786.5 234.5 Q782 255 771 271 Q760 287 742.5 297.5 Q725 308 699 308 Q661 308 634.5 291 Q608 274 590.5 248 Q573 222 565 191.5 Q557 161 557 135 Q557 114 562 94.5 Q567 75 577.5 59 Q588 43 605.5 33.5 Q623 24 649 24 Z M1042 -12 Q1007 -12 982.5 0 Q958 12 942.5 32 Q927 52 920 77.5 Q913 103 913 130 Q913 162 923.5 199.5 Q934 237 956 269 Q978 301 1013 322.5 Q1048 344 1097 344 Q1132 344 1156.5 331 Q1181 318 1196 297 Q1211 276 1217.5 250.5 Q1224 225 1224 200 Q1224 165 1214 128 Q1204 91 1182 59.5 Q1160 28 1125.5 8 Q1091 -12 1042 -12 Z M1044 24 Q1081 24 1108 40.5 Q1135 57 1152 82 Q1169 107 1177.5 137 Q1186 167 1186 195 Q1186 214 1181.5 234.5 Q1177 255 1166 271 Q1155 287 1137.5 297.5 Q1120 308 1094 308 Q1056 308 1029.5 291 Q1003 274 985.5 248 Q968 222 960 191.5 Q952 161 952 135 Q952 114 957 94.5 Q962 75 972.5 59 Q983 43 1000.5 33.5 Q1018 24 1044 24 Z " />
<glyph glyph-name="Acircumflex" unicode="&#xc2;" horiz-adv-x="638" d="M515 0 L482 197 L198 197 L98 0 L58 0 L413 700 L439 700 L552 0 L515 0 Z M478 227 L432 528 Q431 534 428.5 548 Q426 562 423.5 578.5 Q421 595 418.5 612 Q416 629 415 640 Q410 628 402.5 611 Q395 594 387 577 Q379 560 372.5 546.5 Q366 533 364 528 L212 227 L478 227 Z M269 766 L448 922 L480 922 L603 766 L568 766 L459 886 L308 766 L269 766 Z " />
<glyph glyph-name="Ecircumflex" unicode="&#xca;" horiz-adv-x="562" d="M87 0 L210 700 L567 700 L562 667 L242 667 L191 379 L404 379 L398 346 L185 346 L130 33 L472 33 L466 0 L87 0 Z M231 766 L410 922 L442 922 L565 766 L530 766 L421 886 L270 766 L231 766 Z " />
<glyph glyph-name="Aacute" unicode="&#xc1;" horiz-adv-x="638" d="M515 0 L482 197 L198 197 L98 0 L58 0 L413 700 L439 700 L552 0 L515 0 Z M478 227 L432 528 Q431 534 428.5 548 Q426 562 423.5 578.5 Q421 595 418.5 612 Q416 629 415 640 Q410 628 402.5 611 Q395 594 387 577 Q379 560 372.5 546.5 Q366 533 364 528 L212 227 L478 227 Z M404 766 L367 766 L545 922 L600 922 L404 766 Z " />
<glyph glyph-name="Edieresis" unicode="&#xcb;" horiz-adv-x="562" d="M87 0 L210 700 L567 700 L562 667 L242 667 L191 379 L404 379 L398 346 L185 346 L130 33 L472 33 L466 0 L87 0 Z M318 794 Q307 794 300.5 801.5 Q294 809 294 820 Q295 834 305.5 844 Q316 854 330 854 Q341 854 347.5 846 Q354 838 354 827 Q353 813 342.5 803.5 Q332 794 318 794 Z M484 794 Q473 794 466.5 801.5 Q460 809 460 820 Q461 834 471.5 844 Q482 854 496 854 Q507 854 513.5 846 Q520 838 520 827 Q519 813 508.5 803.5 Q498 794 484 794 Z " />
<glyph glyph-name="Egrave" unicode="&#xc8;" horiz-adv-x="562" d="M87 0 L210 700 L567 700 L562 667 L242 667 L191 379 L404 379 L398 346 L185 346 L130 33 L472 33 L466 0 L87 0 Z M418 766 L276 922 L331 922 L455 766 L418 766 Z " />
<glyph glyph-name="Iacute" unicode="&#xcd;" horiz-adv-x="236" d="M87 0 L210 700 L247 700 L124 0 L87 0 Z M216 766 L179 766 L357 922 L412 922 L216 766 Z " />
<glyph glyph-name="Icircumflex" unicode="&#xce;" horiz-adv-x="236" d="M87 0 L210 700 L247 700 L124 0 L87 0 Z M70 766 L249 922 L281 922 L404 766 L369 766 L260 886 L109 766 L70 766 Z " />
<glyph glyph-name="Idieresis" unicode="&#xcf;" horiz-adv-x="236" d="M87 0 L210 700 L247 700 L124 0 L87 0 Z M160 794 Q149 794 142.5 801.5 Q136 809 136 820 Q137 834 147.5 844 Q158 854 172 854 Q183 854 189.5 846 Q196 838 196 827 Q195 813 184.5 803.5 Q174 794 160 794 Z M326 794 Q315 794 308.5 801.5 Q302 809 302 820 Q303 834 313.5 844 Q324 854 338 854 Q349 854 355.5 846 Q362 838 362 827 Q361 813 350.5 803.5 Q340 794 326 794 Z " />
<glyph glyph-name="Igrave" unicode="&#xcc;" horiz-adv-x="236" d="M87 0 L210 700 L247 700 L124 0 L87 0 Z M263 766 L121 922 L176 922 L300 766 L263 766 Z " />
<glyph glyph-name="Oacute" unicode="&#xd3;" horiz-adv-x="696" d="M338 24 Q390 24 431.5 42.5 Q473 61 505.5 92 Q538 123 561 164.5 Q584 206 599 251.5 Q614 297 621 344.5 Q628 392 628 436 Q628 483 618.5 526.5 Q609 570 587.5 603 Q566 636 531.5 656 Q497 676 447 676 Q369 676 313.5 636.5 Q258 597 222.5 536.5 Q187 476 170.5 404 Q154 332 154 266 Q154 218 163.5 174 Q173 130 195 96.5 Q217 63 252 43.5 Q287 24 338 24 Z M333 -12 Q274 -12 232.5 12 Q191 36 165 76 Q139 116 127 166.5 Q115 217 115 270 Q115 318 123.5 369 Q132 420 150 469.5 Q168 519 195 563 Q222 607 259.5 640 Q297 673 345 692.5 Q393 712 452 712 Q512 712 552.5 689 Q593 666 618.5 627.5 Q644 589 655 539 Q666 489 666 435 Q666 387 657.5 335 Q649 283 632 233 Q615 183 588 138.5 Q561 94 524 60.5 Q487 27 439.5 7.5 Q392 -12 333 -12 Z M429 766 L392 766 L570 922 L625 922 L429 766 Z " />
<glyph glyph-name="Ocircumflex" unicode="&#xd4;" horiz-adv-x="696" d="M338 24 Q390 24 431.5 42.5 Q473 61 505.5 92 Q538 123 561 164.5 Q584 206 599 251.5 Q614 297 621 344.5 Q628 392 628 436 Q628 483 618.5 526.5 Q609 570 587.5 603 Q566 636 531.5 656 Q497 676 447 676 Q369 676 313.5 636.5 Q258 597 222.5 536.5 Q187 476 170.5 404 Q154 332 154 266 Q154 218 163.5 174 Q173 130 195 96.5 Q217 63 252 43.5 Q287 24 338 24 Z M333 -12 Q274 -12 232.5 12 Q191 36 165 76 Q139 116 127 166.5 Q115 217 115 270 Q115 318 123.5 369 Q132 420 150 469.5 Q168 519 195 563 Q222 607 259.5 640 Q297 673 345 692.5 Q393 712 452 712 Q512 712 552.5 689 Q593 666 618.5 627.5 Q644 589 655 539 Q666 489 666 435 Q666 387 657.5 335 Q649 283 632 233 Q615 183 588 138.5 Q561 94 524 60.5 Q487 27 439.5 7.5 Q392 -12 333 -12 Z M293 766 L472 922 L504 922 L627 766 L592 766 L483 886 L332 766 L293 766 Z " />
<glyph glyph-name="Ograve" unicode="&#xd2;" horiz-adv-x="696" d="M338 24 Q390 24 431.5 42.5 Q473 61 505.5 92 Q538 123 561 164.5 Q584 206 599 251.5 Q614 297 621 344.5 Q628 392 628 436 Q628 483 618.5 526.5 Q609 570 587.5 603 Q566 636 531.5 656 Q497 676 447 676 Q369 676 313.5 636.5 Q258 597 222.5 536.5 Q187 476 170.5 404 Q154 332 154 266 Q154 218 163.5 174 Q173 130 195 96.5 Q217 63 252 43.5 Q287 24 338 24 Z M333 -12 Q274 -12 232.5 12 Q191 36 165 76 Q139 116 127 166.5 Q115 217 115 270 Q115 318 123.5 369 Q132 420 150 469.5 Q168 519 195 563 Q222 607 259.5 640 Q297 673 345 692.5 Q393 712 452 712 Q512 712 552.5 689 Q593 666 618.5 627.5 Q644 589 655 539 Q666 489 666 435 Q666 387 657.5 335 Q649 283 632 233 Q615 183 588 138.5 Q561 94 524 60.5 Q487 27 439.5 7.5 Q392 -12 333 -12 Z M496 766 L354 922 L409 922 L533 766 L496 766 Z " />
<glyph glyph-name="Uacute" unicode="&#xda;" horiz-adv-x="638" d="M305 -12 Q266 -12 232 -1 Q198 10 173.5 33 Q149 56 135 92.5 Q121 129 121 179 Q121 198 123 218.5 Q125 239 129 262 L206 700 L244 700 L168 269 Q163 245 161.5 224 Q160 203 160 185 Q160 134 173.5 102.5 Q187 71 208.5 53.5 Q230 36 255.5 29.5 Q281 23 305 23 Q340 23 374.5 32.5 Q409 42 439 67.5 Q469 93 492 137.5 Q515 182 527 251 L605 700 L642 700 L564 249 Q552 179 529 129.5 Q506 80 473 48.5 Q440 17 397.5 2.5 Q355 -12 305 -12 Z M403 766 L366 766 L544 922 L599 922 L403 766 Z " />
<glyph glyph-name="Ucircumflex" unicode="&#xdb;" horiz-adv-x="638" d="M305 -12 Q266 -12 232 -1 Q198 10 173.5 33 Q149 56 135 92.5 Q121 129 121 179 Q121 198 123 218.5 Q125 239 129 262 L206 700 L244 700 L168 269 Q163 245 161.5 224 Q160 203 160 185 Q160 134 173.5 102.5 Q187 71 208.5 53.5 Q230 36 255.5 29.5 Q281 23 305 23 Q340 23 374.5 32.5 Q409 42 439 67.5 Q469 93 492 137.5 Q515 182 527 251 L605 700 L642 700 L564 249 Q552 179 529 129.5 Q506 80 473 48.5 Q440 17 397.5 2.5 Q355 -12 305 -12 Z M268 766 L447 922 L479 922 L602 766 L567 766 L458 886 L307 766 L268 766 Z " />
<glyph glyph-name="Ugrave" unicode="&#xd9;" horiz-adv-x="638" d="M305 -12 Q266 -12 232 -1 Q198 10 173.5 33 Q149 56 135 92.5 Q121 129 121 179 Q121 198 123 218.5 Q125 239 129 262 L206 700 L244 700 L168 269 Q163 245 161.5 224 Q160 203 160 185 Q160 134 173.5 102.5 Q187 71 208.5 53.5 Q230 36 255.5 29.5 Q281 23 305 23 Q340 23 374.5 32.5 Q409 42 439 67.5 Q469 93 492 137.5 Q515 182 527 251 L605 700 L642 700 L564 249 Q552 179 529 129.5 Q506 80 473 48.5 Q440 17 397.5 2.5 Q355 -12 305 -12 Z M470 766 L328 922 L383 922 L507 766 L470 766 Z " />
<glyph glyph-name="dotlessi" unicode="&#x131;" horiz-adv-x="228" d="M86 0 L176 511 L211 511 L122 0 L86 0 Z " />
<glyph glyph-name="circumflex" unicode="&#x2c6;" horiz-adv-x="311" d="M68 576 L247 732 L279 732 L402 576 L367 576 L258 696 L107 576 L68 576 Z " />
<glyph glyph-name="tilde" unicode="&#x2dc;" horiz-adv-x="311" d="M322 602 Q296 602 276.5 614.5 Q257 627 239.5 642.5 Q222 658 204.5 670.5 Q187 683 166 683 Q118 683 101 606 L73 606 Q81 654 106.5 685 Q132 716 174 716 Q200 716 219.5 703.5 Q239 691 256.5 675.5 Q274 660 291.5 647.5 Q309 635 330 635 Q378 635 395 712 L423 712 Q415 664 389.5 633 Q364 602 322 602 Z " />
<glyph glyph-name="macron" unicode="&#xaf;" horiz-adv-x="311" d="M79 623 L85 656 L415 656 L409 623 L79 623 Z " />
<glyph glyph-name="breve" unicode="&#x2d8;" horiz-adv-x="311" d="M240 581 Q201 581 173.5 592 Q146 603 128.5 621 Q111 639 102.5 663 Q94 687 94 714 Q94 722 94 728 Q94 734 95 742 L128 742 Q127 734 127 727.5 Q127 721 127 714 Q127 661 160 637.5 Q193 614 242 614 Q270 614 296 622 Q322 630 343 646 Q364 662 379 686 Q394 710 400 742 L434 742 Q428 709 413.5 679.5 Q399 650 375 628 Q351 606 317.5 593.5 Q284 581 240 581 Z " />
<glyph glyph-name="dotaccent" unicode="&#x2d9;" horiz-adv-x="311" d="M241 606 Q230 606 223.5 613.5 Q217 621 217 632 Q218 646 228.5 656 Q239 666 253 666 Q264 666 270.5 658 Q277 650 277 639 Q276 625 265.5 615.5 Q255 606 241 606 Z " />
<glyph glyph-name="ring" unicode="&#x2da;" horiz-adv-x="311" d="M236 540 Q214 540 195 547.5 Q176 555 162 568.5 Q148 582 140 600.5 Q132 619 132 640 Q132 667 142 690 Q152 713 169 729.5 Q186 746 210 755.5 Q234 765 261 765 Q308 765 336.5 735 Q365 705 365 665 Q365 638 355 615 Q345 592 328 575.5 Q311 559 287 549.5 Q263 540 236 540 Z M236 571 Q276 571 303.5 597 Q331 623 331 665 Q331 695 311 714.5 Q291 734 261 734 Q242 734 224.5 727 Q207 720 194 708 Q181 696 173.5 678.5 Q166 661 166 640 Q166 608 186.5 589.5 Q207 571 236 571 Z " />
<glyph glyph-name="cedilla" unicode="&#xb8;" horiz-adv-x="311" d="M45 -234 Q22 -234 5.5 -226.5 Q-11 -219 -21 -206 L7 -188 Q13 -194 23 -199.5 Q33 -205 49 -205 Q84 -205 104 -184.5 Q124 -164 124 -135 Q124 -112 109.5 -98 Q95 -84 69 -84 Q47 -84 30 -92 L22 -80 L102 10 L126 10 L75 -59 Q120 -59 139.5 -81.5 Q159 -104 159 -131 Q159 -152 150.5 -170.5 Q142 -189 127 -203 Q112 -217 91 -225.5 Q70 -234 45 -234 Z " />
<glyph glyph-name="hungarumlaut" unicode="&#x2dd;" horiz-adv-x="311" d="M187 576 L150 576 L329 732 L384 732 L187 576 Z M385 576 L348 576 L527 732 L582 732 L385 576 Z " />
<glyph glyph-name="ogonek" unicode="&#x2db;" horiz-adv-x="311" d="M44 -234 Q10 -234 -13.5 -215 Q-37 -196 -37 -156 Q-37 -129 -25 -103.5 Q-13 -78 9 -56.5 Q31 -35 61 -18 Q91 -1 126 10 L158 10 Q-3 -53 -3 -151 Q-3 -180 13 -192.5 Q29 -205 49 -205 Q75 -205 92 -193.5 Q109 -182 118 -173 L139 -190 Q123 -207 99.5 -220.5 Q76 -234 44 -234 Z " />
<glyph glyph-name="caron" unicode="&#x2c7;" horiz-adv-x="311" d="M251 576 L219 576 L96 732 L131 732 L239 612 L391 732 L430 732 L251 576 Z " />
<glyph glyph-name="currency" unicode="&#xa4;" horiz-adv-x="611" d="M320 101 Q224 101 174 157 L88 83 L64 111 L153 186 Q128 232 128 297 Q128 353 147 401 Q166 449 200 485 L141 555 L175 583 L232 513 Q264 537 303 551 Q342 565 387 565 Q435 565 471 550 Q507 535 531 509 L617 583 L641 555 L552 480 Q578 433 578 369 Q578 313 558.5 265 Q539 217 505 181 L564 111 L530 83 L473 152 Q408 101 320 101 Z M319 138 Q366 138 406 155.5 Q446 173 475.5 204 Q505 235 521.5 277 Q538 319 538 369 Q538 440 498.5 484 Q459 528 387 528 Q340 528 299.5 510.5 Q259 493 230 462 Q201 431 184.5 388.5 Q168 346 168 297 Q168 226 207.5 182 Q247 138 319 138 Z " />
<glyph glyph-name="uni00AD" unicode="&#xad;" horiz-adv-x="379" d="M116 280 L122 316 L345 316 L339 280 L116 280 Z " />
<glyph glyph-name="Amacron" unicode="&#x100;" horiz-adv-x="638" d="M515 0 L482 197 L198 197 L98 0 L58 0 L413 700 L439 700 L552 0 L515 0 Z M478 227 L432 528 Q431 534 428.5 548 Q426 562 423.5 578.5 Q421 595 418.5 612 Q416 629 415 640 Q410 628 402.5 611 Q395 594 387 577 Q379 560 372.5 546.5 Q366 533 364 528 L212 227 L478 227 Z M280 813 L286 846 L616 846 L610 813 L280 813 Z " />
<glyph glyph-name="amacron" unicode="&#x101;" horiz-adv-x="497" d="M371 0 L384 75 Q352 40 309.5 14 Q267 -12 211 -12 Q150 -12 113.5 24.5 Q77 61 77 130 Q77 173 93 207.5 Q109 242 136.5 266.5 Q164 291 200.5 304 Q237 317 277 317 Q323 317 356.5 302.5 Q390 288 417 265 L429 330 Q433 353 434.5 367 Q436 381 436 394 Q436 423 428.5 441.5 Q421 460 408 471 Q395 482 377 486 Q359 490 339 490 Q295 490 252.5 473.5 Q210 457 178 439 L171 471 Q202 488 245.5 505.5 Q289 523 340 523 Q367 523 391 517 Q415 511 433 496 Q451 481 461.5 456.5 Q472 432 472 395 Q472 386 471 374 Q470 362 466 338 L407 0 L371 0 Z M213 21 Q243 21 268.5 30 Q294 39 316.5 53.5 Q339 68 357.5 86 Q376 104 392 122 L412 233 Q386 253 352 268 Q318 283 275 283 Q244 283 215.5 272.5 Q187 262 165.5 242 Q144 222 131 193.5 Q118 165 118 130 Q118 80 143 50.5 Q168 21 213 21 Z M193 623 L199 656 L529 656 L523 623 L193 623 Z " />
<glyph glyph-name="Abreve" unicode="&#x102;" horiz-adv-x="638" d="M515 0 L482 197 L198 197 L98 0 L58 0 L413 700 L439 700 L552 0 L515 0 Z M478 227 L432 528 Q431 534 428.5 548 Q426 562 423.5 578.5 Q421 595 418.5 612 Q416 629 415 640 Q410 628 402.5 611 Q395 594 387 577 Q379 560 372.5 546.5 Q366 533 364 528 L212 227 L478 227 Z M437 771 Q398 771 370.5 782 Q343 793 325.5 811 Q308 829 299.5 853 Q291 877 291 904 Q291 912 291 918 Q291 924 292 932 L325 932 Q324 924 324 917.5 Q324 911 324 904 Q324 851 357 827.5 Q390 804 439 804 Q467 804 493 812 Q519 820 540 836 Q561 852 576 876 Q591 900 597 932 L631 932 Q625 899 610.5 869.5 Q596 840 572 818 Q548 796 514.5 783.5 Q481 771 437 771 Z " />
<glyph glyph-name="abreve" unicode="&#x103;" horiz-adv-x="497" d="M371 0 L384 75 Q352 40 309.5 14 Q267 -12 211 -12 Q150 -12 113.5 24.5 Q77 61 77 130 Q77 173 93 207.5 Q109 242 136.5 266.5 Q164 291 200.5 304 Q237 317 277 317 Q323 317 356.5 302.5 Q390 288 417 265 L429 330 Q433 353 434.5 367 Q436 381 436 394 Q436 423 428.5 441.5 Q421 460 408 471 Q395 482 377 486 Q359 490 339 490 Q295 490 252.5 473.5 Q210 457 178 439 L171 471 Q202 488 245.5 505.5 Q289 523 340 523 Q367 523 391 517 Q415 511 433 496 Q451 481 461.5 456.5 Q472 432 472 395 Q472 386 471 374 Q470 362 466 338 L407 0 L371 0 Z M213 21 Q243 21 268.5 30 Q294 39 316.5 53.5 Q339 68 357.5 86 Q376 104 392 122 L412 233 Q386 253 352 268 Q318 283 275 283 Q244 283 215.5 272.5 Q187 262 165.5 242 Q144 222 131 193.5 Q118 165 118 130 Q118 80 143 50.5 Q168 21 213 21 Z M349 581 Q310 581 282.5 592 Q255 603 237.5 621 Q220 639 211.5 663 Q203 687 203 714 Q203 722 203 728 Q203 734 204 742 L237 742 Q236 734 236 727.5 Q236 721 236 714 Q236 661 269 637.5 Q302 614 351 614 Q379 614 405 622 Q431 630 452 646 Q473 662 488 686 Q503 710 509 742 L543 742 Q537 709 522.5 679.5 Q508 650 484 628 Q460 606 426.5 593.5 Q393 581 349 581 Z " />
<glyph glyph-name="Aogonek" unicode="&#x104;" horiz-adv-x="638" d="M552 0 Q525 -8 497.5 -20.5 Q470 -33 447 -51.5 Q424 -70 409.5 -94.5 Q395 -119 395 -150 Q395 -180 410.5 -192.5 Q426 -205 446 -205 Q472 -205 489 -193.5 Q506 -182 516 -173 L537 -190 Q520 -207 496.5 -220.5 Q473 -234 441 -234 Q407 -234 383.5 -215 Q360 -196 360 -156 Q360 -124 374 -98.5 Q388 -73 410.5 -53.5 Q433 -34 460.5 -20 Q488 -6 515 3 L482 197 L198 197 L98 0 L58 0 L413 700 L439 700 L552 0 Z M478 227 L432 529 Q431 536 428.5 550.5 Q426 565 423 581.5 Q420 598 418 614 Q416 630 415 640 Q410 628 403 611.5 Q396 595 388.5 578.5 Q381 562 374.5 548.5 Q368 535 365 530 L212 227 L478 227 Z " />
<glyph glyph-name="aogonek" unicode="&#x105;" horiz-adv-x="497" d="M316 -234 Q282 -234 258.5 -215 Q235 -196 235 -156 Q235 -106 273 -65.5 Q311 -25 371 0 L384 75 Q352 40 309.5 14 Q267 -12 211 -12 Q150 -12 113.5 24.5 Q77 61 77 130 Q77 173 93 207.5 Q109 242 136.5 266.5 Q164 291 200.5 304 Q237 317 277 317 Q323 317 356.5 302.5 Q390 288 417 265 L429 330 Q433 353 434.5 367 Q436 381 436 394 Q436 423 428.5 441.5 Q421 460 408 471 Q395 482 377 486 Q359 490 339 490 Q295 490 252.5 473.5 Q210 457 178 439 L171 471 Q202 488 245.5 505.5 Q289 523 340 523 Q367 523 391 517 Q415 511 433 496 Q451 481 461.5 456.5 Q472 432 472 395 Q472 386 471.5 374 Q471 362 466 338 L407 0 Q269 -60 269 -151 Q269 -180 285 -192.5 Q301 -205 321 -205 Q347 -205 364 -193.5 Q381 -182 390 -173 L411 -190 Q395 -207 371.5 -220.5 Q348 -234 316 -234 Z M213 21 Q243 21 268.5 30 Q294 39 316.5 53.5 Q339 68 357.5 86 Q376 104 392 122 L412 233 Q386 253 352 268 Q318 283 275 283 Q244 283 215.5 272.5 Q187 262 165.5 242 Q144 222 131 193.5 Q118 165 118 130 Q118 80 143 50.5 Q168 21 213 21 Z " />
<glyph glyph-name="Cacute" unicode="&#x106;" horiz-adv-x="620" d="M327 -12 Q269 -12 229 11 Q189 34 163.5 73 Q138 112 126.5 162 Q115 212 115 266 Q115 348 137.5 428 Q160 508 202.5 571 Q245 634 307.5 673 Q370 712 450 712 Q491 712 520.5 702.5 Q550 693 570.5 677 Q591 661 605 640.5 Q619 620 629 599 L595 581 Q585 602 573 619 Q561 636 544 649 Q527 662 504 669 Q481 676 449 676 Q378 676 323.5 640 Q269 604 231.5 546 Q194 488 174.5 415 Q155 342 155 267 Q155 219 164.5 175 Q174 131 195 97.5 Q216 64 249.5 44 Q283 24 331 24 Q365 24 394 33.5 Q423 43 446.5 58 Q470 73 488 92 Q506 111 519 131 L553 116 Q538 92 517 69 Q496 46 468.5 28 Q441 10 406 -1 Q371 -12 327 -12 Z M439 766 L402 766 L580 922 L635 922 L439 766 Z " />
<glyph glyph-name="cacute" unicode="&#x107;" horiz-adv-x="453" d="M243 -12 Q171 -12 129 39.5 Q87 91 87 189 Q87 259 104 320 Q121 381 151.5 426 Q182 471 224.5 497 Q267 523 318 523 Q349 523 373 513.5 Q397 504 413.5 489 Q430 474 439.5 454.5 Q449 435 451 415 L417 402 Q410 443 384 465 Q358 487 317 487 Q274 487 238.5 464 Q203 441 178 400.5 Q153 360 139.5 306 Q126 252 126 189 Q126 111 155.5 67.5 Q185 24 243 24 Q285 24 319 49 Q353 74 373 119 L407 105 Q381 51 340 19.5 Q299 -12 243 -12 Z M312 576 L275 576 L453 732 L508 732 L312 576 Z " />
<glyph glyph-name="Ccircumflex" unicode="&#x108;" horiz-adv-x="620" d="M327 -12 Q269 -12 229 11 Q189 34 163.5 73 Q138 112 126.5 162 Q115 212 115 266 Q115 348 137.5 428 Q160 508 202.5 571 Q245 634 307.5 673 Q370 712 450 712 Q491 712 520.5 702.5 Q550 693 570.5 677 Q591 661 605 640.5 Q619 620 629 599 L595 581 Q585 602 573 619 Q561 636 544 649 Q527 662 504 669 Q481 676 449 676 Q378 676 323.5 640 Q269 604 231.5 546 Q194 488 174.5 415 Q155 342 155 267 Q155 219 164.5 175 Q174 131 195 97.5 Q216 64 249.5 44 Q283 24 331 24 Q365 24 394 33.5 Q423 43 446.5 58 Q470 73 488 92 Q506 111 519 131 L553 116 Q538 92 517 69 Q496 46 468.5 28 Q441 10 406 -1 Q371 -12 327 -12 Z M290 766 L469 922 L501 922 L624 766 L589 766 L480 886 L329 766 L290 766 Z " />
<glyph glyph-name="ccircumflex" unicode="&#x109;" horiz-adv-x="453" d="M243 -12 Q171 -12 129 39.5 Q87 91 87 189 Q87 259 104 320 Q121 381 151.5 426 Q182 471 224.5 497 Q267 523 318 523 Q349 523 373 513.5 Q397 504 413.5 489 Q430 474 439.5 454.5 Q449 435 451 415 L417 402 Q410 443 384 465 Q358 487 317 487 Q274 487 238.5 464 Q203 441 178 400.5 Q153 360 139.5 306 Q126 252 126 189 Q126 111 155.5 67.5 Q185 24 243 24 Q285 24 319 49 Q353 74 373 119 L407 105 Q381 51 340 19.5 Q299 -12 243 -12 Z M159 576 L338 732 L370 732 L493 576 L458 576 L349 696 L198 576 L159 576 Z " />
<glyph glyph-name="Cdotaccent" unicode="&#x10a;" horiz-adv-x="620" d="M327 -12 Q269 -12 229 11 Q189 34 163.5 73 Q138 112 126.5 162 Q115 212 115 266 Q115 348 137.5 428 Q160 508 202.5 571 Q245 634 307.5 673 Q370 712 450 712 Q491 712 520.5 702.5 Q550 693 570.5 677 Q591 661 605 640.5 Q619 620 629 599 L595 581 Q585 602 573 619 Q561 636 544 649 Q527 662 504 669 Q481 676 449 676 Q378 676 323.5 640 Q269 604 231.5 546 Q194 488 174.5 415 Q155 342 155 267 Q155 219 164.5 175 Q174 131 195 97.5 Q216 64 249.5 44 Q283 24 331 24 Q365 24 394 33.5 Q423 43 446.5 58 Q470 73 488 92 Q506 111 519 131 L553 116 Q538 92 517 69 Q496 46 468.5 28 Q441 10 406 -1 Q371 -12 327 -12 Z M464 796 Q453 796 446.5 803.5 Q440 811 440 822 Q441 836 451.5 846 Q462 856 476 856 Q487 856 493.5 848 Q500 840 500 829 Q499 815 488.5 805.5 Q478 796 464 796 Z " />
<glyph glyph-name="cdotaccent" unicode="&#x10b;" horiz-adv-x="453" d="M243 -12 Q171 -12 129 39.5 Q87 91 87 189 Q87 259 104 320 Q121 381 151.5 426 Q182 471 224.5 497 Q267 523 318 523 Q349 523 373 513.5 Q397 504 413.5 489 Q430 474 439.5 454.5 Q449 435 451 415 L417 402 Q410 443 384 465 Q358 487 317 487 Q274 487 238.5 464 Q203 441 178 400.5 Q153 360 139.5 306 Q126 252 126 189 Q126 111 155.5 67.5 Q185 24 243 24 Q285 24 319 49 Q353 74 373 119 L407 105 Q381 51 340 19.5 Q299 -12 243 -12 Z M331 606 Q320 606 313.5 613.5 Q307 621 307 632 Q308 646 318.5 656 Q329 666 343 666 Q354 666 360.5 658 Q367 650 367 639 Q366 625 355.5 615.5 Q345 606 331 606 Z " />
<glyph glyph-name="Ccaron" unicode="&#x10c;" horiz-adv-x="620" d="M327 -12 Q269 -12 229 11 Q189 34 163.5 73 Q138 112 126.5 162 Q115 212 115 266 Q115 348 137.5 428 Q160 508 202.5 571 Q245 634 307.5 673 Q370 712 450 712 Q491 712 520.5 702.5 Q550 693 570.5 677 Q591 661 605 640.5 Q619 620 629 599 L595 581 Q585 602 573 619 Q561 636 544 649 Q527 662 504 669 Q481 676 449 676 Q378 676 323.5 640 Q269 604 231.5 546 Q194 488 174.5 415 Q155 342 155 267 Q155 219 164.5 175 Q174 131 195 97.5 Q216 64 249.5 44 Q283 24 331 24 Q365 24 394 33.5 Q423 43 446.5 58 Q470 73 488 92 Q506 111 519 131 L553 116 Q538 92 517 69 Q496 46 468.5 28 Q441 10 406 -1 Q371 -12 327 -12 Z M477 766 L445 766 L322 922 L357 922 L465 802 L617 922 L656 922 L477 766 Z " />
<glyph glyph-name="ccaron" unicode="&#x10d;" horiz-adv-x="453" d="M243 -12 Q171 -12 129 39.5 Q87 91 87 189 Q87 259 104 320 Q121 381 151.5 426 Q182 471 224.5 497 Q267 523 318 523 Q349 523 373 513.5 Q397 504 413.5 489 Q430 474 439.5 454.5 Q449 435 451 415 L417 402 Q410 443 384 465 Q358 487 317 487 Q274 487 238.5 464 Q203 441 178 400.5 Q153 360 139.5 306 Q126 252 126 189 Q126 111 155.5 67.5 Q185 24 243 24 Q285 24 319 49 Q353 74 373 119 L407 105 Q381 51 340 19.5 Q299 -12 243 -12 Z M345 576 L313 576 L190 732 L225 732 L333 612 L485 732 L524 732 L345 576 Z " />
<glyph glyph-name="Dcaron" unicode="&#x10e;" horiz-adv-x="645" d="M210 700 L360 700 Q432 700 481 676.5 Q530 653 560.5 614 Q591 575 604 525 Q617 475 617 422 Q617 340 593 264 Q569 188 521 129.5 Q473 71 401 35.5 Q329 0 233 0 L87 0 L210 700 Z M240 36 Q319 36 381.5 66 Q444 96 487 148.5 Q530 201 553 271.5 Q576 342 576 422 Q576 469 565 513 Q554 557 528 590.5 Q502 624 459 644 Q416 664 353 664 L240 664 L131 36 L240 36 Z M416 766 L384 766 L261 922 L296 922 L404 802 L556 922 L595 922 L416 766 Z " />
<glyph glyph-name="dcaron" unicode="&#x10f;" horiz-adv-x="623" d="M409 73 Q369 27 329.5 7.5 Q290 -12 253 -12 Q176 -12 135.5 46.5 Q95 105 95 202 Q95 274 113 333.5 Q131 393 163.5 435 Q196 477 241 500 Q286 523 340 523 Q368 523 390.5 514.5 Q413 506 429 493.5 Q445 481 455.5 465 Q466 449 472 434 L520 704 L559 722 L433 0 L396 0 L409 73 Z M253 24 Q298 24 341 51.5 Q384 79 419 130 L463 384 Q457 400 447.5 418 Q438 436 423 451.5 Q408 467 387 477 Q366 487 338 487 Q291 487 253.5 466 Q216 445 189.5 407 Q163 369 148.5 316.5 Q134 264 134 202 Q134 165 141.5 132.5 Q149 100 163.5 76 Q178 52 200.5 38 Q223 24 253 24 Z M698 712 L695 694 Q681 622 658 569.5 Q635 517 603 484 L594 492 Q612 521 630 577.5 Q648 634 662 712 L698 712 Z " />
<glyph glyph-name="Dcroat" unicode="&#x110;" horiz-adv-x="645" d="M145 331 L77 331 L82 367 L151 367 L210 700 L360 700 Q432 700 481 676.5 Q530 653 560.5 614 Q591 575 604 525 Q617 475 617 422 Q617 340 593 264 Q569 188 521 129.5 Q473 71 401 35.5 Q329 0 233 0 L87 0 L145 331 Z M240 36 Q319 36 381.5 66 Q444 96 487 148.5 Q530 201 553 271.5 Q576 342 576 422 Q576 469 565 513 Q554 557 528 590.5 Q502 624 459 644 Q416 664 353 664 L240 664 L188 367 L363 367 L358 331 L182 331 L131 36 L240 36 Z " />
<glyph glyph-name="dcroat" unicode="&#x111;" horiz-adv-x="534" d="M532 568 L432 0 L396 0 L409 73 Q369 26 327 7 Q285 -12 247 -12 Q210 -12 180.5 2 Q151 16 130 41 Q109 66 98 101 Q87 136 87 177 Q87 248 105.5 306 Q124 364 157 405 Q190 446 235.5 468 Q281 490 334 490 Q361 490 383 482 Q405 474 421 461.5 Q437 449 448.5 433.5 Q460 418 466 403 L496 568 L352 568 L357 601 L501 601 L520 704 L559 722 L538 601 L609 601 L604 568 L532 568 Z M247 25 Q301 25 344 54 Q387 83 419 129 L458 351 Q452 367 442 385 Q432 403 417.5 418.5 Q403 434 382 444 Q361 454 332 454 Q284 454 246.5 433.5 Q209 413 182.5 376.5 Q156 340 142 289 Q128 238 128 177 Q128 147 136 119.5 Q144 92 159.5 71 Q175 50 197 37.5 Q219 25 247 25 Z " />
<glyph glyph-name="Emacron" unicode="&#x112;" horiz-adv-x="562" d="M87 0 L210 700 L567 700 L562 667 L242 667 L191 379 L404 379 L398 346 L185 346 L130 33 L472 33 L466 0 L87 0 Z M241 813 L247 846 L577 846 L571 813 L241 813 Z " />
<glyph glyph-name="emacron" unicode="&#x113;" horiz-adv-x="501" d="M129 245 Q126 218 126 191 Q126 154 132.5 123 Q139 92 154.5 70 Q170 48 195 36 Q220 24 257 24 Q286 24 317 35 Q348 46 379 69 L398 41 Q367 18 330.5 3 Q294 -12 248 -12 Q169 -12 128 40.5 Q87 93 87 191 Q87 267 106.5 328 Q126 389 159.5 432.5 Q193 476 238.5 499.5 Q284 523 335 523 Q367 523 395 513.5 Q423 504 443.5 483 Q464 462 476 429 Q488 396 488 350 Q488 311 476 256 L474 245 L129 245 Z M336 490 Q291 490 257 472 Q223 454 198 424.5 Q173 395 157.5 357 Q142 319 134 278 L443 278 Q446 298 448 315.5 Q450 333 450 350 Q450 392 439.5 419 Q429 446 412.5 461.5 Q396 477 375.5 483.5 Q355 490 336 490 Z M188 623 L194 656 L524 656 L518 623 L188 623 Z " />
<glyph glyph-name="Ebreve" unicode="&#x114;" horiz-adv-x="562" d="M87 0 L210 700 L567 700 L562 667 L242 667 L191 379 L404 379 L398 346 L185 346 L130 33 L472 33 L466 0 L87 0 Z M401 771 Q362 771 334.5 782 Q307 793 289.5 811 Q272 829 263.5 853 Q255 877 255 904 Q255 912 255 918 Q255 924 256 932 L289 932 Q288 924 288 917.5 Q288 911 288 904 Q288 851 321 827.5 Q354 804 403 804 Q431 804 457 812 Q483 820 504 836 Q525 852 540 876 Q555 900 561 932 L595 932 Q589 899 574.5 869.5 Q560 840 536 818 Q512 796 478.5 783.5 Q445 771 401 771 Z " />
<glyph glyph-name="ebreve" unicode="&#x115;" horiz-adv-x="501" d="M129 245 Q126 218 126 191 Q126 154 132.5 123 Q139 92 154.5 70 Q170 48 195 36 Q220 24 257 24 Q286 24 317 35 Q348 46 379 69 L398 41 Q367 18 330.5 3 Q294 -12 248 -12 Q169 -12 128 40.5 Q87 93 87 191 Q87 267 106.5 328 Q126 389 159.5 432.5 Q193 476 238.5 499.5 Q284 523 335 523 Q367 523 395 513.5 Q423 504 443.5 483 Q464 462 476 429 Q488 396 488 350 Q488 311 476 256 L474 245 L129 245 Z M336 490 Q291 490 257 472 Q223 454 198 424.5 Q173 395 157.5 357 Q142 319 134 278 L443 278 Q446 298 448 315.5 Q450 333 450 350 Q450 392 439.5 419 Q429 446 412.5 461.5 Q396 477 375.5 483.5 Q355 490 336 490 Z M346 581 Q307 581 279.5 592 Q252 603 234.5 621 Q217 639 208.5 663 Q200 687 200 714 Q200 722 200 728 Q200 734 201 742 L234 742 Q233 734 233 727.5 Q233 721 233 714 Q233 661 266 637.5 Q299 614 348 614 Q376 614 402 622 Q428 630 449 646 Q470 662 485 686 Q500 710 506 742 L540 742 Q534 709 519.5 679.5 Q505 650 481 628 Q457 606 423.5 593.5 Q390 581 346 581 Z " />
<glyph glyph-name="Edotaccent" unicode="&#x116;" horiz-adv-x="562" d="M87 0 L210 700 L567 700 L562 667 L242 667 L191 379 L404 379 L398 346 L185 346 L130 33 L472 33 L466 0 L87 0 Z M403 796 Q392 796 385.5 803.5 Q379 811 379 822 Q380 836 390.5 846 Q401 856 415 856 Q426 856 432.5 848 Q439 840 439 829 Q438 815 427.5 805.5 Q417 796 403 796 Z " />
<glyph glyph-name="edotaccent" unicode="&#x117;" horiz-adv-x="501" d="M129 245 Q126 218 126 191 Q126 154 132.5 123 Q139 92 154.5 70 Q170 48 195 36 Q220 24 257 24 Q286 24 317 35 Q348 46 379 69 L398 41 Q367 18 330.5 3 Q294 -12 248 -12 Q169 -12 128 40.5 Q87 93 87 191 Q87 267 106.5 328 Q126 389 159.5 432.5 Q193 476 238.5 499.5 Q284 523 335 523 Q367 523 395 513.5 Q423 504 443.5 483 Q464 462 476 429 Q488 396 488 350 Q488 311 476 256 L474 245 L129 245 Z M336 490 Q291 490 257 472 Q223 454 198 424.5 Q173 395 157.5 357 Q142 319 134 278 L443 278 Q446 298 448 315.5 Q450 333 450 350 Q450 392 439.5 419 Q429 446 412.5 461.5 Q396 477 375.5 483.5 Q355 490 336 490 Z M347 606 Q336 606 329.5 613.5 Q323 621 323 632 Q324 646 334.5 656 Q345 666 359 666 Q370 666 376.5 658 Q383 650 383 639 Q382 625 371.5 615.5 Q361 606 347 606 Z " />
<glyph glyph-name="Eogonek" unicode="&#x118;" horiz-adv-x="562" d="M305 -234 Q271 -234 247.5 -215 Q224 -196 224 -156 Q224 -129 235.5 -105 Q247 -81 266 -61.5 Q285 -42 309.5 -26.5 Q334 -11 360 0 L87 0 L210 700 L567 700 L562 667 L242 667 L191 379 L404 379 L398 346 L185 346 L130 33 L472 33 L466 0 L436 0 Q410 0 379 -11 Q348 -22 321 -41.5 Q294 -61 276 -89 Q258 -117 258 -150 Q258 -179 273.5 -192 Q289 -205 309 -205 Q336 -205 352 -194 Q368 -183 379 -173 L400 -190 Q384 -207 360.5 -220.5 Q337 -234 305 -234 Z " />
<glyph glyph-name="eogonek" unicode="&#x119;" horiz-adv-x="501" d="M237 -234 Q203 -234 179.5 -215 Q156 -196 156 -156 Q156 -111 186 -74 Q216 -37 266 -11 Q261 -12 257 -12 Q253 -12 248 -12 Q169 -12 128 40.5 Q87 93 87 191 Q87 267 106.5 328 Q126 389 159.5 432.5 Q193 476 238.5 499.5 Q284 523 335 523 Q367 523 395 513.5 Q423 504 443.5 483 Q464 462 476 429 Q488 396 488 350 Q488 311 476 256 L474 245 L129 245 Q126 218 126 191 Q126 154 132.5 123 Q139 92 154.5 70 Q170 48 195 36 Q220 24 257 24 Q286 24 317 35 Q348 46 379 69 L398 41 Q385 31 370.5 22.5 Q356 14 336 5 Q190 -57 190 -151 Q190 -180 206 -192.5 Q222 -205 242 -205 Q268 -205 285 -193.5 Q302 -182 311 -173 L332 -190 Q316 -207 292.5 -220.5 Q269 -234 237 -234 Z M336 490 Q291 490 257 472 Q223 454 198 424.5 Q173 395 157.5 357 Q142 319 134 278 L443 278 Q446 298 448 315.5 Q450 333 450 350 Q450 392 439.5 419 Q429 446 412.5 461.5 Q396 477 375.5 483.5 Q355 490 336 490 Z " />
<glyph glyph-name="Ecaron" unicode="&#x11a;" horiz-adv-x="562" d="M87 0 L210 700 L567 700 L562 667 L242 667 L191 379 L404 379 L398 346 L185 346 L130 33 L472 33 L466 0 L87 0 Z M416 766 L384 766 L261 922 L296 922 L404 802 L556 922 L595 922 L416 766 Z " />
<glyph glyph-name="ecaron" unicode="&#x11b;" horiz-adv-x="501" d="M129 245 Q126 218 126 191 Q126 154 132.5 123 Q139 92 154.5 70 Q170 48 195 36 Q220 24 257 24 Q286 24 317 35 Q348 46 379 69 L398 41 Q367 18 330.5 3 Q294 -12 248 -12 Q169 -12 128 40.5 Q87 93 87 191 Q87 267 106.5 328 Q126 389 159.5 432.5 Q193 476 238.5 499.5 Q284 523 335 523 Q367 523 395 513.5 Q423 504 443.5 483 Q464 462 476 429 Q488 396 488 350 Q488 311 476 256 L474 245 L129 245 Z M336 490 Q291 490 257 472 Q223 454 198 424.5 Q173 395 157.5 357 Q142 319 134 278 L443 278 Q446 298 448 315.5 Q450 333 450 350 Q450 392 439.5 419 Q429 446 412.5 461.5 Q396 477 375.5 483.5 Q355 490 336 490 Z M362 576 L330 576 L207 732 L242 732 L350 612 L502 732 L541 732 L362 576 Z " />
<glyph glyph-name="Gcircumflex" unicode="&#x11c;" horiz-adv-x="661" d="M329 -12 Q271 -12 230 11 Q189 34 163.5 72 Q138 110 126.5 160.5 Q115 211 115 265 Q115 347 136.5 427 Q158 507 200 570.5 Q242 634 305 673 Q368 712 452 712 Q489 712 517 703.5 Q545 695 566 681.5 Q587 668 601.5 651 Q616 634 626 616 L590 595 Q573 627 539.5 651.5 Q506 676 448 676 Q397 676 355 658 Q313 640 280.5 609 Q248 578 224 537 Q200 496 184.5 451 Q169 406 161.5 359 Q154 312 154 269 Q154 220 164 175.5 Q174 131 195 97.5 Q216 64 249.5 44 Q283 24 331 24 Q416 24 474.5 84 Q533 144 556 269 L558 281 L416 281 L421 316 L602 316 L596 281 Q582 203 556.5 147.5 Q531 92 496 56.5 Q461 21 418.5 4.5 Q376 -12 329 -12 Z M293 766 L472 922 L504 922 L627 766 L592 766 L483 886 L332 766 L293 766 Z " />
<glyph glyph-name="gcircumflex" unicode="&#x11d;" horiz-adv-x="536" d="M160 -181 Q216 -178 256.5 -166.5 Q297 -155 324.5 -134.5 Q352 -114 368 -85 Q384 -56 391 -18 L409 84 Q377 34 334 11 Q291 -12 243 -12 Q177 -12 133 40 Q89 92 89 195 Q89 270 108 330.5 Q127 391 160 434 Q193 477 238 500 Q283 523 336 523 Q364 523 386 515.5 Q408 508 425 495.5 Q442 483 453.5 467.5 Q465 452 471 437 L484 511 L520 511 L427 -23 Q417 -78 392 -113.5 Q367 -149 332 -170 Q297 -191 256 -200.5 Q215 -210 174 -213 L160 -181 Z M250 24 Q278 24 302.5 33 Q327 42 348 57 Q369 72 386.5 92 Q404 112 418 135 L462 389 Q445 437 410.5 462 Q376 487 333 487 Q285 487 247 466 Q209 445 182.5 407 Q156 369 142 316.5 Q128 264 128 201 Q128 116 162 70 Q196 24 250 24 Z M178 576 L357 732 L389 732 L512 576 L477 576 L368 696 L217 576 L178 576 Z " />
<glyph glyph-name="Gbreve" unicode="&#x11e;" horiz-adv-x="661" d="M329 -12 Q271 -12 230 11 Q189 34 163.5 72 Q138 110 126.5 160.5 Q115 211 115 265 Q115 347 136.5 427 Q158 507 200 570.5 Q242 634 305 673 Q368 712 452 712 Q489 712 517 703.5 Q545 695 566 681.5 Q587 668 601.5 651 Q616 634 626 616 L590 595 Q573 627 539.5 651.5 Q506 676 448 676 Q397 676 355 658 Q313 640 280.5 609 Q248 578 224 537 Q200 496 184.5 451 Q169 406 161.5 359 Q154 312 154 269 Q154 220 164 175.5 Q174 131 195 97.5 Q216 64 249.5 44 Q283 24 331 24 Q416 24 474.5 84 Q533 144 556 269 L558 281 L416 281 L421 316 L602 316 L596 281 Q582 203 556.5 147.5 Q531 92 496 56.5 Q461 21 418.5 4.5 Q376 -12 329 -12 Z M464 771 Q425 771 397.5 782 Q370 793 352.5 811 Q335 829 326.5 853 Q318 877 318 904 Q318 912 318 918 Q318 924 319 932 L352 932 Q351 924 351 917.5 Q351 911 351 904 Q351 851 384 827.5 Q417 804 466 804 Q494 804 520 812 Q546 820 567 836 Q588 852 603 876 Q618 900 624 932 L658 932 Q652 899 637.5 869.5 Q623 840 599 818 Q575 796 541.5 783.5 Q508 771 464 771 Z " />
<glyph glyph-name="gbreve" unicode="&#x11f;" horiz-adv-x="536" d="M160 -181 Q216 -178 256.5 -166.5 Q297 -155 324.5 -134.5 Q352 -114 368 -85 Q384 -56 391 -18 L409 84 Q377 34 334 11 Q291 -12 243 -12 Q177 -12 133 40 Q89 92 89 195 Q89 270 108 330.5 Q127 391 160 434 Q193 477 238 500 Q283 523 336 523 Q364 523 386 515.5 Q408 508 425 495.5 Q442 483 453.5 467.5 Q465 452 471 437 L484 511 L520 511 L427 -23 Q417 -78 392 -113.5 Q367 -149 332 -170 Q297 -191 256 -200.5 Q215 -210 174 -213 L160 -181 Z M250 24 Q278 24 302.5 33 Q327 42 348 57 Q369 72 386.5 92 Q404 112 418 135 L462 389 Q445 437 410.5 462 Q376 487 333 487 Q285 487 247 466 Q209 445 182.5 407 Q156 369 142 316.5 Q128 264 128 201 Q128 116 162 70 Q196 24 250 24 Z M348 581 Q309 581 281.5 592 Q254 603 236.5 621 Q219 639 210.5 663 Q202 687 202 714 Q202 722 202 728 Q202 734 203 742 L236 742 Q235 734 235 727.5 Q235 721 235 714 Q235 661 268 637.5 Q301 614 350 614 Q378 614 404 622 Q430 630 451 646 Q472 662 487 686 Q502 710 508 742 L542 742 Q536 709 521.5 679.5 Q507 650 483 628 Q459 606 425.5 593.5 Q392 581 348 581 Z " />
<glyph glyph-name="Gdotaccent" unicode="&#x120;" horiz-adv-x="661" d="M329 -12 Q271 -12 230 11 Q189 34 163.5 72 Q138 110 126.5 160.5 Q115 211 115 265 Q115 347 136.5 427 Q158 507 200 570.5 Q242 634 305 673 Q368 712 452 712 Q489 712 517 703.5 Q545 695 566 681.5 Q587 668 601.5 651 Q616 634 626 616 L590 595 Q573 627 539.5 651.5 Q506 676 448 676 Q397 676 355 658 Q313 640 280.5 609 Q248 578 224 537 Q200 496 184.5 451 Q169 406 161.5 359 Q154 312 154 269 Q154 220 164 175.5 Q174 131 195 97.5 Q216 64 249.5 44 Q283 24 331 24 Q416 24 474.5 84 Q533 144 556 269 L558 281 L416 281 L421 316 L602 316 L596 281 Q582 203 556.5 147.5 Q531 92 496 56.5 Q461 21 418.5 4.5 Q376 -12 329 -12 Z M466 796 Q455 796 448.5 803.5 Q442 811 442 822 Q443 836 453.5 846 Q464 856 478 856 Q489 856 495.5 848 Q502 840 502 829 Q501 815 490.5 805.5 Q480 796 466 796 Z " />
<glyph glyph-name="gdotaccent" unicode="&#x121;" horiz-adv-x="536" d="M160 -181 Q216 -178 256.5 -166.5 Q297 -155 324.5 -134.5 Q352 -114 368 -85 Q384 -56 391 -18 L409 84 Q377 34 334 11 Q291 -12 243 -12 Q177 -12 133 40 Q89 92 89 195 Q89 270 108 330.5 Q127 391 160 434 Q193 477 238 500 Q283 523 336 523 Q364 523 386 515.5 Q408 508 425 495.5 Q442 483 453.5 467.5 Q465 452 471 437 L484 511 L520 511 L427 -23 Q417 -78 392 -113.5 Q367 -149 332 -170 Q297 -191 256 -200.5 Q215 -210 174 -213 L160 -181 Z M250 24 Q278 24 302.5 33 Q327 42 348 57 Q369 72 386.5 92 Q404 112 418 135 L462 389 Q445 437 410.5 462 Q376 487 333 487 Q285 487 247 466 Q209 445 182.5 407 Q156 369 142 316.5 Q128 264 128 201 Q128 116 162 70 Q196 24 250 24 Z M351 606 Q340 606 333.5 613.5 Q327 621 327 632 Q328 646 338.5 656 Q349 666 363 666 Q374 666 380.5 658 Q387 650 387 639 Q386 625 375.5 615.5 Q365 606 351 606 Z " />
<glyph glyph-name="Gcommaaccent" unicode="&#x122;" horiz-adv-x="661" d="M329 -12 Q271 -12 230 11 Q189 34 163.5 72 Q138 110 126.5 160.5 Q115 211 115 265 Q115 347 136.5 427 Q158 507 200 570.5 Q242 634 305 673 Q368 712 452 712 Q489 712 517 703.5 Q545 695 566 681.5 Q587 668 601.5 651 Q616 634 626 616 L590 595 Q573 627 539.5 651.5 Q506 676 448 676 Q397 676 355 658 Q313 640 280.5 609 Q248 578 224 537 Q200 496 184.5 451 Q169 406 161.5 359 Q154 312 154 269 Q154 220 164 175.5 Q174 131 195 97.5 Q216 64 249.5 44 Q283 24 331 24 Q416 24 474.5 84 Q533 144 556 269 L558 281 L416 281 L421 316 L602 316 L596 281 Q582 203 556.5 147.5 Q531 92 496 56.5 Q461 21 418.5 4.5 Q376 -12 329 -12 Z M259 -242 Q277 -222 292 -190.5 Q307 -159 312 -131 Q313 -126 313 -118 Q302 -118 294 -111 Q286 -104 286 -92 Q286 -78 295 -68 Q304 -58 319 -58 Q330 -58 338.5 -66 Q347 -74 347 -93 Q347 -114 339.5 -136.5 Q332 -159 320 -179.5 Q308 -200 294 -217.5 Q280 -235 268 -245 L259 -242 Z " />
<glyph glyph-name="gcommaaccent" unicode="&#x123;" horiz-adv-x="536" d="M160 -181 Q216 -178 256.5 -166.5 Q297 -155 324.5 -134.5 Q352 -114 368 -85 Q384 -56 391 -18 L409 84 Q377 34 334 11 Q291 -12 243 -12 Q177 -12 133 40 Q89 92 89 195 Q89 270 108 330.5 Q127 391 160 434 Q193 477 238 500 Q283 523 336 523 Q364 523 386 515.5 Q408 508 425 495.5 Q442 483 453.5 467.5 Q465 452 471 437 L484 511 L520 511 L427 -23 Q417 -78 392 -113.5 Q367 -149 332 -170 Q297 -191 256 -200.5 Q215 -210 174 -213 L160 -181 Z M250 24 Q278 24 302.5 33 Q327 42 348 57 Q369 72 386.5 92 Q404 112 418 135 L462 389 Q445 437 410.5 462 Q376 487 333 487 Q285 487 247 466 Q209 445 182.5 407 Q156 369 142 316.5 Q128 264 128 201 Q128 116 162 70 Q196 24 250 24 Z M410 787 Q392 767 377 735.5 Q362 704 357 676 Q356 671 356 663 Q367 663 375 656 Q383 649 383 637 Q383 623 374 613 Q365 603 350 603 Q339 603 330.5 611 Q322 619 322 638 Q322 659 329.5 681.5 Q337 704 349 724.5 Q361 745 375 762 Q389 779 401 790 L410 787 Z " />
<glyph glyph-name="Hcircumflex" unicode="&#x124;" horiz-adv-x="648" d="M488 0 L549 347 L185 347 L124 0 L87 0 L210 700 L247 700 L192 381 L556 381 L611 700 L648 700 L525 0 L488 0 Z M270 766 L449 922 L481 922 L604 766 L569 766 L460 886 L309 766 L270 766 Z " />
<glyph glyph-name="hcircumflex" unicode="&#x125;" horiz-adv-x="532" d="M355 523 Q418 523 453 488 Q488 453 488 383 Q488 349 482 312 L427 0 L391 0 L446 316 Q449 335 450 350.5 Q451 366 451 383 Q451 440 423 464.5 Q395 489 350 489 Q319 489 290.5 479 Q262 469 239 446.5 Q216 424 198.5 386.5 Q181 349 172 295 L121 0 L84 0 L208 704 L247 722 L194 419 Q209 447 228.5 467 Q248 487 270 499.5 Q292 512 313.5 517.5 Q335 523 355 523 Z M228 765 L407 921 L439 921 L562 765 L527 765 L418 885 L267 765 L228 765 Z " />
<glyph glyph-name="Hbar" unicode="&#x126;" horiz-adv-x="648" d="M488 0 L549 347 L185 347 L124 0 L87 0 L183 548 L100 548 L107 582 L190 582 L210 700 L247 700 L226 582 L591 582 L611 700 L648 700 L628 582 L711 582 L704 548 L621 548 L525 0 L488 0 Z M556 381 L585 548 L221 548 L192 381 L556 381 Z " />
<glyph glyph-name="hbar" unicode="&#x127;" horiz-adv-x="532" d="M391 0 L439 277 Q443 298 444 315 Q445 332 445 346 Q445 380 435.5 401.5 Q426 423 412 435 Q398 447 381 451.5 Q364 456 348 456 Q315 456 286.5 446.5 Q258 437 234.5 415 Q211 393 194 356 Q177 319 167 264 L121 0 L84 0 L184 568 L116 568 L121 601 L190 601 L208 704 L247 722 L226 601 L377 601 L372 568 L220 568 L188 386 Q219 443 263.5 466.5 Q308 490 348 490 Q414 490 448 453.5 Q482 417 482 347 Q482 315 476 279 L427 0 L391 0 Z " />
<glyph glyph-name="Itilde" unicode="&#x128;" horiz-adv-x="236" d="M87 0 L210 700 L247 700 L124 0 L87 0 Z M328 792 Q302 792 282.5 804.5 Q263 817 245.5 832.5 Q228 848 210.5 860.5 Q193 873 172 873 Q124 873 107 796 L79 796 Q87 844 112.5 875 Q138 906 180 906 Q206 906 225.5 893.5 Q245 881 262.5 865.5 Q280 850 297.5 837.5 Q315 825 336 825 Q384 825 401 902 L429 902 Q421 854 395.5 823 Q370 792 328 792 Z " />
<glyph glyph-name="itilde" unicode="&#x129;" horiz-adv-x="228" d="M86 0 L176 511 L211 511 L122 0 L86 0 Z M294 602 Q268 602 248.5 614.5 Q229 627 211.5 642.5 Q194 658 176.5 670.5 Q159 683 138 683 Q90 683 73 606 L45 606 Q53 654 78.5 685 Q104 716 146 716 Q172 716 191.5 703.5 Q211 691 228.5 675.5 Q246 660 263.5 647.5 Q281 635 302 635 Q350 635 367 712 L395 712 Q387 664 361.5 633 Q336 602 294 602 Z " />
<glyph glyph-name="Imacron" unicode="&#x12a;" horiz-adv-x="236" d="M87 0 L210 700 L247 700 L124 0 L87 0 Z M83 813 L89 846 L419 846 L413 813 L83 813 Z " />
<glyph glyph-name="imacron" unicode="&#x12b;" horiz-adv-x="228" d="M86 0 L176 511 L211 511 L122 0 L86 0 Z M49 623 L55 656 L385 656 L379 623 L49 623 Z " />
<glyph glyph-name="Ibreve" unicode="&#x12c;" horiz-adv-x="236" d="M87 0 L210 700 L247 700 L124 0 L87 0 Z M242 771 Q203 771 175.5 782 Q148 793 130.5 811 Q113 829 104.5 853 Q96 877 96 904 Q96 912 96 918 Q96 924 97 932 L130 932 Q129 924 129 917.5 Q129 911 129 904 Q129 851 162 827.5 Q195 804 244 804 Q272 804 298 812 Q324 820 345 836 Q366 852 381 876 Q396 900 402 932 L436 932 Q430 899 415.5 869.5 Q401 840 377 818 Q353 796 319.5 783.5 Q286 771 242 771 Z " />
<glyph glyph-name="ibreve" unicode="&#x12d;" horiz-adv-x="228" d="M86 0 L176 511 L211 511 L122 0 L86 0 Z M205 581 Q166 581 138.5 592 Q111 603 93.5 621 Q76 639 67.5 663 Q59 687 59 714 Q59 722 59 728 Q59 734 60 742 L93 742 Q92 734 92 727.5 Q92 721 92 714 Q92 661 125 637.5 Q158 614 207 614 Q235 614 261 622 Q287 630 308 646 Q329 662 344 686 Q359 710 365 742 L399 742 Q393 709 378.5 679.5 Q364 650 340 628 Q316 606 282.5 593.5 Q249 581 205 581 Z " />
<glyph glyph-name="Iogonek" unicode="&#x12e;" horiz-adv-x="236" d="M63 -234 Q29 -234 5.5 -215 Q-18 -196 -18 -156 Q-18 -132 -9.5 -109 Q-1 -86 13.5 -66 Q28 -46 47.5 -28.5 Q67 -11 88 3 L210 700 L247 700 L124 0 Q104 -11 85 -26 Q66 -41 50.5 -60.5 Q35 -80 25.5 -102.5 Q16 -125 16 -150 Q16 -181 32 -193 Q48 -205 68 -205 Q94 -205 111 -193.5 Q128 -182 137 -173 L158 -190 Q142 -207 118.5 -220.5 Q95 -234 63 -234 Z " />
<glyph glyph-name="iogonek" unicode="&#x12f;" horiz-adv-x="228" d="M62 -234 Q30 -234 6 -215 Q-18 -196 -18 -156 Q-18 -138 -11.5 -116.5 Q-5 -95 7.5 -74 Q20 -53 39.5 -33.5 Q59 -14 86 1 L176 511 L212 511 L123 0 Q67 -30 41.5 -71.5 Q16 -113 16 -151 Q16 -178 31.5 -191.5 Q47 -205 67 -205 Q93 -205 110.5 -193.5 Q128 -182 137 -173 L158 -190 Q141 -207 117.5 -220.5 Q94 -234 62 -234 Z M215 633 Q204 633 197.5 640 Q191 647 191 658 Q191 672 200 682.5 Q209 693 225 693 Q237 693 243 685.5 Q249 678 249 667 Q249 653 240 643 Q231 633 215 633 Z " />
<glyph glyph-name="Idotaccent" unicode="&#x130;" horiz-adv-x="236" d="M87 0 L210 700 L247 700 L124 0 L87 0 Z M244 796 Q233 796 226.5 803.5 Q220 811 220 822 Q221 836 231.5 846 Q242 856 256 856 Q267 856 273.5 848 Q280 840 280 829 Q279 815 268.5 805.5 Q258 796 244 796 Z " />
<glyph glyph-name="IJ" unicode="&#x132;" horiz-adv-x="722" d="M87 0 L210 700 L247 700 L124 0 L87 0 Z M414 -12 Q378 -12 350.5 -2.5 Q323 7 302.5 23 Q282 39 269 61 Q256 83 249 107 L282 123 Q288 102 297.5 84 Q307 66 322.5 52 Q338 38 360 30 Q382 22 414 22 Q444 22 474 31 Q504 40 530.5 62.5 Q557 85 577 124 Q597 163 608 223 L691 700 L729 700 L646 225 Q633 153 608.5 107 Q584 61 552.5 34.5 Q521 8 485 -2 Q449 -12 414 -12 Z " />
<glyph glyph-name="ij" unicode="&#x133;" horiz-adv-x="436" d="M86 0 L176 511 L212 511 L123 0 L86 0 Z M213 623 Q202 623 195.5 630 Q189 637 189 648 Q189 662 198 672.5 Q207 683 223 683 Q235 683 241 675.5 Q247 668 247 657 Q247 643 238 633 Q229 623 213 623 Z M318 -40 Q309 -90 292 -122.5 Q275 -155 252.5 -174 Q230 -193 203.5 -201.5 Q177 -210 148 -213 L135 -182 Q167 -179 191.5 -170 Q216 -161 233.5 -144.5 Q251 -128 263 -102.5 Q275 -77 281 -40 L378 511 L414 511 L318 -40 Z M415 623 Q404 623 397.5 630 Q391 637 391 648 Q391 662 400 672.5 Q409 683 425 683 Q437 683 443 675.5 Q449 668 449 657 Q449 643 440 633 Q431 623 415 623 Z " />
<glyph glyph-name="Jcircumflex" unicode="&#x134;" horiz-adv-x="512" d="M204 -12 Q168 -12 140.5 -2.5 Q113 7 92.5 23 Q72 39 59 61 Q46 83 39 107 L72 123 Q78 102 87.5 84 Q97 66 112.5 52 Q128 38 150 30 Q172 22 204 22 Q234 22 264 31 Q294 40 320.5 62.5 Q347 85 367 124 Q387 163 398 223 L481 700 L519 700 L436 225 Q423 153 398.5 107 Q374 61 342.5 34.5 Q311 8 275 -2 Q239 -12 204 -12 Z M343 766 L522 922 L554 922 L677 766 L642 766 L533 886 L382 766 L343 766 Z " />
<glyph glyph-name="jcircumflex" unicode="&#x135;" horiz-adv-x="234" d="M116 -40 Q107 -90 90 -122.5 Q73 -155 50.5 -174 Q28 -193 1.5 -201.5 Q-25 -210 -54 -213 L-67 -182 Q-35 -179 -10.5 -170 Q14 -161 31.5 -144.5 Q49 -128 61 -102.5 Q73 -77 79 -40 L176 511 L212 511 L116 -40 Z M37 576 L216 732 L248 732 L371 576 L336 576 L227 696 L76 576 L37 576 Z " />
<glyph glyph-name="Kcommaaccent" unicode="&#x136;" horiz-adv-x="599" d="M485 0 L331 434 L170 264 L124 0 L87 0 L210 700 L247 700 L180 319 L541 700 L584 700 L359 463 L523 0 L485 0 Z M236 -242 Q254 -222 269 -190.5 Q284 -159 289 -131 Q290 -126 290 -118 Q279 -118 271 -111 Q263 -104 263 -92 Q263 -78 272 -68 Q281 -58 296 -58 Q307 -58 315.5 -66 Q324 -74 324 -93 Q324 -114 316.5 -136.5 Q309 -159 297 -179.5 Q285 -200 271 -217.5 Q257 -235 245 -245 L236 -242 Z " />
<glyph glyph-name="kcommaaccent" unicode="&#x137;" horiz-adv-x="479" d="M316 371 L437 0 L399 0 L287 344 L161 226 L121 0 L84 0 L208 704 L247 722 L169 276 L420 511 L465 511 L316 371 Z M188 -242 Q206 -222 221 -190.5 Q236 -159 241 -131 Q242 -126 242 -118 Q231 -118 223 -111 Q215 -104 215 -92 Q215 -78 224 -68 Q233 -58 248 -58 Q259 -58 267.5 -66 Q276 -74 276 -93 Q276 -114 268.5 -136.5 Q261 -159 249 -179.5 Q237 -200 223 -217.5 Q209 -235 197 -245 L188 -242 Z " />
<glyph glyph-name="kgreenlandic" unicode="&#x138;" horiz-adv-x="497" d="M420 0 L314 294 L141 115 L121 0 L84 0 L173 511 L210 511 L151 172 L476 511 L523 511 L344 324 L460 0 L420 0 Z " />
<glyph glyph-name="Lacute" unicode="&#x139;" horiz-adv-x="511" d="M87 0 L210 700 L247 700 L130 33 L468 33 L462 0 L87 0 Z M215 766 L178 766 L356 922 L411 922 L215 766 Z " />
<glyph glyph-name="lacute" unicode="&#x13a;" horiz-adv-x="222" d="M84 0 L208 704 L247 722 L121 0 L84 0 Z M207 756 L170 756 L348 912 L403 912 L207 756 Z " />
<glyph glyph-name="Lcommaaccent" unicode="&#x13b;" horiz-adv-x="511" d="M87 0 L210 700 L247 700 L130 33 L468 33 L462 0 L87 0 Z M226 -242 Q244 -222 259 -190.5 Q274 -159 279 -131 Q280 -126 280 -118 Q269 -118 261 -111 Q253 -104 253 -92 Q253 -78 262 -68 Q271 -58 286 -58 Q297 -58 305.5 -66 Q314 -74 314 -93 Q314 -114 306.5 -136.5 Q299 -159 287 -179.5 Q275 -200 261 -217.5 Q247 -235 235 -245 L226 -242 Z " />
<glyph glyph-name="lcommaaccent" unicode="&#x13c;" horiz-adv-x="222" d="M84 0 L208 704 L247 722 L121 0 L84 0 Z M31 -242 Q49 -222 64 -190.5 Q79 -159 84 -131 Q85 -126 85 -118 Q74 -118 66 -111 Q58 -104 58 -92 Q58 -78 67 -68 Q76 -58 91 -58 Q102 -58 110.5 -66 Q119 -74 119 -93 Q119 -114 111.5 -136.5 Q104 -159 92 -179.5 Q80 -200 66 -217.5 Q52 -235 40 -245 L31 -242 Z " />
<glyph glyph-name="Lcaron" unicode="&#x13d;" horiz-adv-x="511" d="M87 0 L210 700 L247 700 L130 33 L468 33 L462 0 L87 0 Z M257 766 L225 766 L102 922 L137 922 L245 802 L397 922 L436 922 L257 766 Z " />
<glyph glyph-name="lcaron" unicode="&#x13e;" horiz-adv-x="336" d="M84 0 L208 704 L247 722 L121 0 L84 0 Z M411 712 L408 694 Q394 622 371 569.5 Q348 517 316 484 L307 492 Q325 521 343 577.5 Q361 634 375 712 L411 712 Z " />
<glyph glyph-name="Ldot" unicode="&#x13f;" horiz-adv-x="511" d="M87 0 L210 700 L247 700 L130 33 L468 33 L462 0 L87 0 Z M397 301 Q386 301 379.5 308.5 Q373 316 373 327 Q374 341 384.5 351 Q395 361 409 361 Q420 361 426.5 353 Q433 345 433 334 Q432 320 421.5 310.5 Q411 301 397 301 Z " />
<glyph glyph-name="ldot" unicode="&#x140;" horiz-adv-x="314" d="M84 0 L208 704 L247 722 L121 0 L84 0 Z M291 267 Q280 267 273.5 274.5 Q267 282 267 293 Q268 307 278.5 317 Q289 327 303 327 Q314 327 320.5 319 Q327 311 327 300 Q326 286 315.5 276.5 Q305 267 291 267 Z " />
<glyph glyph-name="Nacute" unicode="&#x143;" horiz-adv-x="661" d="M504 0 L234 631 L123 0 L86 0 L209 700 L244 700 L514 69 L625 700 L662 700 L539 0 L504 0 Z M424 766 L387 766 L565 922 L620 922 L424 766 Z " />
<glyph glyph-name="nacute" unicode="&#x144;" horiz-adv-x="532" d="M193 419 Q208 447 227.5 467 Q247 487 268.5 499.5 Q290 512 312 517.5 Q334 523 353 523 Q419 523 453.5 487 Q488 451 488 382 Q488 346 481 305 L427 0 L391 0 L444 305 Q449 331 450 348 Q451 365 451 382 Q451 439 423.5 464 Q396 489 348 489 Q319 489 291 479 Q263 469 239.5 446.5 Q216 424 198.5 387.5 Q181 351 172 297 L121 0 L84 0 L174 511 L209 511 L193 419 Z M329 576 L292 576 L470 732 L525 732 L329 576 Z " />
<glyph glyph-name="Ncommaaccent" unicode="&#x145;" horiz-adv-x="661" d="M504 0 L234 631 L123 0 L86 0 L209 700 L244 700 L514 69 L625 700 L662 700 L539 0 L504 0 Z M243 -242 Q261 -222 276 -190.5 Q291 -159 296 -131 Q297 -126 297 -118 Q286 -118 278 -111 Q270 -104 270 -92 Q270 -78 279 -68 Q288 -58 303 -58 Q314 -58 322.5 -66 Q331 -74 331 -93 Q331 -114 323.5 -136.5 Q316 -159 304 -179.5 Q292 -200 278 -217.5 Q264 -235 252 -245 L243 -242 Z " />
<glyph glyph-name="ncommaaccent" unicode="&#x146;" horiz-adv-x="532" d="M193 419 Q208 447 227.5 467 Q247 487 268.5 499.5 Q290 512 312 517.5 Q334 523 353 523 Q419 523 453.5 487 Q488 451 488 382 Q488 346 481 305 L427 0 L391 0 L444 305 Q449 331 450 348 Q451 365 451 382 Q451 439 423.5 464 Q396 489 348 489 Q319 489 291 479 Q263 469 239.5 446.5 Q216 424 198.5 387.5 Q181 351 172 297 L121 0 L84 0 L174 511 L209 511 L193 419 Z M194 -242 Q212 -222 227 -190.5 Q242 -159 247 -131 Q248 -126 248 -118 Q237 -118 229 -111 Q221 -104 221 -92 Q221 -78 230 -68 Q239 -58 254 -58 Q265 -58 273.5 -66 Q282 -74 282 -93 Q282 -114 274.5 -136.5 Q267 -159 255 -179.5 Q243 -200 229 -217.5 Q215 -235 203 -245 L194 -242 Z " />
<glyph glyph-name="Ncaron" unicode="&#x147;" horiz-adv-x="661" d="M504 0 L234 631 L123 0 L86 0 L209 700 L244 700 L514 69 L625 700 L662 700 L539 0 L504 0 Z M464 766 L432 766 L309 922 L344 922 L452 802 L604 922 L643 922 L464 766 Z " />
<glyph glyph-name="ncaron" unicode="&#x148;" horiz-adv-x="532" d="M193 419 Q208 447 227.5 467 Q247 487 268.5 499.5 Q290 512 312 517.5 Q334 523 353 523 Q419 523 453.5 487 Q488 451 488 382 Q488 346 481 305 L427 0 L391 0 L444 305 Q449 331 450 348 Q451 365 451 382 Q451 439 423.5 464 Q396 489 348 489 Q319 489 291 479 Q263 469 239.5 446.5 Q216 424 198.5 387.5 Q181 351 172 297 L121 0 L84 0 L174 511 L209 511 L193 419 Z M381 576 L349 576 L226 732 L261 732 L369 612 L521 732 L560 732 L381 576 Z " />
<glyph glyph-name="napostrophe" unicode="&#x149;" horiz-adv-x="688" d="M349 419 Q364 447 383.5 467 Q403 487 424.5 499.5 Q446 512 468 517.5 Q490 523 509 523 Q575 523 609.5 487 Q644 451 644 382 Q644 346 637 305 L583 0 L547 0 L600 305 Q605 331 606 348 Q607 365 607 382 Q607 439 579.5 464 Q552 489 504 489 Q475 489 447 479 Q419 469 395.5 446.5 Q372 424 354.5 387.5 Q337 351 328 297 L277 0 L240 0 L330 511 L365 511 L349 419 Z M132 528 Q151 549 166 581 Q181 613 185 639 Q186 644 186 647 Q186 650 186 652 Q175 652 167 659 Q159 666 159 678 Q159 693 168.5 702.5 Q178 712 192 712 Q204 712 212 703.5 Q220 695 220 677 Q220 656 212.5 633.5 Q205 611 193 590.5 Q181 570 167 552.5 Q153 535 141 525 L132 528 Z " />
<glyph glyph-name="Eng" unicode="&#x14a;" horiz-adv-x="661" d="M345 -213 Q410 -208 443.5 -173 Q477 -138 488 -72 L502 5 L234 631 L123 0 L86 0 L209 700 L244 700 L514 69 L625 700 L662 700 L525 -80 Q517 -126 501 -156.5 Q485 -187 463 -205.5 Q441 -224 414.5 -232.5 Q388 -241 359 -244 L345 -213 Z " />
<glyph glyph-name="eng" unicode="&#x14b;" horiz-adv-x="532" d="M238 -182 Q270 -179 294.5 -170 Q319 -161 336.5 -144.5 Q354 -128 366 -102.5 Q378 -77 384 -40 L444 305 Q449 331 450 348 Q451 365 451 382 Q451 439 423.5 464 Q396 489 348 489 Q319 489 291 479 Q263 469 239.5 446.5 Q216 424 198.5 387.5 Q181 351 172 297 L121 0 L84 0 L174 511 L209 511 L193 419 Q208 447 227.5 467 Q247 487 268.5 499.5 Q290 512 312 517.5 Q334 523 353 523 Q419 523 453.5 487 Q488 451 488 382 Q488 346 481 305 L421 -40 Q412 -90 395 -122.5 Q378 -155 355.5 -174 Q333 -193 306.5 -201.5 Q280 -210 251 -213 L238 -182 Z " />
<glyph glyph-name="Omacron" unicode="&#x14c;" horiz-adv-x="696" d="M338 24 Q390 24 431.5 42.5 Q473 61 505.5 92 Q538 123 561 164.5 Q584 206 599 251.5 Q614 297 621 344.5 Q628 392 628 436 Q628 483 618.5 526.5 Q609 570 587.5 603 Q566 636 531.5 656 Q497 676 447 676 Q369 676 313.5 636.5 Q258 597 222.5 536.5 Q187 476 170.5 404 Q154 332 154 266 Q154 218 163.5 174 Q173 130 195 96.5 Q217 63 252 43.5 Q287 24 338 24 Z M333 -12 Q274 -12 232.5 12 Q191 36 165 76 Q139 116 127 166.5 Q115 217 115 270 Q115 318 123.5 369 Q132 420 150 469.5 Q168 519 195 563 Q222 607 259.5 640 Q297 673 345 692.5 Q393 712 452 712 Q512 712 552.5 689 Q593 666 618.5 627.5 Q644 589 655 539 Q666 489 666 435 Q666 387 657.5 335 Q649 283 632 233 Q615 183 588 138.5 Q561 94 524 60.5 Q487 27 439.5 7.5 Q392 -12 333 -12 Z M305 813 L311 846 L641 846 L635 813 L305 813 Z " />
<glyph glyph-name="omacron" unicode="&#x14d;" horiz-adv-x="520" d="M259 24 Q306 24 343.5 45.5 Q381 67 407 105.5 Q433 144 447 197.5 Q461 251 461 315 Q461 397 428 442 Q395 487 334 487 Q285 487 247 465 Q209 443 183.5 403.5 Q158 364 144.5 310 Q131 256 131 192 Q131 113 163 68.5 Q195 24 259 24 Z M337 523 Q414 523 457 470.5 Q500 418 500 321 Q500 246 483 184.5 Q466 123 434.5 79.5 Q403 36 357 12 Q311 -12 253 -12 Q178 -12 135 39 Q92 90 92 193 Q92 269 109.5 330.5 Q127 392 159.5 434.5 Q192 477 237 500 Q282 523 337 523 Z M195 623 L201 656 L531 656 L525 623 L195 623 Z " />
<glyph glyph-name="Obreve" unicode="&#x14e;" horiz-adv-x="696" d="M338 24 Q390 24 431.5 42.5 Q473 61 505.5 92 Q538 123 561 164.5 Q584 206 599 251.5 Q614 297 621 344.5 Q628 392 628 436 Q628 483 618.5 526.5 Q609 570 587.5 603 Q566 636 531.5 656 Q497 676 447 676 Q369 676 313.5 636.5 Q258 597 222.5 536.5 Q187 476 170.5 404 Q154 332 154 266 Q154 218 163.5 174 Q173 130 195 96.5 Q217 63 252 43.5 Q287 24 338 24 Z M333 -12 Q274 -12 232.5 12 Q191 36 165 76 Q139 116 127 166.5 Q115 217 115 270 Q115 318 123.5 369 Q132 420 150 469.5 Q168 519 195 563 Q222 607 259.5 640 Q297 673 345 692.5 Q393 712 452 712 Q512 712 552.5 689 Q593 666 618.5 627.5 Q644 589 655 539 Q666 489 666 435 Q666 387 657.5 335 Q649 283 632 233 Q615 183 588 138.5 Q561 94 524 60.5 Q487 27 439.5 7.5 Q392 -12 333 -12 Z M462 771 Q423 771 395.5 782 Q368 793 350.5 811 Q333 829 324.5 853 Q316 877 316 904 Q316 912 316 918 Q316 924 317 932 L350 932 Q349 924 349 917.5 Q349 911 349 904 Q349 851 382 827.5 Q415 804 464 804 Q492 804 518 812 Q544 820 565 836 Q586 852 601 876 Q616 900 622 932 L656 932 Q650 899 635.5 869.5 Q621 840 597 818 Q573 796 539.5 783.5 Q506 771 462 771 Z " />
<glyph glyph-name="obreve" unicode="&#x14f;" horiz-adv-x="520" d="M259 24 Q306 24 343.5 45.5 Q381 67 407 105.5 Q433 144 447 197.5 Q461 251 461 315 Q461 397 428 442 Q395 487 334 487 Q285 487 247 465 Q209 443 183.5 403.5 Q158 364 144.5 310 Q131 256 131 192 Q131 113 163 68.5 Q195 24 259 24 Z M337 523 Q414 523 457 470.5 Q500 418 500 321 Q500 246 483 184.5 Q466 123 434.5 79.5 Q403 36 357 12 Q311 -12 253 -12 Q178 -12 135 39 Q92 90 92 193 Q92 269 109.5 330.5 Q127 392 159.5 434.5 Q192 477 237 500 Q282 523 337 523 Z M352 581 Q313 581 285.5 592 Q258 603 240.5 621 Q223 639 214.5 663 Q206 687 206 714 Q206 722 206 728 Q206 734 207 742 L240 742 Q239 734 239 727.5 Q239 721 239 714 Q239 661 272 637.5 Q305 614 354 614 Q382 614 408 622 Q434 630 455 646 Q476 662 491 686 Q506 710 512 742 L546 742 Q540 709 525.5 679.5 Q511 650 487 628 Q463 606 429.5 593.5 Q396 581 352 581 Z " />
<glyph glyph-name="Ohungarumlaut" unicode="&#x150;" horiz-adv-x="696" d="M338 24 Q390 24 431.5 42.5 Q473 61 505.5 92 Q538 123 561 164.5 Q584 206 599 251.5 Q614 297 621 344.5 Q628 392 628 436 Q628 483 618.5 526.5 Q609 570 587.5 603 Q566 636 531.5 656 Q497 676 447 676 Q369 676 313.5 636.5 Q258 597 222.5 536.5 Q187 476 170.5 404 Q154 332 154 266 Q154 218 163.5 174 Q173 130 195 96.5 Q217 63 252 43.5 Q287 24 338 24 Z M333 -12 Q274 -12 232.5 12 Q191 36 165 76 Q139 116 127 166.5 Q115 217 115 270 Q115 318 123.5 369 Q132 420 150 469.5 Q168 519 195 563 Q222 607 259.5 640 Q297 673 345 692.5 Q393 712 452 712 Q512 712 552.5 689 Q593 666 618.5 627.5 Q644 589 655 539 Q666 489 666 435 Q666 387 657.5 335 Q649 283 632 233 Q615 183 588 138.5 Q561 94 524 60.5 Q487 27 439.5 7.5 Q392 -12 333 -12 Z M346 766 L309 766 L488 922 L543 922 L346 766 Z M544 766 L507 766 L686 922 L741 922 L544 766 Z " />
<glyph glyph-name="ohungarumlaut" unicode="&#x151;" horiz-adv-x="520" d="M259 24 Q306 24 343.5 45.5 Q381 67 407 105.5 Q433 144 447 197.5 Q461 251 461 315 Q461 397 428 442 Q395 487 334 487 Q285 487 247 465 Q209 443 183.5 403.5 Q158 364 144.5 310 Q131 256 131 192 Q131 113 163 68.5 Q195 24 259 24 Z M337 523 Q414 523 457 470.5 Q500 418 500 321 Q500 246 483 184.5 Q466 123 434.5 79.5 Q403 36 357 12 Q311 -12 253 -12 Q178 -12 135 39 Q92 90 92 193 Q92 269 109.5 330.5 Q127 392 159.5 434.5 Q192 477 237 500 Q282 523 337 523 Z M240 576 L203 576 L382 732 L437 732 L240 576 Z M438 576 L401 576 L580 732 L635 732 L438 576 Z " />
<glyph glyph-name="Racute" unicode="&#x154;" horiz-adv-x="624" d="M612 537 Q612 492 595.5 455.5 Q579 419 549.5 392.5 Q520 366 480 350.5 Q440 335 394 331 L497 0 L457 0 L354 329 L182 329 L124 0 L87 0 L210 700 L435 700 Q484 700 517.5 685.5 Q551 671 572 647.5 Q593 624 602.5 595 Q612 566 612 537 Z M355 362 Q397 362 436.5 372 Q476 382 506 403 Q536 424 554.5 457 Q573 490 573 537 Q573 559 566.5 582 Q560 605 544.5 624 Q529 643 502 655 Q475 667 435 667 L242 667 L188 362 L355 362 Z M389 766 L352 766 L530 922 L585 922 L389 766 Z " />
<glyph glyph-name="racute" unicode="&#x155;" horiz-adv-x="360" d="M84 0 L174 511 L209 511 L190 402 Q225 465 269 494 Q313 523 352 523 Q381 523 397 516 Q413 509 421 502 L408 471 Q400 476 385 481.5 Q370 487 346 487 Q322 487 295 475 Q268 463 243.5 438 Q219 413 199 374.5 Q179 336 170 283 L121 0 L84 0 Z M287 576 L250 576 L428 732 L483 732 L287 576 Z " />
<glyph glyph-name="Rcommaaccent" unicode="&#x156;" horiz-adv-x="624" d="M612 537 Q612 492 595.5 455.5 Q579 419 549.5 392.5 Q520 366 480 350.5 Q440 335 394 331 L497 0 L457 0 L354 329 L182 329 L124 0 L87 0 L210 700 L435 700 Q484 700 517.5 685.5 Q551 671 572 647.5 Q593 624 602.5 595 Q612 566 612 537 Z M355 362 Q397 362 436.5 372 Q476 382 506 403 Q536 424 554.5 457 Q573 490 573 537 Q573 559 566.5 582 Q560 605 544.5 624 Q529 643 502 655 Q475 667 435 667 L242 667 L188 362 L355 362 Z M222 -242 Q240 -222 255 -190.5 Q270 -159 275 -131 Q276 -126 276 -118 Q265 -118 257 -111 Q249 -104 249 -92 Q249 -78 258 -68 Q267 -58 282 -58 Q293 -58 301.5 -66 Q310 -74 310 -93 Q310 -114 302.5 -136.5 Q295 -159 283 -179.5 Q271 -200 257 -217.5 Q243 -235 231 -245 L222 -242 Z " />
<glyph glyph-name="rcommaaccent" unicode="&#x157;" horiz-adv-x="360" d="M84 0 L174 511 L209 511 L190 402 Q225 465 269 494 Q313 523 352 523 Q381 523 397 516 Q413 509 421 502 L408 471 Q400 476 385 481.5 Q370 487 346 487 Q322 487 295 475 Q268 463 243.5 438 Q219 413 199 374.5 Q179 336 170 283 L121 0 L84 0 Z M28 -262 Q46 -242 61 -210.5 Q76 -179 81 -151 Q82 -146 82 -138 Q71 -138 63 -131 Q55 -124 55 -112 Q55 -98 64 -88 Q73 -78 88 -78 Q99 -78 107.5 -86 Q116 -94 116 -113 Q116 -134 108.5 -156.5 Q101 -179 89 -199.5 Q77 -220 63 -237.5 Q49 -255 37 -265 L28 -262 Z " />
<glyph glyph-name="Rcaron" unicode="&#x158;" horiz-adv-x="624" d="M612 537 Q612 492 595.5 455.5 Q579 419 549.5 392.5 Q520 366 480 350.5 Q440 335 394 331 L497 0 L457 0 L354 329 L182 329 L124 0 L87 0 L210 700 L435 700 Q484 700 517.5 685.5 Q551 671 572 647.5 Q593 624 602.5 595 Q612 566 612 537 Z M355 362 Q397 362 436.5 372 Q476 382 506 403 Q536 424 554.5 457 Q573 490 573 537 Q573 559 566.5 582 Q560 605 544.5 624 Q529 643 502 655 Q475 667 435 667 L242 667 L188 362 L355 362 Z M419 766 L387 766 L264 922 L299 922 L407 802 L559 922 L598 922 L419 766 Z " />
<glyph glyph-name="rcaron" unicode="&#x159;" horiz-adv-x="360" d="M84 0 L174 511 L209 511 L190 402 Q225 465 269 494 Q313 523 352 523 Q381 523 397 516 Q413 509 421 502 L408 471 Q400 476 385 481.5 Q370 487 346 487 Q322 487 295 475 Q268 463 243.5 438 Q219 413 199 374.5 Q179 336 170 283 L121 0 L84 0 Z M316 576 L284 576 L161 732 L196 732 L304 612 L456 732 L495 732 L316 576 Z " />
<glyph glyph-name="Sacute" unicode="&#x15a;" horiz-adv-x="570" d="M510 586 Q500 630 468 653.5 Q436 677 381 677 Q303 677 258.5 639 Q214 601 214 538 Q214 498 236 472.5 Q258 447 290.5 427 Q323 407 361 389.5 Q399 372 431.5 348 Q464 324 486 290 Q508 256 508 204 Q508 153 490.5 113 Q473 73 442 45.5 Q411 18 369 3 Q327 -12 279 -12 Q238 -12 205.5 0 Q173 12 148 32 Q123 52 107 78.5 Q91 105 84 135 L121 147 Q136 91 177.5 57 Q219 23 283 23 Q321 23 354.5 34.5 Q388 46 413.5 68.5 Q439 91 454 123 Q469 155 469 197 Q469 243 447 273.5 Q425 304 392.5 326 Q360 348 322 366 Q284 384 251.5 406 Q219 428 197 459 Q175 490 175 537 Q175 573 189.5 605 Q204 637 231 661 Q258 685 296.5 698.5 Q335 712 382 712 Q450 712 494.5 680.5 Q539 649 547 596 L510 586 Z M363 766 L326 766 L504 922 L559 922 L363 766 Z " />
<glyph glyph-name="sacute" unicode="&#x15b;" horiz-adv-x="437" d="M392 438 Q375 458 348.5 473.5 Q322 489 282 489 Q225 489 191 459 Q157 429 157 386 Q157 356 174 336.5 Q191 317 216.5 302.5 Q242 288 272 275.5 Q302 263 327.5 245.5 Q353 228 370 202.5 Q387 177 387 138 Q387 70 344.5 29 Q302 -12 222 -12 Q170 -12 131 10.5 Q92 33 69 65 L98 88 Q118 60 149.5 41 Q181 22 224 22 Q281 22 315.5 51 Q350 80 350 135 Q350 169 333 190 Q316 211 290.5 225.5 Q265 240 235.5 252.5 Q206 265 180.5 281.5 Q155 298 138 322.5 Q121 347 121 386 Q121 413 132.5 438 Q144 463 166 482 Q188 501 218 512 Q248 523 286 523 Q331 523 365.5 504.5 Q400 486 420 460 L392 438 Z M272 576 L235 576 L413 732 L468 732 L272 576 Z " />
<glyph glyph-name="Scircumflex" unicode="&#x15c;" horiz-adv-x="570" d="M510 586 Q500 630 468 653.5 Q436 677 381 677 Q303 677 258.5 639 Q214 601 214 538 Q214 498 236 472.5 Q258 447 290.5 427 Q323 407 361 389.5 Q399 372 431.5 348 Q464 324 486 290 Q508 256 508 204 Q508 153 490.5 113 Q473 73 442 45.5 Q411 18 369 3 Q327 -12 279 -12 Q238 -12 205.5 0 Q173 12 148 32 Q123 52 107 78.5 Q91 105 84 135 L121 147 Q136 91 177.5 57 Q219 23 283 23 Q321 23 354.5 34.5 Q388 46 413.5 68.5 Q439 91 454 123 Q469 155 469 197 Q469 243 447 273.5 Q425 304 392.5 326 Q360 348 322 366 Q284 384 251.5 406 Q219 428 197 459 Q175 490 175 537 Q175 573 189.5 605 Q204 637 231 661 Q258 685 296.5 698.5 Q335 712 382 712 Q450 712 494.5 680.5 Q539 649 547 596 L510 586 Z M217 766 L396 922 L428 922 L551 766 L516 766 L407 886 L256 766 L217 766 Z " />
<glyph glyph-name="scircumflex" unicode="&#x15d;" horiz-adv-x="437" d="M392 438 Q375 458 348.5 473.5 Q322 489 282 489 Q225 489 191 459 Q157 429 157 386 Q157 356 174 336.5 Q191 317 216.5 302.5 Q242 288 272 275.5 Q302 263 327.5 245.5 Q353 228 370 202.5 Q387 177 387 138 Q387 70 344.5 29 Q302 -12 222 -12 Q170 -12 131 10.5 Q92 33 69 65 L98 88 Q118 60 149.5 41 Q181 22 224 22 Q281 22 315.5 51 Q350 80 350 135 Q350 169 333 190 Q316 211 290.5 225.5 Q265 240 235.5 252.5 Q206 265 180.5 281.5 Q155 298 138 322.5 Q121 347 121 386 Q121 413 132.5 438 Q144 463 166 482 Q188 501 218 512 Q248 523 286 523 Q331 523 365.5 504.5 Q400 486 420 460 L392 438 Z M127 576 L306 732 L338 732 L461 576 L426 576 L317 696 L166 576 L127 576 Z " />
<glyph glyph-name="Scedilla" unicode="&#x15e;" horiz-adv-x="570" d="M237 -234 Q214 -234 197.5 -226.5 Q181 -219 171 -206 L199 -188 Q205 -194 215 -199.5 Q225 -205 241 -205 Q276 -205 296 -184.5 Q316 -164 316 -135 Q316 -112 301.5 -98 Q287 -84 261 -84 Q239 -84 222 -92 L214 -80 L274 -12 Q235 -11 202.5 1 Q170 13 146 33 Q122 53 106.5 79.5 Q91 106 84 135 L121 147 Q136 91 177.5 57 Q219 23 283 23 Q321 23 354.5 34.5 Q388 46 413.5 68.5 Q439 91 454 123 Q469 155 469 197 Q469 243 447 273.5 Q425 304 392.5 326 Q360 348 322 366 Q284 384 251.5 406 Q219 428 197 459 Q175 490 175 537 Q175 573 189.5 605 Q204 637 231 661 Q258 685 296.5 698.5 Q335 712 382 712 Q450 712 494.5 680.5 Q539 649 547 596 L510 586 Q500 630 468 653.5 Q436 677 381 677 Q303 677 258.5 639 Q214 601 214 538 Q214 498 236 472.5 Q258 447 290.5 427 Q323 407 361 389.5 Q399 372 431.5 348 Q464 324 486 290 Q508 256 508 204 Q508 156 492.5 118 Q477 80 449.5 52.5 Q422 25 384 9 Q346 -7 302 -11 L267 -59 Q312 -59 331.5 -81.5 Q351 -104 351 -131 Q351 -152 342.5 -170.5 Q334 -189 319 -203 Q304 -217 283 -225.5 Q262 -234 237 -234 Z " />
<glyph glyph-name="scedilla" unicode="&#x15f;" horiz-adv-x="437" d="M169 -234 Q146 -234 129.5 -226.5 Q113 -219 103 -206 L131 -188 Q137 -194 147 -199.5 Q157 -205 173 -205 Q208 -205 228 -184.5 Q248 -164 248 -135 Q248 -112 233.5 -98 Q219 -84 193 -84 Q171 -84 154 -92 L146 -80 L207 -11 Q160 -8 125 14 Q90 36 69 65 L98 88 Q118 60 149.5 41 Q181 22 224 22 Q281 22 315.5 51 Q350 80 350 135 Q350 169 333 190 Q316 211 290.5 225.5 Q265 240 235.5 252.5 Q206 265 180.5 281.5 Q155 298 138 322.5 Q121 347 121 386 Q121 413 132.5 438 Q144 463 166 482 Q188 501 218 512 Q248 523 286 523 Q331 523 365.5 504.5 Q400 486 420 460 L392 438 Q375 458 348.5 473.5 Q322 489 282 489 Q225 489 191 459 Q157 429 157 386 Q157 356 174 336.5 Q191 317 216.5 302.5 Q242 288 272 275.5 Q302 263 327.5 245.5 Q353 228 370 202.5 Q387 177 387 138 Q387 72 347.5 32 Q308 -8 234 -12 L199 -59 Q244 -59 263.5 -81.5 Q283 -104 283 -131 Q283 -152 274.5 -170.5 Q266 -189 251 -203 Q236 -217 215 -225.5 Q194 -234 169 -234 Z " />
<glyph glyph-name="uni0162" unicode="&#x162;" horiz-adv-x="537" d="M194 -234 Q171 -234 154.5 -226.5 Q138 -219 128 -206 L156 -188 Q162 -194 172 -199.5 Q182 -205 198 -205 Q233 -205 253 -184.5 Q273 -164 273 -135 Q273 -112 258.5 -98 Q244 -84 218 -84 Q196 -84 179 -92 L171 -80 L242 0 L237 0 L355 667 L168 667 L174 700 L586 700 L580 667 L392 667 L274 0 L267 0 L224 -59 Q269 -59 288.5 -81.5 Q308 -104 308 -131 Q308 -152 299.5 -170.5 Q291 -189 276 -203 Q261 -217 240 -225.5 Q219 -234 194 -234 Z " />
<glyph glyph-name="uni0163" unicode="&#x163;" horiz-adv-x="341" d="M139 -234 Q116 -234 99.5 -226.5 Q83 -219 73 -206 L101 -188 Q107 -194 117 -199.5 Q127 -205 143 -205 Q178 -205 198 -184.5 Q218 -164 218 -135 Q218 -112 203.5 -98 Q189 -84 163 -84 Q141 -84 124 -92 L116 -80 L179 -9 Q152 -2 139 17.5 Q126 37 126 66 Q126 86 132 119 L195 478 L111 478 L117 511 L201 511 L235 704 L274 722 L237 511 L364 511 L358 478 L231 478 L168 115 Q166 103 164.5 92 Q163 81 163 70 Q163 50 173.5 36.5 Q184 23 212 23 Q234 23 254.5 31 Q275 39 289 47 L278 9 Q261 -1 242 -6.5 Q223 -12 203 -12 L169 -59 Q214 -59 233.5 -81.5 Q253 -104 253 -131 Q253 -152 244.5 -170.5 Q236 -189 221 -203 Q206 -217 185 -225.5 Q164 -234 139 -234 Z " />
<glyph glyph-name="Tcaron" unicode="&#x164;" horiz-adv-x="537" d="M392 667 L274 0 L237 0 L355 667 L168 667 L174 700 L586 700 L580 667 L392 667 Z M408 766 L376 766 L253 922 L288 922 L396 802 L548 922 L587 922 L408 766 Z " />
<glyph glyph-name="tcaron" unicode="&#x165;" horiz-adv-x="341" d="M206 -12 Q164 -12 145 9.5 Q126 31 126 66 Q126 86 132 119 L195 478 L111 478 L117 511 L201 511 L235 704 L274 722 L237 511 L364 511 L358 478 L231 478 L168 115 Q166 103 164.5 92 Q163 81 163 70 Q163 50 173.5 36.5 Q184 23 212 23 Q234 23 254.5 31 Q275 39 289 47 L278 9 Q261 -1 242.5 -6.5 Q224 -12 206 -12 Z M429 840 L426 822 Q412 750 389 697.5 Q366 645 334 612 L325 620 Q343 649 361 705.5 Q379 762 393 840 L429 840 Z " />
<glyph glyph-name="Tbar" unicode="&#x166;" horiz-adv-x="537" d="M392 667 L333 333 L478 333 L472 300 L327 300 L274 0 L237 0 L290 300 L144 300 L150 333 L296 333 L355 667 L168 667 L174 700 L586 700 L580 667 L392 667 Z " />
<glyph glyph-name="tbar" unicode="&#x167;" horiz-adv-x="341" d="M206 -12 Q164 -12 145 9.5 Q126 31 126 66 Q126 86 132 119 L155 253 L72 253 L78 286 L161 286 L195 478 L111 478 L117 511 L201 511 L235 704 L274 722 L237 511 L364 511 L358 478 L231 478 L197 286 L324 286 L318 253 L192 253 L168 115 Q166 103 164.5 92 Q163 81 163 70 Q163 50 173.5 36.5 Q184 23 212 23 Q234 23 254.5 31 Q275 39 289 47 L278 9 Q261 -1 242.5 -6.5 Q224 -12 206 -12 Z " />
<glyph glyph-name="Utilde" unicode="&#x168;" horiz-adv-x="638" d="M305 -12 Q266 -12 232 -1 Q198 10 173.5 33 Q149 56 135 92.5 Q121 129 121 179 Q121 198 123 218.5 Q125 239 129 262 L206 700 L244 700 L168 269 Q163 245 161.5 224 Q160 203 160 185 Q160 134 173.5 102.5 Q187 71 208.5 53.5 Q230 36 255.5 29.5 Q281 23 305 23 Q340 23 374.5 32.5 Q409 42 439 67.5 Q469 93 492 137.5 Q515 182 527 251 L605 700 L642 700 L564 249 Q552 179 529 129.5 Q506 80 473 48.5 Q440 17 397.5 2.5 Q355 -12 305 -12 Z M524 792 Q498 792 478.5 804.5 Q459 817 441.5 832.5 Q424 848 406.5 860.5 Q389 873 368 873 Q320 873 303 796 L275 796 Q283 844 308.5 875 Q334 906 376 906 Q402 906 421.5 893.5 Q441 881 458.5 865.5 Q476 850 493.5 837.5 Q511 825 532 825 Q580 825 597 902 L625 902 Q617 854 591.5 823 Q566 792 524 792 Z " />
<glyph glyph-name="utilde" unicode="&#x169;" horiz-adv-x="532" d="M387 0 L402 88 Q385 59 365.5 40 Q346 21 325 9.5 Q304 -2 283.5 -7 Q263 -12 244 -12 Q177 -12 142 24 Q107 60 107 129 Q107 144 109 162 Q111 180 114 199 L169 511 L205 511 L150 191 Q147 174 145.5 158 Q144 142 144 129 Q144 71 171.5 46 Q199 21 250 21 Q278 21 305 31 Q332 41 355.5 64 Q379 87 397 123.5 Q415 160 424 214 L475 511 L512 511 L422 0 L387 0 Z M434 602 Q408 602 388.5 614.5 Q369 627 351.5 642.5 Q334 658 316.5 670.5 Q299 683 278 683 Q230 683 213 606 L185 606 Q193 654 218.5 685 Q244 716 286 716 Q312 716 331.5 703.5 Q351 691 368.5 675.5 Q386 660 403.5 647.5 Q421 635 442 635 Q490 635 507 712 L535 712 Q527 664 501.5 633 Q476 602 434 602 Z " />
<glyph glyph-name="Umacron" unicode="&#x16a;" horiz-adv-x="638" d="M305 -12 Q266 -12 232 -1 Q198 10 173.5 33 Q149 56 135 92.5 Q121 129 121 179 Q121 198 123 218.5 Q125 239 129 262 L206 700 L244 700 L168 269 Q163 245 161.5 224 Q160 203 160 185 Q160 134 173.5 102.5 Q187 71 208.5 53.5 Q230 36 255.5 29.5 Q281 23 305 23 Q340 23 374.5 32.5 Q409 42 439 67.5 Q469 93 492 137.5 Q515 182 527 251 L605 700 L642 700 L564 249 Q552 179 529 129.5 Q506 80 473 48.5 Q440 17 397.5 2.5 Q355 -12 305 -12 Z M278 813 L284 846 L614 846 L608 813 L278 813 Z " />
<glyph glyph-name="umacron" unicode="&#x16b;" horiz-adv-x="532" d="M387 0 L402 88 Q385 59 365.5 40 Q346 21 325 9.5 Q304 -2 283.5 -7 Q263 -12 244 -12 Q177 -12 142 24 Q107 60 107 129 Q107 144 109 162 Q111 180 114 199 L169 511 L205 511 L150 191 Q147 174 145.5 158 Q144 142 144 129 Q144 71 171.5 46 Q199 21 250 21 Q278 21 305 31 Q332 41 355.5 64 Q379 87 397 123.5 Q415 160 424 214 L475 511 L512 511 L422 0 L387 0 Z M189 623 L195 656 L525 656 L519 623 L189 623 Z " />
<glyph glyph-name="Ubreve" unicode="&#x16c;" horiz-adv-x="638" d="M305 -12 Q266 -12 232 -1 Q198 10 173.5 33 Q149 56 135 92.5 Q121 129 121 179 Q121 198 123 218.5 Q125 239 129 262 L206 700 L244 700 L168 269 Q163 245 161.5 224 Q160 203 160 185 Q160 134 173.5 102.5 Q187 71 208.5 53.5 Q230 36 255.5 29.5 Q281 23 305 23 Q340 23 374.5 32.5 Q409 42 439 67.5 Q469 93 492 137.5 Q515 182 527 251 L605 700 L642 700 L564 249 Q552 179 529 129.5 Q506 80 473 48.5 Q440 17 397.5 2.5 Q355 -12 305 -12 Z M437 771 Q398 771 370.5 782 Q343 793 325.5 811 Q308 829 299.5 853 Q291 877 291 904 Q291 912 291 918 Q291 924 292 932 L325 932 Q324 924 324 917.5 Q324 911 324 904 Q324 851 357 827.5 Q390 804 439 804 Q467 804 493 812 Q519 820 540 836 Q561 852 576 876 Q591 900 597 932 L631 932 Q625 899 610.5 869.5 Q596 840 572 818 Q548 796 514.5 783.5 Q481 771 437 771 Z " />
<glyph glyph-name="ubreve" unicode="&#x16d;" horiz-adv-x="532" d="M387 0 L402 88 Q385 59 365.5 40 Q346 21 325 9.5 Q304 -2 283.5 -7 Q263 -12 244 -12 Q177 -12 142 24 Q107 60 107 129 Q107 144 109 162 Q111 180 114 199 L169 511 L205 511 L150 191 Q147 174 145.5 158 Q144 142 144 129 Q144 71 171.5 46 Q199 21 250 21 Q278 21 305 31 Q332 41 355.5 64 Q379 87 397 123.5 Q415 160 424 214 L475 511 L512 511 L422 0 L387 0 Z M347 581 Q308 581 280.5 592 Q253 603 235.5 621 Q218 639 209.5 663 Q201 687 201 714 Q201 722 201 728 Q201 734 202 742 L235 742 Q234 734 234 727.5 Q234 721 234 714 Q234 661 267 637.5 Q300 614 349 614 Q377 614 403 622 Q429 630 450 646 Q471 662 486 686 Q501 710 507 742 L541 742 Q535 709 520.5 679.5 Q506 650 482 628 Q458 606 424.5 593.5 Q391 581 347 581 Z " />
<glyph glyph-name="Uring" unicode="&#x16e;" horiz-adv-x="638" d="M305 -12 Q266 -12 232 -1 Q198 10 173.5 33 Q149 56 135 92.5 Q121 129 121 179 Q121 198 123 218.5 Q125 239 129 262 L206 700 L244 700 L168 269 Q163 245 161.5 224 Q160 203 160 185 Q160 134 173.5 102.5 Q187 71 208.5 53.5 Q230 36 255.5 29.5 Q281 23 305 23 Q340 23 374.5 32.5 Q409 42 439 67.5 Q469 93 492 137.5 Q515 182 527 251 L605 700 L642 700 L564 249 Q552 179 529 129.5 Q506 80 473 48.5 Q440 17 397.5 2.5 Q355 -12 305 -12 Z M435 730 Q413 730 394 737.5 Q375 745 361 758.5 Q347 772 339 790.5 Q331 809 331 830 Q331 857 341 880 Q351 903 368 919.5 Q385 936 409 945.5 Q433 955 460 955 Q507 955 535.5 925 Q564 895 564 855 Q564 828 554 805 Q544 782 527 765.5 Q510 749 486 739.5 Q462 730 435 730 Z M435 761 Q475 761 502.5 787 Q530 813 530 855 Q530 885 510 904.5 Q490 924 460 924 Q441 924 423.5 917 Q406 910 393 898 Q380 886 372.5 868.5 Q365 851 365 830 Q365 798 385.5 779.5 Q406 761 435 761 Z " />
<glyph glyph-name="uring" unicode="&#x16f;" horiz-adv-x="532" d="M387 0 L402 88 Q385 59 365.5 40 Q346 21 325 9.5 Q304 -2 283.5 -7 Q263 -12 244 -12 Q177 -12 142 24 Q107 60 107 129 Q107 144 109 162 Q111 180 114 199 L169 511 L205 511 L150 191 Q147 174 145.5 158 Q144 142 144 129 Q144 71 171.5 46 Q199 21 250 21 Q278 21 305 31 Q332 41 355.5 64 Q379 87 397 123.5 Q415 160 424 214 L475 511 L512 511 L422 0 L387 0 Z M346 540 Q324 540 305 547.5 Q286 555 272 568.5 Q258 582 250 600.5 Q242 619 242 640 Q242 667 252 690 Q262 713 279 729.5 Q296 746 320 755.5 Q344 765 371 765 Q418 765 446.5 735 Q475 705 475 665 Q475 638 465 615 Q455 592 438 575.5 Q421 559 397 549.5 Q373 540 346 540 Z M346 571 Q386 571 413.5 597 Q441 623 441 665 Q441 695 421 714.5 Q401 734 371 734 Q352 734 334.5 727 Q317 720 304 708 Q291 696 283.5 678.5 Q276 661 276 640 Q276 608 296.5 589.5 Q317 571 346 571 Z " />
<glyph glyph-name="Uhungarumlaut" unicode="&#x170;" horiz-adv-x="638" d="M305 -12 Q266 -12 232 -1 Q198 10 173.5 33 Q149 56 135 92.5 Q121 129 121 179 Q121 198 123 218.5 Q125 239 129 262 L206 700 L244 700 L168 269 Q163 245 161.5 224 Q160 203 160 185 Q160 134 173.5 102.5 Q187 71 208.5 53.5 Q230 36 255.5 29.5 Q281 23 305 23 Q340 23 374.5 32.5 Q409 42 439 67.5 Q469 93 492 137.5 Q515 182 527 251 L605 700 L642 700 L564 249 Q552 179 529 129.5 Q506 80 473 48.5 Q440 17 397.5 2.5 Q355 -12 305 -12 Z M321 766 L284 766 L463 922 L518 922 L321 766 Z M519 766 L482 766 L661 922 L716 922 L519 766 Z " />
<glyph glyph-name="uhungarumlaut" unicode="&#x171;" horiz-adv-x="532" d="M387 0 L402 88 Q385 59 365.5 40 Q346 21 325 9.5 Q304 -2 283.5 -7 Q263 -12 244 -12 Q177 -12 142 24 Q107 60 107 129 Q107 144 109 162 Q111 180 114 199 L169 511 L205 511 L150 191 Q147 174 145.5 158 Q144 142 144 129 Q144 71 171.5 46 Q199 21 250 21 Q278 21 305 31 Q332 41 355.5 64 Q379 87 397 123.5 Q415 160 424 214 L475 511 L512 511 L422 0 L387 0 Z M245 576 L208 576 L387 732 L442 732 L245 576 Z M443 576 L406 576 L585 732 L640 732 L443 576 Z " />
<glyph glyph-name="Uogonek" unicode="&#x172;" horiz-adv-x="638" d="M302 -234 Q268 -234 244.5 -215 Q221 -196 221 -156 Q221 -111 252 -73.5 Q283 -36 334 -10 Q327 -11 319.5 -11.5 Q312 -12 305 -12 Q266 -12 232 -1 Q198 10 173.5 33 Q149 56 135 92.5 Q121 129 121 179 Q121 198 123 218.5 Q125 239 129 262 L206 700 L244 700 L168 269 Q163 245 161.5 224 Q160 203 160 185 Q160 134 173.5 102.5 Q187 71 208.5 53.5 Q230 36 255.5 29.5 Q281 23 305 23 Q340 23 374.5 32.5 Q409 42 439 67.5 Q469 93 492 137.5 Q515 182 527 251 L605 700 L642 700 L564 249 Q546 143 503 84 Q460 25 397 0 Q325 -29 290 -67 Q255 -105 255 -151 Q255 -180 271 -192.5 Q287 -205 307 -205 Q333 -205 350 -193.5 Q367 -182 376 -173 L397 -190 Q381 -207 357.5 -220.5 Q334 -234 302 -234 Z " />
<glyph glyph-name="uogonek" unicode="&#x173;" horiz-adv-x="532" d="M332 -234 Q298 -234 274.5 -215 Q251 -196 251 -156 Q251 -106 289 -65 Q327 -24 387 0 L402 88 Q385 59 365.5 40 Q346 21 325 9.5 Q304 -2 283.5 -7 Q263 -12 244 -12 Q177 -12 142 24 Q107 60 107 129 Q107 144 109 162 Q111 180 114 199 L169 511 L205 511 L150 191 Q147 174 145.5 158 Q144 142 144 129 Q144 71 171.5 46 Q199 21 250 21 Q278 21 305 31 Q332 41 355.5 64 Q379 87 397 123.5 Q415 160 424 214 L475 511 L512 511 L422 0 Q285 -60 285 -151 Q285 -180 301 -192.5 Q317 -205 337 -205 Q363 -205 380 -193.5 Q397 -182 406 -173 L427 -190 Q411 -207 387.5 -220.5 Q364 -234 332 -234 Z " />
<glyph glyph-name="Wcircumflex" unicode="&#x174;" horiz-adv-x="812" d="M853 700 L567 0 L536 0 L491 608 L239 0 L207 0 L161 700 L201 700 L239 90 L491 700 L521 700 L566 90 L814 700 L853 700 Z M349 766 L528 922 L560 922 L683 766 L648 766 L539 886 L388 766 L349 766 Z " />
<glyph glyph-name="wcircumflex" unicode="&#x175;" horiz-adv-x="678" d="M488 0 L461 0 L400 441 L189 0 L162 0 L123 511 L159 511 L188 68 L399 511 L425 511 L483 70 L666 511 L703 511 L488 0 Z M255 576 L434 732 L466 732 L589 576 L554 576 L445 696 L294 576 L255 576 Z " />
<glyph glyph-name="Ycircumflex" unicode="&#x176;" horiz-adv-x="580" d="M255 0 L304 277 L154 700 L191 700 L326 315 L594 700 L635 700 L340 277 L291 0 L255 0 Z M238 766 L417 922 L449 922 L572 766 L537 766 L428 886 L277 766 L238 766 Z " />
<glyph glyph-name="ycircumflex" unicode="&#x177;" horiz-adv-x="485" d="M209 14 L119 511 L154 511 L234 59 L475 511 L514 511 L136 -194 L98 -194 L209 14 Z M155 576 L334 732 L366 732 L489 576 L454 576 L345 696 L194 576 L155 576 Z " />
<glyph glyph-name="Zacute" unicode="&#x179;" horiz-adv-x="575" d="M44 0 L48 19 L565 667 L185 667 L190 700 L619 700 L615 679 L99 33 L500 33 L496 0 L44 0 Z M379 766 L342 766 L520 922 L575 922 L379 766 Z " />
<glyph glyph-name="zacute" unicode="&#x17a;" horiz-adv-x="475" d="M49 0 L53 22 L427 478 L153 478 L159 511 L484 511 L480 490 L105 33 L399 33 L394 0 L49 0 Z M294 576 L257 576 L435 732 L490 732 L294 576 Z " />
<glyph glyph-name="Zdotaccent" unicode="&#x17b;" horiz-adv-x="575" d="M44 0 L48 19 L565 667 L185 667 L190 700 L619 700 L615 679 L99 33 L500 33 L496 0 L44 0 Z M409 796 Q398 796 391.5 803.5 Q385 811 385 822 Q386 836 396.5 846 Q407 856 421 856 Q432 856 438.5 848 Q445 840 445 829 Q444 815 433.5 805.5 Q423 796 409 796 Z " />
<glyph glyph-name="zdotaccent" unicode="&#x17c;" horiz-adv-x="475" d="M49 0 L53 22 L427 478 L153 478 L159 511 L484 511 L480 490 L105 33 L399 33 L394 0 L49 0 Z M327 606 Q316 606 309.5 613.5 Q303 621 303 632 Q304 646 314.5 656 Q325 666 339 666 Q350 666 356.5 658 Q363 650 363 639 Q362 625 351.5 615.5 Q341 606 327 606 Z " />
<glyph glyph-name="longs" unicode="&#x17f;" horiz-adv-x="280" d="M81 0 L187 603 Q197 657 223.5 684.5 Q250 712 298 712 Q315 712 331 707.5 Q347 703 358 696 L352 664 Q340 670 327.5 674.5 Q315 679 296 679 Q261 679 245.5 659.5 Q230 640 223 599 L118 0 L81 0 Z " />
<glyph glyph-name="uni01CD" unicode="&#x1cd;" horiz-adv-x="638" d="M515 0 L482 197 L198 197 L98 0 L58 0 L413 700 L439 700 L552 0 L515 0 Z M478 227 L432 528 Q431 534 428.5 548 Q426 562 423.5 578.5 Q421 595 418.5 612 Q416 629 415 640 Q410 628 402.5 611 Q395 594 387 577 Q379 560 372.5 546.5 Q366 533 364 528 L212 227 L478 227 Z M455 766 L423 766 L300 922 L335 922 L443 802 L595 922 L634 922 L455 766 Z " />
<glyph glyph-name="uni01CE" unicode="&#x1ce;" horiz-adv-x="497" d="M371 0 L384 75 Q352 40 309.5 14 Q267 -12 211 -12 Q150 -12 113.5 24.5 Q77 61 77 130 Q77 173 93 207.5 Q109 242 136.5 266.5 Q164 291 200.5 304 Q237 317 277 317 Q323 317 356.5 302.5 Q390 288 417 265 L429 330 Q433 353 434.5 367 Q436 381 436 394 Q436 423 428.5 441.5 Q421 460 408 471 Q395 482 377 486 Q359 490 339 490 Q295 490 252.5 473.5 Q210 457 178 439 L171 471 Q202 488 245.5 505.5 Q289 523 340 523 Q367 523 391 517 Q415 511 433 496 Q451 481 461.5 456.5 Q472 432 472 395 Q472 386 471 374 Q470 362 466 338 L407 0 L371 0 Z M213 21 Q243 21 268.5 30 Q294 39 316.5 53.5 Q339 68 357.5 86 Q376 104 392 122 L412 233 Q386 253 352 268 Q318 283 275 283 Q244 283 215.5 272.5 Q187 262 165.5 242 Q144 222 131 193.5 Q118 165 118 130 Q118 80 143 50.5 Q168 21 213 21 Z M367 576 L335 576 L212 732 L247 732 L355 612 L507 732 L546 732 L367 576 Z " />
<glyph glyph-name="uni01CF" unicode="&#x1cf;" horiz-adv-x="236" d="M87 0 L210 700 L247 700 L124 0 L87 0 Z M256 766 L224 766 L101 922 L136 922 L244 802 L396 922 L435 922 L256 766 Z " />
<glyph glyph-name="uni01D0" unicode="&#x1d0;" horiz-adv-x="228" d="M86 0 L176 511 L211 511 L122 0 L86 0 Z M223 576 L191 576 L68 732 L103 732 L211 612 L363 732 L402 732 L223 576 Z " />
<glyph glyph-name="uni01D1" unicode="&#x1d1;" horiz-adv-x="696" d="M338 24 Q390 24 431.5 42.5 Q473 61 505.5 92 Q538 123 561 164.5 Q584 206 599 251.5 Q614 297 621 344.5 Q628 392 628 436 Q628 483 618.5 526.5 Q609 570 587.5 603 Q566 636 531.5 656 Q497 676 447 676 Q369 676 313.5 636.5 Q258 597 222.5 536.5 Q187 476 170.5 404 Q154 332 154 266 Q154 218 163.5 174 Q173 130 195 96.5 Q217 63 252 43.5 Q287 24 338 24 Z M333 -12 Q274 -12 232.5 12 Q191 36 165 76 Q139 116 127 166.5 Q115 217 115 270 Q115 318 123.5 369 Q132 420 150 469.5 Q168 519 195 563 Q222 607 259.5 640 Q297 673 345 692.5 Q393 712 452 712 Q512 712 552.5 689 Q593 666 618.5 627.5 Q644 589 655 539 Q666 489 666 435 Q666 387 657.5 335 Q649 283 632 233 Q615 183 588 138.5 Q561 94 524 60.5 Q487 27 439.5 7.5 Q392 -12 333 -12 Z M480 766 L448 766 L325 922 L360 922 L468 802 L620 922 L659 922 L480 766 Z " />
<glyph glyph-name="uni01D2" unicode="&#x1d2;" horiz-adv-x="520" d="M259 24 Q306 24 343.5 45.5 Q381 67 407 105.5 Q433 144 447 197.5 Q461 251 461 315 Q461 397 428 442 Q395 487 334 487 Q285 487 247 465 Q209 443 183.5 403.5 Q158 364 144.5 310 Q131 256 131 192 Q131 113 163 68.5 Q195 24 259 24 Z M337 523 Q414 523 457 470.5 Q500 418 500 321 Q500 246 483 184.5 Q466 123 434.5 79.5 Q403 36 357 12 Q311 -12 253 -12 Q178 -12 135 39 Q92 90 92 193 Q92 269 109.5 330.5 Q127 392 159.5 434.5 Q192 477 237 500 Q282 523 337 523 Z M365 576 L333 576 L210 732 L245 732 L353 612 L505 732 L544 732 L365 576 Z " />
<glyph glyph-name="uni01D3" unicode="&#x1d3;" horiz-adv-x="638" d="M305 -12 Q266 -12 232 -1 Q198 10 173.5 33 Q149 56 135 92.5 Q121 129 121 179 Q121 198 123 218.5 Q125 239 129 262 L206 700 L244 700 L168 269 Q163 245 161.5 224 Q160 203 160 185 Q160 134 173.5 102.5 Q187 71 208.5 53.5 Q230 36 255.5 29.5 Q281 23 305 23 Q340 23 374.5 32.5 Q409 42 439 67.5 Q469 93 492 137.5 Q515 182 527 251 L605 700 L642 700 L564 249 Q552 179 529 129.5 Q506 80 473 48.5 Q440 17 397.5 2.5 Q355 -12 305 -12 Z M454 766 L422 766 L299 922 L334 922 L442 802 L594 922 L633 922 L454 766 Z " />
<glyph glyph-name="uni01D4" unicode="&#x1d4;" horiz-adv-x="532" d="M387 0 L402 88 Q385 59 365.5 40 Q346 21 325 9.5 Q304 -2 283.5 -7 Q263 -12 244 -12 Q177 -12 142 24 Q107 60 107 129 Q107 144 109 162 Q111 180 114 199 L169 511 L205 511 L150 191 Q147 174 145.5 158 Q144 142 144 129 Q144 71 171.5 46 Q199 21 250 21 Q278 21 305 31 Q332 41 355.5 64 Q379 87 397 123.5 Q415 160 424 214 L475 511 L512 511 L422 0 L387 0 Z M366 576 L334 576 L211 732 L246 732 L354 612 L506 732 L545 732 L366 576 Z " />
<glyph glyph-name="AEacute" unicode="&#x1fc;" horiz-adv-x="829" d="M383 0 L418 197 L173 197 L26 0 L-19 0 L508 700 L842 700 L837 667 L538 667 L487 379 L679 379 L673 346 L481 346 L426 33 L747 33 L741 0 L383 0 Z M423 227 L492 623 L195 227 L423 227 Z M600 766 L563 766 L741 922 L796 922 L600 766 Z " />
<glyph glyph-name="aeacute" unicode="&#x1fd;" horiz-adv-x="826" d="M216 21 Q245 21 272.5 31.5 Q300 42 325 59.5 Q350 77 372.5 100.5 Q395 124 414 151 Q413 160 412.5 172 Q412 184 412 196 Q412 208 412.5 217.5 Q413 227 414 232 Q388 252 353.5 267.5 Q319 283 275 283 Q248 283 220 273.5 Q192 264 169.5 245 Q147 226 132.5 197.5 Q118 169 118 130 Q118 82 142 51.5 Q166 21 216 21 Z M573 -12 Q510 -12 471.5 21.5 Q433 55 419 118 Q366 46 314 17 Q262 -12 215 -12 Q145 -12 111 27 Q77 66 77 130 Q77 175 94 210 Q111 245 139.5 269 Q168 293 203.5 305 Q239 317 277 317 Q322 317 356.5 302.5 Q391 288 417 265 L431 342 Q434 357 435 370 Q436 383 436 394 Q436 423 428.5 441.5 Q421 460 407.5 471 Q394 482 376.5 486 Q359 490 340 490 Q295 490 253 473.5 Q211 457 178 439 L171 471 Q203 488 245.5 505.5 Q288 523 341 523 Q363 523 385 518.5 Q407 514 425 501.5 Q443 489 455.5 467.5 Q468 446 471 412 Q505 466 554 494.5 Q603 523 660 523 Q692 523 720 513.5 Q748 504 768.5 483 Q789 462 801 429 Q813 396 813 350 Q813 311 801 256 L799 245 L454 245 Q451 218 451 191 Q451 154 457.5 123 Q464 92 479.5 70 Q495 48 520 36 Q545 24 582 24 Q611 24 642 35 Q673 46 704 69 L723 41 Q692 18 655.5 3 Q619 -12 573 -12 Z M661 490 Q616 490 582 472 Q548 454 523 424.5 Q498 395 482.5 357 Q467 319 459 278 L768 278 Q771 298 773 315.5 Q775 333 775 350 Q775 392 764.5 419 Q754 446 737.5 461.5 Q721 477 700.5 483.5 Q680 490 661 490 Z M480 576 L443 576 L621 732 L676 732 L480 576 Z " />
<glyph glyph-name="Oslashacute" unicode="&#x1fe;" horiz-adv-x="696" d="M630 607 Q649 570 657.5 526.5 Q666 483 666 435 Q666 387 657.5 335 Q649 283 632 233 Q615 183 588 138.5 Q561 94 524 60.5 Q487 27 439.5 7.5 Q392 -12 333 -12 Q278 -12 238.5 8.5 Q199 29 173 64 L109 -12 L67 -12 L155 92 Q134 130 124.5 176 Q115 222 115 270 Q115 318 123.5 369 Q132 420 150 469.5 Q168 519 195 563 Q222 607 259.5 640 Q297 673 345 692.5 Q393 712 452 712 Q509 712 548 691.5 Q587 671 613 636 L677 712 L719 712 L630 607 Z M154 266 Q154 226 160 189.5 Q166 153 180 123 L587 605 Q565 637 531 656.5 Q497 676 447 676 Q369 676 313.5 636.5 Q258 597 222.5 536.5 Q187 476 170.5 404 Q154 332 154 266 Z M338 24 Q390 24 431.5 42.5 Q473 61 505.5 92 Q538 123 561 164.5 Q584 206 599 251.5 Q614 297 621 344.5 Q628 392 628 436 Q628 474 622 509 Q616 544 603 574 L197 93 Q219 61 253.5 42.5 Q288 24 338 24 Z M429 766 L392 766 L570 922 L625 922 L429 766 Z " />
<glyph glyph-name="oslashacute" unicode="&#x1ff;" horiz-adv-x="520" d="M476 438 Q500 391 500 321 Q500 246 483 184.5 Q466 123 434.5 79.5 Q403 36 357 12 Q311 -12 253 -12 Q174 -12 132 43 L84 -12 L41 -12 L114 72 Q92 122 92 193 Q92 269 109.5 330.5 Q127 392 159.5 434.5 Q192 477 237 500 Q282 523 337 523 Q376 523 406.5 508.5 Q437 494 458 467 L507 523 L550 523 L476 438 Z M259 24 Q306 24 343.5 45.5 Q381 67 407 105.5 Q433 144 447 197.5 Q461 251 461 315 Q461 366 447 405 L159 74 Q191 24 259 24 Z M131 192 Q131 142 143 106 L431 436 Q399 487 334 487 Q285 487 247 465 Q209 443 183.5 403.5 Q158 364 144.5 310 Q131 256 131 192 Z M324 576 L287 576 L465 732 L520 732 L324 576 Z " />
<glyph glyph-name="uni0218" unicode="&#x218;" horiz-adv-x="570" d="M510 586 Q500 630 468 653.5 Q436 677 381 677 Q303 677 258.5 639 Q214 601 214 538 Q214 498 236 472.5 Q258 447 290.5 427 Q323 407 361 389.5 Q399 372 431.5 348 Q464 324 486 290 Q508 256 508 204 Q508 153 490.5 113 Q473 73 442 45.5 Q411 18 369 3 Q327 -12 279 -12 Q238 -12 205.5 0 Q173 12 148 32 Q123 52 107 78.5 Q91 105 84 135 L121 147 Q136 91 177.5 57 Q219 23 283 23 Q321 23 354.5 34.5 Q388 46 413.5 68.5 Q439 91 454 123 Q469 155 469 197 Q469 243 447 273.5 Q425 304 392.5 326 Q360 348 322 366 Q284 384 251.5 406 Q219 428 197 459 Q175 490 175 537 Q175 573 189.5 605 Q204 637 231 661 Q258 685 296.5 698.5 Q335 712 382 712 Q450 712 494.5 680.5 Q539 649 547 596 L510 586 Z M212 -242 Q230 -222 245 -190.5 Q260 -159 265 -131 Q266 -126 266 -118 Q255 -118 247 -111 Q239 -104 239 -92 Q239 -78 248 -68 Q257 -58 272 -58 Q283 -58 291.5 -66 Q300 -74 300 -93 Q300 -114 292.5 -136.5 Q285 -159 273 -179.5 Q261 -200 247 -217.5 Q233 -235 221 -245 L212 -242 Z " />
<glyph glyph-name="uni0219" unicode="&#x219;" horiz-adv-x="437" d="M392 438 Q375 458 348.5 473.5 Q322 489 282 489 Q225 489 191 459 Q157 429 157 386 Q157 356 174 336.5 Q191 317 216.5 302.5 Q242 288 272 275.5 Q302 263 327.5 245.5 Q353 228 370 202.5 Q387 177 387 138 Q387 70 344.5 29 Q302 -12 222 -12 Q170 -12 131 10.5 Q92 33 69 65 L98 88 Q118 60 149.5 41 Q181 22 224 22 Q281 22 315.5 51 Q350 80 350 135 Q350 169 333 190 Q316 211 290.5 225.5 Q265 240 235.5 252.5 Q206 265 180.5 281.5 Q155 298 138 322.5 Q121 347 121 386 Q121 413 132.5 438 Q144 463 166 482 Q188 501 218 512 Q248 523 286 523 Q331 523 365.5 504.5 Q400 486 420 460 L392 438 Z M152 -242 Q170 -222 185 -190.5 Q200 -159 205 -131 Q206 -126 206 -118 Q195 -118 187 -111 Q179 -104 179 -92 Q179 -78 188 -68 Q197 -58 212 -58 Q223 -58 231.5 -66 Q240 -74 240 -93 Q240 -114 232.5 -136.5 Q225 -159 213 -179.5 Q201 -200 187 -217.5 Q173 -235 161 -245 L152 -242 Z " />
<glyph glyph-name="uni021A" unicode="&#x21a;" horiz-adv-x="537" d="M392 667 L274 0 L237 0 L355 667 L168 667 L174 700 L586 700 L580 667 L392 667 Z M183 -242 Q201 -222 216 -190.5 Q231 -159 236 -131 Q237 -126 237 -118 Q226 -118 218 -111 Q210 -104 210 -92 Q210 -78 219 -68 Q228 -58 243 -58 Q254 -58 262.5 -66 Q271 -74 271 -93 Q271 -114 263.5 -136.5 Q256 -159 244 -179.5 Q232 -200 218 -217.5 Q204 -235 192 -245 L183 -242 Z " />
<glyph glyph-name="uni021B" unicode="&#x21b;" horiz-adv-x="341" d="M206 -12 Q164 -12 145 9.5 Q126 31 126 66 Q126 86 132 119 L195 478 L111 478 L117 511 L201 511 L235 704 L274 722 L237 511 L364 511 L358 478 L231 478 L168 115 Q166 103 164.5 92 Q163 81 163 70 Q163 50 173.5 36.5 Q184 23 212 23 Q234 23 254.5 31 Q275 39 289 47 L278 9 Q261 -1 242.5 -6.5 Q224 -12 206 -12 Z M130 -242 Q148 -222 163 -190.5 Q178 -159 183 -131 Q184 -126 184 -118 Q173 -118 165 -111 Q157 -104 157 -92 Q157 -78 166 -68 Q175 -58 190 -58 Q201 -58 209.5 -66 Q218 -74 218 -93 Q218 -114 210.5 -136.5 Q203 -159 191 -179.5 Q179 -200 165 -217.5 Q151 -235 139 -245 L130 -242 Z " />
<glyph glyph-name="dotlessj" unicode="&#x237;" horiz-adv-x="234" d="M116 -40 Q107 -90 90 -122.5 Q73 -155 50.5 -174 Q28 -193 1.5 -201.5 Q-25 -210 -54 -213 L-67 -182 Q-35 -179 -10.5 -170 Q14 -161 31.5 -144.5 Q49 -128 61 -102.5 Q73 -77 79 -40 L176 511 L212 511 L116 -40 Z " />
<glyph glyph-name="firsttonechinese" unicode="&#x2c9;" horiz-adv-x="311" d="M79 623 L85 656 L415 656 L409 623 L79 623 Z " />
<glyph glyph-name="uni03BC" unicode="&#x3bc;" horiz-adv-x="532" d="M392 0 L407 88 Q380 40 338.5 14 Q297 -12 251 -12 Q208 -12 177 3 Q146 18 130 50 L90 -181 L49 -200 L174 511 L210 511 L155 191 Q149 156 149 132 Q149 96 158.5 74 Q168 52 183 40.5 Q198 29 217 25 Q236 21 255 21 Q283 21 310.5 31 Q338 41 361 64 Q384 87 402 124 Q420 161 429 214 L480 511 L517 511 L427 0 L392 0 Z " />
<glyph glyph-name="Wgrave" unicode="&#x1e80;" horiz-adv-x="812" d="M853 700 L567 0 L536 0 L491 608 L239 0 L207 0 L161 700 L201 700 L239 90 L491 700 L521 700 L566 90 L814 700 L853 700 Z M544 766 L402 922 L457 922 L581 766 L544 766 Z " />
<glyph glyph-name="wgrave" unicode="&#x1e81;" horiz-adv-x="678" d="M488 0 L461 0 L400 441 L189 0 L162 0 L123 511 L159 511 L188 68 L399 511 L425 511 L483 70 L666 511 L703 511 L488 0 Z M442 576 L300 732 L355 732 L479 576 L442 576 Z " />
<glyph glyph-name="Wacute" unicode="&#x1e82;" horiz-adv-x="812" d="M853 700 L567 0 L536 0 L491 608 L239 0 L207 0 L161 700 L201 700 L239 90 L491 700 L521 700 L566 90 L814 700 L853 700 Z M497 766 L460 766 L638 922 L693 922 L497 766 Z " />
<glyph glyph-name="wacute" unicode="&#x1e83;" horiz-adv-x="678" d="M488 0 L461 0 L400 441 L189 0 L162 0 L123 511 L159 511 L188 68 L399 511 L425 511 L483 70 L666 511 L703 511 L488 0 Z M400 576 L363 576 L541 732 L596 732 L400 576 Z " />
<glyph glyph-name="Wdieresis" unicode="&#x1e84;" horiz-adv-x="812" d="M853 700 L567 0 L536 0 L491 608 L239 0 L207 0 L161 700 L201 700 L239 90 L491 700 L521 700 L566 90 L814 700 L853 700 Z M443 813 Q432 813 425.5 820.5 Q419 828 419 839 Q420 853 430.5 863 Q441 873 455 873 Q466 873 472.5 865 Q479 857 479 846 Q478 832 467.5 822.5 Q457 813 443 813 Z M609 813 Q598 813 591.5 820.5 Q585 828 585 839 Q586 853 596.5 863 Q607 873 621 873 Q632 873 638.5 865 Q645 857 645 846 Q644 832 633.5 822.5 Q623 813 609 813 Z " />
<glyph glyph-name="wdieresis" unicode="&#x1e85;" horiz-adv-x="678" d="M488 0 L461 0 L400 441 L189 0 L162 0 L123 511 L159 511 L188 68 L399 511 L425 511 L483 70 L666 511 L703 511 L488 0 Z M347 623 Q336 623 329.5 630.5 Q323 638 323 649 Q324 663 334.5 673 Q345 683 359 683 Q370 683 376.5 675 Q383 667 383 656 Q382 642 371.5 632.5 Q361 623 347 623 Z M513 623 Q502 623 495.5 630.5 Q489 638 489 649 Q490 663 500.5 673 Q511 683 525 683 Q536 683 542.5 675 Q549 667 549 656 Q548 642 537.5 632.5 Q527 623 513 623 Z " />
<glyph glyph-name="Ygrave" unicode="&#x1ef2;" horiz-adv-x="580" d="M255 0 L304 277 L154 700 L191 700 L326 315 L594 700 L635 700 L340 277 L291 0 L255 0 Z M417 766 L275 922 L330 922 L454 766 L417 766 Z " />
<glyph glyph-name="ygrave" unicode="&#x1ef3;" horiz-adv-x="485" d="M209 14 L119 511 L154 511 L234 59 L475 511 L514 511 L136 -194 L98 -194 L209 14 Z M346 576 L204 732 L259 732 L383 576 L346 576 Z " />
<glyph glyph-name="afii00208" unicode="&#x2015;" horiz-adv-x="581" d="M35 269 L41 305 L626 305 L620 269 L35 269 Z " />
<glyph glyph-name="quotereversed" unicode="&#x201b;" horiz-adv-x="182" d="M181 525 Q169 540 159.5 570.5 Q150 601 150 639 Q150 670 161 691 Q172 712 192 712 Q205 712 211.5 704.5 Q218 697 218 687 Q218 671 206.5 661.5 Q195 652 181 652 Q178 644 176.5 634.5 Q175 625 175 606 Q175 584 178.5 563 Q182 542 190 528 L181 525 Z " />
<glyph glyph-name="minute" unicode="&#x2032;" horiz-adv-x="171" d="M181 730 L226 730 L143 425 L107 425 L181 730 Z " />
<glyph glyph-name="second" unicode="&#x2033;" horiz-adv-x="336" d="M181 730 L226 730 L143 425 L107 425 L181 730 Z M346 730 L391 730 L308 425 L272 425 L346 730 Z " />
<glyph glyph-name="nsuperior" unicode="&#x207f;" horiz-adv-x="435" d="M356 283 L397 518 Q405 561 405 588 Q405 637 385.5 658 Q366 679 328 679 Q304 679 281.5 671 Q259 663 240.5 644.5 Q222 626 208.5 597 Q195 568 188 526 L146 283 L109 283 L183 702 L218 702 L206 630 Q226 666 260 689 Q294 712 332 712 Q355 712 375 705.5 Q395 699 409.5 685 Q424 671 432.5 648 Q441 625 441 591 Q441 562 433 519 L391 283 L356 283 Z " />
<glyph glyph-name="afii08941" unicode="&#x20a4;" horiz-adv-x="565" d="M259 251 Q247 179 207 127 Q167 75 111 33 L513 33 L507 0 L73 0 L80 40 Q144 88 180 139.5 Q216 191 221 251 L118 251 L124 284 L223 284 Q223 310 221 331 Q219 352 214 374 L140 374 L145 407 L209 407 Q198 453 198 501 Q198 542 213 580 Q228 618 258 647.5 Q288 677 332.5 694.5 Q377 712 435 712 Q492 712 535 697.5 Q578 683 606 658 L587 626 Q567 646 528.5 661.5 Q490 677 430 677 Q380 677 344 661 Q308 645 284 620.5 Q260 596 248.5 565 Q237 534 237 504 Q237 480 240 455 Q243 430 249 407 L445 407 L439 374 L254 374 Q259 353 260.5 331 Q262 309 262 284 L423 284 L417 251 L259 251 Z " />
<glyph glyph-name="afii61248" unicode="&#x2105;" horiz-adv-x="933" d="M243 272 Q182 272 148.5 318 Q115 364 115 441 Q115 483 126 530.5 Q137 578 160.5 618.5 Q184 659 221.5 685.5 Q259 712 312 712 Q356 712 385.5 689 Q415 666 421 625 L386 612 Q372 675 309 675 Q268 675 239 653 Q210 631 191 596.5 Q172 562 163 521 Q154 480 154 441 Q154 378 177.5 343.5 Q201 309 245 309 Q275 309 302 326.5 Q329 344 349 382 L383 367 Q362 324 327 298 Q292 272 243 272 Z M176 -12 L781 712 L825 712 L220 -12 L176 -12 Z M704 -12 Q641 -12 604.5 32.5 Q568 77 568 157 Q568 219 583 269 Q598 319 625 354.5 Q652 390 689.5 409 Q727 428 773 428 Q838 428 874 382.5 Q910 337 910 259 Q910 197 895 147 Q880 97 853 62 Q826 27 788 7.5 Q750 -12 704 -12 Z M710 24 Q746 24 775.5 40.5 Q805 57 826.5 87.5 Q848 118 859.5 161.5 Q871 205 871 259 Q871 324 844 358 Q817 392 769 392 Q732 392 702 375.5 Q672 359 651 328.5 Q630 298 618.5 254.5 Q607 211 607 157 Q607 94 634.5 59 Q662 24 710 24 Z " />
<glyph glyph-name="afii61289" unicode="&#x2113;" horiz-adv-x="429" d="M235 -12 Q220 -12 206 -8.5 Q192 -5 181 3.5 Q170 12 163.5 26 Q157 40 157 60 Q157 68 159 82.5 Q161 97 164 114 L193 276 Q185 272 173.5 266 Q162 260 150 255 Q138 250 129 246 Q120 242 118 241 L112 266 Q135 275 154.5 285 Q174 295 199 310 L238 532 Q247 583 260 617.5 Q273 652 290 673 Q307 694 326.5 703 Q346 712 367 712 Q401 712 428 684.5 Q455 657 455 599 Q455 542 432 495 Q409 448 375.5 410.5 Q342 373 303 344.5 Q264 316 232 295 L197 96 Q195 88 194.5 80.5 Q194 73 194 63 Q194 40 206 30.5 Q218 21 237 21 Q260 21 283 31.5 Q306 42 323 56 L331 29 Q311 12 287 0 Q263 -12 235 -12 Z M367 679 Q352 679 338.5 672 Q325 665 313 647.5 Q301 630 290.5 600 Q280 570 272 523 L239 333 Q294 370 328.5 404.5 Q363 439 383 471 Q403 503 410.5 534.5 Q418 566 418 599 Q418 632 405.5 655.5 Q393 679 367 679 Z " />
<glyph glyph-name="afii61352" unicode="&#x2116;" horiz-adv-x="1126" d="M726 140 L732 176 L1027 176 L1021 140 L726 140 Z M504 0 L234 631 L123 0 L86 0 L209 700 L244 700 L514 69 L625 700 L662 700 L539 0 L504 0 Z M899 272 Q836 272 799.5 316.5 Q763 361 763 441 Q763 503 778 553 Q793 603 820 638.5 Q847 674 884.5 693 Q922 712 968 712 Q1033 712 1069 666.5 Q1105 621 1105 543 Q1105 481 1090 431 Q1075 381 1048 346 Q1021 311 983 291.5 Q945 272 899 272 Z M905 308 Q941 308 970.5 324.5 Q1000 341 1021.5 371.5 Q1043 402 1054.5 445.5 Q1066 489 1066 543 Q1066 608 1039 642 Q1012 676 964 676 Q927 676 897 659.5 Q867 643 846 612.5 Q825 582 813.5 538.5 Q802 495 802 441 Q802 378 829.5 343 Q857 308 905 308 Z " />
<glyph glyph-name="Ohm" unicode="&#x2126;" horiz-adv-x="714" d="M411 0 L418 42 Q477 84 521 133 Q565 182 594 235 Q623 288 637.5 343 Q652 398 652 451 Q652 493 642 533 Q632 573 609.5 605 Q587 637 550.5 656.5 Q514 676 460 676 Q382 676 326.5 642.5 Q271 609 235.5 557.5 Q200 506 183 443.5 Q166 381 166 324 Q166 287 172.5 248.5 Q179 210 192.5 173 Q206 136 227 102.5 Q248 69 278 42 L271 0 L58 0 L64 36 L242 36 Q188 82 157.5 155.5 Q127 229 127 317 Q127 360 135 406 Q143 452 160 496 Q177 540 203.5 579.5 Q230 619 267 648.5 Q304 678 352 695 Q400 712 460 712 Q523 712 567 689.5 Q611 667 638.5 631 Q666 595 678.5 549.5 Q691 504 691 457 Q691 389 673.5 327.5 Q656 266 625 212.5 Q594 159 551 114.5 Q508 70 456 36 L630 36 L624 0 L411 0 Z " />
<glyph glyph-name="estimated" unicode="&#x212e;" horiz-adv-x="786" d="M453 -12 Q382 -12 319.5 13.5 Q257 39 210 86 Q163 133 135.5 200 Q108 267 108 350 Q108 442 137 510.5 Q166 579 214.5 624.5 Q263 670 326 692.5 Q389 715 456 715 Q520 715 578.5 692 Q637 669 682 623 Q727 577 755.5 509 Q784 441 788 350 L253 350 L253 99 Q293 61 346.5 42.5 Q400 24 453 24 Q501 24 539.5 34.5 Q578 45 609.5 65 Q641 85 666.5 112.5 Q692 140 715 175 L746 156 Q720 118 691.5 87 Q663 56 627.5 34 Q592 12 549.5 0 Q507 -12 453 -12 Z M648 604 Q616 635 567 657 Q518 679 456 679 Q395 679 341 659.5 Q287 640 253 608 L253 386 L648 386 L648 604 Z " />
<glyph glyph-name="onethird" unicode="&#x2153;" horiz-adv-x="694" d="M1 -12 L605 712 L649 712 L45 -12 L1 -12 Z M112 283 L171 617 L115 617 L119 639 Q157 641 173 657 Q189 673 200 705 L225 705 L151 283 L112 283 Z M422 93 Q436 60 456.5 42 Q477 24 519 24 Q567 24 600 50.5 Q633 77 633 125 Q633 157 614.5 177.5 Q596 198 559 198 L528 198 L535 234 L556 234 Q577 234 594.5 242 Q612 250 625 263.5 Q638 277 645.5 294.5 Q653 312 653 331 Q653 357 636.5 375 Q620 393 586 393 Q551 393 525 375.5 Q499 358 479 329 L447 344 Q471 384 508 406.5 Q545 429 587 429 Q635 429 663.5 404.5 Q692 380 692 332 Q692 295 671 264 Q650 233 609 218 Q638 210 654.5 186 Q671 162 671 125 Q671 93 658.5 68 Q646 43 625 25 Q604 7 576.5 -2.5 Q549 -12 519 -12 Q466 -12 433 13.5 Q400 39 388 81 L422 93 Z " />
</font>
</svg>
