<?xml version="1.0" encoding="UTF-8"?>
<svg xmlns="http://www.w3.org/2000/svg" xmlns:xlink="http://www.w3.org/1999/xlink" version="1.2" >
<font id="Overpass-ExtraLight">
<font-face  font-family="Overpass" units-per-em="1000" ascent="750" descent="-250" font-style="normal" font-weight="200" font-stretch="normal" cap-height="700" x-height="511" underline-position="-123" underline-thickness="20" />
<missing-glyph  horiz-adv-x="230" d="" />
<glyph glyph-name="eth" unicode="&#xf0;" horiz-adv-x="550" d="M328 639 Q406 579 441.5 485 Q477 391 477 267 Q477 130 423.5 59 Q370 -12 274 -12 Q228 -12 191 5.5 Q154 23 127.5 54 Q101 85 87 128 Q73 171 73 221 Q73 274 88 317.5 Q103 361 130 391.5 Q157 422 194 439 Q231 456 274 456 Q307 456 334.5 446.5 Q362 437 382.5 420.5 Q403 404 417 382 Q431 360 438 335 Q430 426 396 497.5 Q362 569 305 613 L233 537 L211 559 L277 631 Q220 667 147 677 L147 712 Q235 697 302 657 L367 727 L390 705 L328 639 Z M274 420 Q239 420 209.5 405 Q180 390 158 364 Q136 338 124 301 Q112 264 112 221 Q112 179 123 143 Q134 107 155 80.5 Q176 54 206 39 Q236 24 274 24 Q312 24 342 39 Q372 54 393 80.5 Q414 107 425 142.5 Q436 178 436 220 Q436 262 424.5 298.5 Q413 335 391.5 362 Q370 389 340 404.5 Q310 420 274 420 Z " />
<glyph glyph-name="Lslash" unicode="&#x141;" horiz-adv-x="541" d="M115 0 L115 299 L40 241 L40 281 L115 339 L115 700 L151 700 L151 367 L279 466 L279 426 L151 326 L151 33 L498 33 L498 0 L115 0 Z " />
<glyph glyph-name="lslash" unicode="&#x142;" horiz-adv-x="253" d="M103 0 L103 293 L33 239 L33 278 L103 332 L103 704 L139 722 L139 359 L220 421 L220 382 L139 320 L139 0 L103 0 Z " />
<glyph glyph-name="Scaron" unicode="&#x160;" horiz-adv-x="600" d="M439 586 Q421 630 384 653.5 Q347 677 290 677 Q220 677 181 645 Q142 613 142 557 Q142 523 157 498.5 Q172 474 196 455 Q220 436 251 421.5 Q282 407 314 394 Q347 380 381 362 Q415 344 442.5 318 Q470 292 487.5 256.5 Q505 221 505 173 Q505 129 490 94.5 Q475 60 448 36.5 Q421 13 383.5 0.5 Q346 -12 301 -12 Q261 -12 226 0 Q191 12 163 32 Q135 52 114 78.5 Q93 105 81 135 L119 147 Q144 91 191.5 57 Q239 23 302 23 Q377 23 422 61 Q467 99 467 174 Q467 210 453 238.5 Q439 267 415.5 289.5 Q392 312 361.5 329 Q331 346 298 359 Q263 373 228.5 389.5 Q194 406 166 429.5 Q138 453 121 484 Q104 515 104 559 Q104 592 116.5 620 Q129 648 153 668.5 Q177 689 212 700.5 Q247 712 293 712 Q326 712 355 704 Q384 696 408 681 Q432 666 449 644.5 Q466 623 475 597 L439 586 Z M310 766 L278 766 L127 922 L164 922 L294 802 L424 922 L461 922 L310 766 Z " />
<glyph glyph-name="scaron" unicode="&#x161;" horiz-adv-x="467" d="M348 437 Q327 457 297.5 473 Q268 489 227 489 Q173 489 144 464 Q115 439 115 397 Q115 372 125 355 Q135 338 152.5 325 Q170 312 192.5 302 Q215 292 240 282 Q273 269 301 255.5 Q329 242 349.5 224 Q370 206 382 181 Q394 156 394 120 Q394 61 355 24.5 Q316 -12 241 -12 Q188 -12 148 10.5 Q108 33 80 65 L108 89 Q131 63 164.5 42.5 Q198 22 240 22 Q294 22 325.5 46 Q357 70 357 120 Q357 147 345 167 Q333 187 313.5 203 Q294 219 269 231 Q244 243 217 253 Q154 276 116 308 Q78 340 78 397 Q78 451 117.5 487 Q157 523 228 523 Q271 523 309.5 506 Q348 489 375 460 L348 437 Z M245 576 L213 576 L62 732 L99 732 L229 612 L359 732 L396 732 L245 576 Z " />
<glyph glyph-name="Yacute" unicode="&#xdd;" horiz-adv-x="610" d="M287 0 L287 277 L59 700 L98 700 L305 314 L512 700 L551 700 L323 277 L323 0 L287 0 Z M268 766 L231 766 L382 922 L437 922 L268 766 Z " />
<glyph glyph-name="yacute" unicode="&#xfd;" horiz-adv-x="515" d="M237 12 L53 511 L89 511 L255 59 L421 511 L457 511 L197 -194 L161 -194 L237 12 Z M185 576 L148 576 L299 732 L354 732 L185 576 Z " />
<glyph glyph-name="Thorn" unicode="&#xde;" horiz-adv-x="609" d="M115 0 L115 700 L151 700 L151 561 L333 561 Q396 561 438 543.5 Q480 526 506 497 Q532 468 543 431 Q554 394 554 355 Q554 320 542 283.5 Q530 247 504 217.5 Q478 188 436 169 Q394 150 333 150 L151 150 L151 0 L115 0 Z M334 186 Q384 186 418.5 201.5 Q453 217 474.5 241.5 Q496 266 505.5 296 Q515 326 515 355 Q515 386 506 416.5 Q497 447 476 471 Q455 495 420.5 510 Q386 525 334 525 L151 525 L151 186 L334 186 Z " />
<glyph glyph-name="thorn" unicode="&#xfe;" horiz-adv-x="568" d="M293 -12 Q245 -12 205.5 13.5 Q166 39 144 84 L144 -185 L108 -203 L108 704 L144 722 L144 437 Q197 523 301 523 Q346 523 382 504 Q418 485 443 450 Q468 415 481.5 365.5 Q495 316 495 256 Q495 125 439.5 56.5 Q384 -12 293 -12 Z M293 24 Q371 24 413.5 84 Q456 144 456 256 Q456 308 445 351 Q434 394 413 424 Q392 454 361.5 470.5 Q331 487 293 487 Q246 487 206.5 460.5 Q167 434 144 389 L144 134 Q169 83 207.5 53.5 Q246 24 293 24 Z " />
<glyph glyph-name="Zcaron" unicode="&#x17d;" horiz-adv-x="605" d="M72 0 L72 19 L485 667 L95 667 L95 700 L533 700 L533 679 L124 33 L533 33 L533 0 L72 0 Z M348 766 L316 766 L165 922 L202 922 L332 802 L462 922 L499 922 L348 766 Z " />
<glyph glyph-name="zcaron" unicode="&#x17e;" horiz-adv-x="505" d="M73 0 L73 22 L379 478 L93 478 L93 511 L427 511 L427 490 L120 33 L426 33 L426 0 L73 0 Z M264 576 L232 576 L81 732 L118 732 L248 612 L378 732 L415 732 L264 576 Z " />
<glyph glyph-name="onehalf" unicode="&#xbd;" horiz-adv-x="729" d="M30 -12 L508 712 L551 712 L73 -12 L30 -12 Z M97 283 L97 617 L41 617 L41 639 Q79 641 92.5 657 Q106 673 111 705 L135 705 L135 283 L97 283 Z M405 331 Q416 371 449 400 Q482 429 535 429 Q591 429 626 397 Q661 365 661 308 Q661 253 634.5 220.5 Q608 188 555 157 Q504 128 480 100.5 Q456 73 448 40 L659 40 L659 0 L405 0 Q405 37 416.5 65.5 Q428 94 446 116.5 Q464 139 488 156.5 Q512 174 538 190 Q580 215 601.5 240.5 Q623 266 623 308 Q623 323 618 338 Q613 353 602.5 365 Q592 377 575 385 Q558 393 535 393 Q492 393 470 372 Q448 351 438 318 L405 331 Z " />
<glyph glyph-name="onequarter" unicode="&#xbc;" horiz-adv-x="680" d="M30 -12 L508 712 L551 712 L73 -12 L30 -12 Z M97 283 L97 617 L41 617 L41 639 Q79 641 92.5 657 Q106 673 111 705 L135 705 L135 283 L97 283 Z M527 0 L527 117 L315 117 L315 137 L534 423 L565 423 L565 153 L621 153 L621 117 L565 117 L565 0 L527 0 Z M527 153 L527 360 L368 153 L527 153 Z " />
<glyph glyph-name="onesuperior" unicode="&#xb9;" horiz-adv-x="206" d="M87 444 L87 778 L31 778 L31 800 Q69 802 82.5 818 Q96 834 101 866 L125 866 L125 444 L87 444 Z " />
<glyph glyph-name="threequarters" unicode="&#xbe;" horiz-adv-x="824" d="M173 -12 L651 712 L694 712 L216 -12 L173 -12 Z M79 377 Q95 344 119 325.5 Q143 307 185 307 Q228 307 255.5 329 Q283 351 283 392 Q283 430 260.5 455.5 Q238 481 195 481 L164 481 L164 517 L185 517 Q222 517 244 542.5 Q266 568 266 600 Q266 632 246.5 654 Q227 676 187 676 Q152 676 129.5 658.5 Q107 641 93 612 L59 626 Q76 666 109 689 Q142 712 187 712 Q238 712 271 683 Q304 654 304 600 Q304 570 288 542 Q272 514 241 502 Q277 494 299 465.5 Q321 437 321 392 Q321 364 310 341.5 Q299 319 280.5 303.5 Q262 288 237.5 279.5 Q213 271 185 271 Q131 271 97 296.5 Q63 322 44 364 L79 377 Z M670 0 L670 117 L458 117 L458 137 L677 423 L708 423 L708 153 L764 153 L764 117 L708 117 L708 0 L670 0 Z M670 153 L670 360 L511 153 L670 153 Z " />
<glyph glyph-name="threesuperior" unicode="&#xb3;" horiz-adv-x="373" d="M77 539 Q93 506 117 487.5 Q141 469 183 469 Q226 469 253.5 491 Q281 513 281 554 Q281 592 258.5 617.5 Q236 643 193 643 L162 643 L162 679 L183 679 Q220 679 242 704.5 Q264 730 264 762 Q264 794 244.5 816 Q225 838 185 838 Q150 838 127.5 820.5 Q105 803 91 774 L57 788 Q74 828 107 851 Q140 874 185 874 Q236 874 269 845 Q302 816 302 762 Q302 732 286 704 Q270 676 239 664 Q275 656 297 627.5 Q319 599 319 554 Q319 526 308 503.5 Q297 481 278.5 465.5 Q260 450 235.5 441.5 Q211 433 183 433 Q129 433 95 458.5 Q61 484 42 526 L77 539 Z " />
<glyph glyph-name="twosuperior" unicode="&#xb2;" horiz-adv-x="376" d="M52 775 Q63 815 96 844 Q129 873 182 873 Q238 873 273 841 Q308 809 308 752 Q308 697 281.5 664.5 Q255 632 202 601 Q151 572 127 545 Q103 518 95 485 L306 485 L306 444 L52 444 Q52 481 63.5 509.5 Q75 538 93 560.5 Q111 583 135 600.5 Q159 618 185 634 Q227 659 248.5 684.5 Q270 710 270 752 Q270 767 265 782 Q260 797 249.5 809 Q239 821 222 829 Q205 837 182 837 Q139 837 117 816 Q95 795 85 762 L52 775 Z " />
<glyph glyph-name="brokenbar" unicode="&#xa6;" horiz-adv-x="276" d="M120 393 L120 720 L156 720 L156 393 L120 393 Z M120 -120 L120 205 L156 205 L156 -120 L120 -120 Z " />
<glyph glyph-name="minus" unicode="&#x2212;" horiz-adv-x="666" d="M98 324 L98 360 L568 360 L568 324 L98 324 Z " />
<glyph glyph-name="multiply" unicode="&#xd7;" horiz-adv-x="666" d="M333 316 L144 127 L119 151 L309 341 L119 531 L144 555 L333 366 L522 555 L547 531 L357 341 L547 151 L522 127 L333 316 Z " />
<glyph glyph-name="space" unicode="&#x20;" horiz-adv-x="230" d="" />
<glyph glyph-name="exclam" unicode="&#x21;" horiz-adv-x="276" d="M133 193 L119 460 L119 712 L157 712 L157 460 L143 193 L133 193 Z M138 -14 Q126 -14 117.5 -5.5 Q109 3 109 15 Q109 28 117.5 37 Q126 46 138 46 Q151 46 159 37 Q167 28 167 15 Q167 3 159 -5.5 Q151 -14 138 -14 Z " />
<glyph glyph-name="quotedbl" unicode="&#x22;" horiz-adv-x="372" d="M83 700 L121 700 L121 433 L83 433 L83 700 Z M251 700 L289 700 L289 433 L251 433 L251 700 Z " />
<glyph glyph-name="numbersign" unicode="&#x23;" horiz-adv-x="691" d="M157 0 L192 218 L71 218 L77 254 L197 254 L230 457 L109 457 L115 493 L235 493 L268 700 L306 700 L273 493 L460 493 L493 700 L535 700 L502 493 L620 493 L615 457 L497 457 L464 254 L583 254 L577 218 L459 218 L425 0 L383 0 L417 218 L230 218 L196 0 L157 0 Z M235 254 L422 254 L455 457 L268 457 L235 254 Z " />
<glyph glyph-name="dollar" unicode="&#x24;" horiz-adv-x="598" d="M439 585 Q421 629 384 653 Q347 677 290 677 Q220 677 181 645 Q142 613 142 557 Q142 523 157 498.5 Q172 474 196 455 Q220 436 251 421.5 Q282 407 314 394 Q347 380 381 362 Q415 344 442.5 318 Q470 292 487.5 256.5 Q505 221 505 173 Q505 131 491 97.5 Q477 64 452 40.5 Q427 17 392.5 4 Q358 -9 316 -11 L316 -98 L280 -98 L280 -11 Q244 -8 212.5 5 Q181 18 155.5 37.5 Q130 57 111.5 82 Q93 107 81 135 L119 148 Q144 92 191.5 57.5 Q239 23 302 23 Q377 23 422 61 Q467 99 467 174 Q467 210 453 238.5 Q439 267 415.5 289.5 Q392 312 361.5 329 Q331 346 298 359 Q263 373 228.5 389.5 Q194 406 166 429.5 Q138 453 121 484 Q104 515 104 559 Q104 622 149 665 Q194 708 280 712 L280 789 L316 789 L316 710 Q373 705 416 675 Q459 645 475 597 L439 585 Z " />
<glyph glyph-name="percent" unicode="&#x25;" horiz-adv-x="895" d="M225 356 Q183 356 154 372 Q125 388 107 413.5 Q89 439 81 470.5 Q73 502 73 534 Q73 563 80.5 594.5 Q88 626 106 652 Q124 678 153 695 Q182 712 225 712 Q268 712 297 695 Q326 678 344 652 Q362 626 369.5 594.5 Q377 563 377 534 Q377 502 369 470.5 Q361 439 343 413.5 Q325 388 296 372 Q267 356 225 356 Z M225 392 Q256 392 278 404.5 Q300 417 313.5 437.5 Q327 458 333 483 Q339 508 339 534 Q339 557 333 582 Q327 607 313.5 628 Q300 649 278.5 662.5 Q257 676 225 676 Q193 676 171.5 662.5 Q150 649 136.5 628 Q123 607 117 582 Q111 557 111 534 Q111 508 117 483 Q123 458 136.5 437.5 Q150 417 172 404.5 Q194 392 225 392 Z M230 -12 L187 -12 L665 712 L708 712 L230 -12 Z M670 -12 Q628 -12 599 4 Q570 20 552 45.5 Q534 71 526 102.5 Q518 134 518 166 Q518 195 525.5 226.5 Q533 258 551 284 Q569 310 598 327 Q627 344 670 344 Q713 344 742 327 Q771 310 789 284 Q807 258 814.5 226.5 Q822 195 822 166 Q822 134 814 102.5 Q806 71 788 45.5 Q770 20 741 4 Q712 -12 670 -12 Z M670 24 Q701 24 723 36.5 Q745 49 758.5 69.5 Q772 90 778 115 Q784 140 784 166 Q784 189 778 214 Q772 239 758.5 260 Q745 281 723.5 294.5 Q702 308 670 308 Q638 308 616.5 294.5 Q595 281 581.5 260 Q568 239 562 214 Q556 189 556 166 Q556 140 562 115 Q568 90 581.5 69.5 Q595 49 617 36.5 Q639 24 670 24 Z " />
<glyph glyph-name="ampersand" unicode="&#x26;" horiz-adv-x="656" d="M566 0 L476 107 Q437 56 380.5 22 Q324 -12 251 -12 Q209 -12 174.5 0.5 Q140 13 115 37 Q90 61 76.5 95 Q63 129 63 171 Q63 208 76.5 239 Q90 270 113.5 296.5 Q137 323 169 346.5 Q201 370 238 391 Q212 423 193.5 448.5 Q175 474 164 495 Q153 516 148 535 Q143 554 143 572 Q143 605 155 631 Q167 657 187 675 Q207 693 234.5 702.5 Q262 712 294 712 Q325 712 351.5 701.5 Q378 691 397 672 Q416 653 427 627 Q438 601 438 570 Q438 514 401.5 469.5 Q365 425 293 383 L473 170 Q493 205 505 243.5 Q517 282 522 319 L560 319 Q556 277 541 230.5 Q526 184 499 140 L618 0 L566 0 Z M251 24 Q317 24 367 55.5 Q417 87 452 136 L260 364 Q185 321 143 275.5 Q101 230 101 171 Q101 136 112.5 108.5 Q124 81 144 62 Q164 43 191.5 33.5 Q219 24 251 24 Z M181 572 Q181 537 205 498.5 Q229 460 271 409 Q334 446 367 484.5 Q400 523 400 564 Q400 616 368 646 Q336 676 290 676 Q241 676 211 648 Q181 620 181 572 Z " />
<glyph glyph-name="quotesingle" unicode="&#x27;" horiz-adv-x="204" d="M83 700 L121 700 L121 433 L83 433 L83 700 Z " />
<glyph glyph-name="parenleft" unicode="&#x28;" horiz-adv-x="346" d="M231 -130 Q208 -100 186 -61.5 Q164 -23 147 27.5 Q130 78 119.5 141 Q109 204 109 284 Q109 363 120.5 429 Q132 495 150.5 547.5 Q169 600 193 641 Q217 682 242 712 L278 712 Q265 696 243 658.5 Q221 621 199.5 566 Q178 511 162.5 439.5 Q147 368 147 284 Q147 198 161.5 129 Q176 60 196 7.5 Q216 -45 236 -79.5 Q256 -114 267 -130 L231 -130 Z " />
<glyph glyph-name="parenright" unicode="&#x29;" horiz-adv-x="346" d="M79 -130 Q90 -114 110 -79.5 Q130 -45 150 7.5 Q170 60 184.5 129 Q199 198 199 284 Q199 368 183.5 439.5 Q168 511 146.5 566 Q125 621 103 658.5 Q81 696 68 712 L104 712 Q129 682 153 641 Q177 600 195.5 547.5 Q214 495 225.5 429 Q237 363 237 284 Q237 204 226.5 141 Q216 78 199 27.5 Q182 -23 160 -61.5 Q138 -100 115 -130 L79 -130 Z " />
<glyph glyph-name="asterisk" unicode="&#x2a;" horiz-adv-x="534" d="M318 393 L267 483 L216 393 L156 310 L125 334 L185 417 L258 490 L159 511 L63 543 L76 579 L173 547 L260 502 L247 595 L247 700 L287 700 L287 595 L274 502 L361 547 L458 579 L471 543 L375 511 L276 490 L349 417 L409 334 L378 310 L318 393 Z " />
<glyph glyph-name="plus" unicode="&#x2b;" horiz-adv-x="666" d="M351 324 L351 108 L313 108 L313 324 L98 324 L98 360 L313 360 L313 578 L351 578 L351 360 L568 360 L568 324 L351 324 Z " />
<glyph glyph-name="comma" unicode="&#x2c;" horiz-adv-x="212" d="M77 -138 Q91 -118 100.5 -86.5 Q110 -55 110 -27 Q110 -23 109.5 -20 Q109 -17 109 -14 Q95 -14 86 -6 Q77 2 77 15 Q77 29 85.5 37.5 Q94 46 106 46 Q120 46 129.5 36 Q139 26 139 0 Q139 -21 134 -42.5 Q129 -64 121.5 -82.5 Q114 -101 104.5 -116.5 Q95 -132 86 -141 L77 -138 Z " />
<glyph glyph-name="hyphen" unicode="&#x2d;" horiz-adv-x="409" d="M93 280 L93 316 L316 316 L316 280 L93 280 Z " />
<glyph glyph-name="period" unicode="&#x2e;" horiz-adv-x="212" d="M106 -14 Q94 -14 85.5 -5.5 Q77 3 77 15 Q77 28 85.5 37 Q94 46 106 46 Q119 46 127 37 Q135 28 135 15 Q135 3 127 -5.5 Q119 -14 106 -14 Z " />
<glyph glyph-name="slash" unicode="&#x2f;" horiz-adv-x="492" d="M17 -130 L410 712 L450 712 L57 -130 L17 -130 Z " />
<glyph glyph-name="zero" unicode="0" horiz-adv-x="626" d="M313 -12 Q249 -12 206.5 20 Q164 52 138 103.5 Q112 155 101 219.5 Q90 284 90 350 Q90 386 94 427.5 Q98 469 107.5 509 Q117 549 133.5 586 Q150 623 175 651 Q200 679 234 695.5 Q268 712 313 712 Q377 712 419.5 679.5 Q462 647 488 595 Q514 543 525 478.5 Q536 414 536 350 Q536 313 532 272 Q528 231 518 190.5 Q508 150 491.5 113.5 Q475 77 450.5 49 Q426 21 392 4.5 Q358 -12 313 -12 Z M313 24 Q368 24 404 56 Q440 88 460.5 137 Q481 186 489 243 Q497 300 497 350 Q497 408 488 466 Q479 524 457.5 570.5 Q436 617 400.5 646.5 Q365 676 313 676 Q257 676 221.5 643.5 Q186 611 165.5 562 Q145 513 137 456 Q129 399 129 350 Q129 291 138 232.5 Q147 174 168.5 127.5 Q190 81 225 52.5 Q260 24 313 24 Z " />
<glyph glyph-name="one" unicode="1" horiz-adv-x="340" d="M179 0 L179 582 L60 582 L60 606 Q94 606 116 609.5 Q138 613 152.5 623 Q167 633 175.5 651.5 Q184 670 190 700 L215 700 L215 0 L179 0 Z " />
<glyph glyph-name="two" unicode="2" horiz-adv-x="606" d="M88 0 Q88 59 102.5 101 Q117 143 142.5 175 Q168 207 203.5 233 Q239 259 282 287 Q316 309 350 332 Q384 355 411 383 Q438 411 454.5 445 Q471 479 471 523 Q471 590 428 633 Q385 676 308 676 Q239 676 195.5 640 Q152 604 136 546 L102 562 Q111 594 129 621.5 Q147 649 173 669 Q199 689 233 700.5 Q267 712 308 712 Q356 712 393 698 Q430 684 456 659 Q482 634 495.5 599.5 Q509 565 509 523 Q509 472 490.5 433 Q472 394 442.5 363 Q413 332 376 306.5 Q339 281 301 257 Q261 231 229.5 207.5 Q198 184 176.5 158.5 Q155 133 142.5 103 Q130 73 129 36 L515 36 L515 0 L88 0 Z " />
<glyph glyph-name="three" unicode="3" horiz-adv-x="596" d="M289 -12 Q243 -12 206.5 0.5 Q170 13 142.5 34 Q115 55 95 82 Q75 109 63 139 L98 152 Q126 90 173 57 Q220 24 289 24 Q327 24 360 34 Q393 44 417.5 64 Q442 84 456 113.5 Q470 143 470 182 Q470 258 425.5 302 Q381 346 298 346 L260 346 L260 381 L283 381 Q317 381 346 391.5 Q375 402 396.5 422 Q418 442 430 471 Q442 500 442 536 Q442 568 430.5 594 Q419 620 398.5 638 Q378 656 350.5 666 Q323 676 291 676 Q257 676 230 666 Q203 656 182.5 640 Q162 624 147.5 604.5 Q133 585 124 567 L90 581 Q101 605 119.5 628.5 Q138 652 163.5 670.5 Q189 689 221 700.5 Q253 712 291 712 Q331 712 366 699.5 Q401 687 426 663.5 Q451 640 465.5 607.5 Q480 575 480 536 Q480 483 453 436.5 Q426 390 366 367 Q431 354 469.5 304 Q508 254 508 182 Q508 137 491.5 101.5 Q475 66 445.5 40.5 Q416 15 376 1.5 Q336 -12 289 -12 Z " />
<glyph glyph-name="four" unicode="4" horiz-adv-x="593" d="M390 0 L390 204 L48 204 L48 225 L410 700 L426 700 L426 237 L532 237 L532 204 L426 204 L426 0 L390 0 Z M390 237 L390 620 L99 237 L390 237 Z " />
<glyph glyph-name="five" unicode="5" horiz-adv-x="634" d="M304 -12 Q265 -12 232 -3 Q199 6 172 19.5 Q145 33 124.5 49 Q104 65 91 79 L115 109 Q127 95 145 80.5 Q163 66 186.5 53 Q210 40 239.5 32 Q269 24 305 24 Q357 24 394.5 41 Q432 58 456.5 86 Q481 114 493 151 Q505 188 505 227 Q505 269 491 304 Q477 339 452 364 Q427 389 392.5 402.5 Q358 416 317 416 Q257 416 216 392.5 Q175 369 147 337 L117 345 L174 700 L497 700 L497 664 L206 664 L163 396 Q192 422 231 437 Q270 452 318 452 Q366 452 407.5 435.5 Q449 419 479 389.5 Q509 360 526 318.5 Q543 277 543 227 Q543 181 528.5 138 Q514 95 484.5 61.5 Q455 28 410 8 Q365 -12 304 -12 Z " />
<glyph glyph-name="six" unicode="6" horiz-adv-x="592" d="M292 -12 Q234 -12 193 9.5 Q152 31 126.5 65 Q101 99 89.5 141.5 Q78 184 78 227 Q78 311 98.5 386.5 Q119 462 159.5 525 Q200 588 261.5 635.5 Q323 683 406 712 L406 675 Q296 637 222.5 552 Q149 467 123 335 Q149 377 195 401 Q241 425 292 425 Q341 425 380.5 408.5 Q420 392 447.5 363.5 Q475 335 490 295.5 Q505 256 505 210 Q505 162 489.5 121.5 Q474 81 446.5 51 Q419 21 379.5 4.5 Q340 -12 292 -12 Z M292 389 Q254 389 222 375.5 Q190 362 167 338 Q144 314 131 281 Q118 248 118 210 Q118 170 130.5 136 Q143 102 166 77 Q189 52 221 38 Q253 24 292 24 Q331 24 363.5 38 Q396 52 419 76 Q442 100 454.5 133 Q467 166 467 205 Q467 245 455 279 Q443 313 420 337.5 Q397 362 364.5 375.5 Q332 389 292 389 Z " />
<glyph glyph-name="seven" unicode="7" horiz-adv-x="505" d="M182 0 Q183 85 194 168.5 Q205 252 231 335 Q257 418 301 500 Q345 582 413 664 L54 664 L54 700 L451 700 L451 669 Q375 583 330 492.5 Q285 402 261 315 Q237 228 229.5 147.5 Q222 67 221 0 L182 0 Z " />
<glyph glyph-name="eight" unicode="8" horiz-adv-x="604" d="M302 24 Q339 24 370.5 35.5 Q402 47 425 69 Q448 91 461.5 121.5 Q475 152 475 191 Q475 227 462.5 259.5 Q450 292 427.5 316.5 Q405 341 373 355 Q341 369 302 369 Q263 369 231 355 Q199 341 176.5 316.5 Q154 292 141.5 259.5 Q129 227 129 191 Q129 152 142 121.5 Q155 91 178.5 69 Q202 47 233.5 35.5 Q265 24 302 24 Z M302 712 Q341 712 374 698.5 Q407 685 431.5 661 Q456 637 469.5 605.5 Q483 574 483 538 Q483 488 455 446 Q427 404 368 386 Q437 367 476 314.5 Q515 262 515 191 Q515 148 499 111 Q483 74 454.5 46.5 Q426 19 387 3.5 Q348 -12 302 -12 Q256 -12 217 3.5 Q178 19 149.5 46.5 Q121 74 105 111 Q89 148 89 191 Q89 226 99.5 258 Q110 290 128.5 315.5 Q147 341 174 359 Q201 377 234 386 Q179 403 150 445.5 Q121 488 121 538 Q121 574 134.5 605.5 Q148 637 172.5 661 Q197 685 230 698.5 Q263 712 302 712 Z M302 401 Q368 401 406.5 439 Q445 477 445 538 Q445 570 434 595.5 Q423 621 404 639 Q385 657 358.5 666.5 Q332 676 302 676 Q272 676 245.5 666.5 Q219 657 200 639 Q181 621 170 595.5 Q159 570 159 538 Q159 477 197.5 439 Q236 401 302 401 Z " />
<glyph glyph-name="nine" unicode="9" horiz-adv-x="592" d="M292 712 Q344 712 384 692 Q424 672 451 639.5 Q478 607 491.5 565.5 Q505 524 505 480 Q505 392 482 312.5 Q459 233 417 168 Q375 103 317 56.5 Q259 10 189 -12 L189 24 Q244 42 289.5 77.5 Q335 113 369 159.5 Q403 206 424.5 261 Q446 316 454 374 Q430 338 387 313 Q344 288 278 288 Q234 288 197 304 Q160 320 133.5 348.5 Q107 377 92 415 Q77 453 77 497 Q77 543 93 582 Q109 621 137.5 650 Q166 679 205.5 695.5 Q245 712 292 712 Z M283 324 Q323 324 356.5 337.5 Q390 351 414 374 Q438 397 451 429 Q464 461 464 497 Q464 535 450.5 568 Q437 601 413.5 625 Q390 649 358.5 662.5 Q327 676 290 676 Q251 676 219 662.5 Q187 649 163.5 625.5 Q140 602 127.5 570 Q115 538 115 502 Q115 464 127 431.5 Q139 399 161 375 Q183 351 214 337.5 Q245 324 283 324 Z " />
<glyph glyph-name="colon" unicode="&#x3a;" horiz-adv-x="212" d="M106 -14 Q94 -14 85.5 -5.5 Q77 3 77 15 Q77 28 85.5 37 Q94 46 106 46 Q119 46 127 37 Q135 28 135 15 Q135 3 127 -5.5 Q119 -14 106 -14 Z M106 423 Q94 423 85.5 431.5 Q77 440 77 452 Q77 465 85.5 474 Q94 483 106 483 Q119 483 127 474 Q135 465 135 452 Q135 440 127 431.5 Q119 423 106 423 Z " />
<glyph glyph-name="semicolon" unicode="&#x3b;" horiz-adv-x="212" d="M106 423 Q94 423 85.5 431.5 Q77 440 77 452 Q77 465 85.5 474 Q94 483 106 483 Q119 483 127 474 Q135 465 135 452 Q135 440 127 431.5 Q119 423 106 423 Z M77 -138 Q91 -118 100.5 -86.5 Q110 -55 110 -27 Q110 -23 109.5 -20 Q109 -17 109 -14 Q95 -14 86 -6 Q77 2 77 15 Q77 29 85.5 37.5 Q94 46 106 46 Q120 46 129.5 36 Q139 26 139 0 Q139 -21 134 -42.5 Q129 -64 121.5 -82.5 Q114 -101 104.5 -116.5 Q95 -132 86 -141 L77 -138 Z " />
<glyph glyph-name="less" unicode="&#x3c;" horiz-adv-x="666" d="M568 120 L98 324 L98 362 L568 566 L568 525 L145 343 L568 161 L568 120 Z " />
<glyph glyph-name="equal" unicode="&#x3d;" horiz-adv-x="666" d="M98 229 L98 265 L568 265 L568 229 L98 229 Z M98 419 L98 455 L568 455 L568 419 L98 419 Z " />
<glyph glyph-name="greater" unicode="&#x3e;" horiz-adv-x="666" d="M568 324 L98 120 L98 161 L521 343 L98 525 L98 566 L568 362 L568 324 Z " />
<glyph glyph-name="question" unicode="&#x3f;" horiz-adv-x="532" d="M236 156 L236 190 Q236 234 250 266.5 Q264 299 285 325 Q306 351 330 373 Q354 395 375 418 Q396 441 410 468 Q424 495 424 532 Q424 562 414 588 Q404 614 384 633.5 Q364 653 335 664.5 Q306 676 268 676 Q139 676 102 555 L68 570 Q90 639 142.5 675.5 Q195 712 268 712 Q315 712 351 698 Q387 684 412 659.5 Q437 635 449.5 602 Q462 569 462 532 Q462 491 448 461.5 Q434 432 413 407.5 Q392 383 368 361.5 Q344 340 323 315.5 Q302 291 288 261 Q274 231 274 190 L274 156 L236 156 Z M255 -14 Q243 -14 234.5 -5.5 Q226 3 226 15 Q226 28 234.5 37 Q243 46 255 46 Q268 46 276 37 Q284 28 284 15 Q284 3 276 -5.5 Q268 -14 255 -14 Z " />
<glyph glyph-name="at" unicode="&#x40;" horiz-adv-x="805" d="M402 -12 Q333 -12 272 11 Q211 34 165.5 78.5 Q120 123 93.5 187 Q67 251 67 334 Q67 417 95.5 486.5 Q124 556 173 606 Q222 656 286 684 Q350 712 421 712 Q491 712 549.5 691 Q608 670 650 631.5 Q692 593 715 539 Q738 485 738 419 Q738 362 726 314.5 Q714 267 693.5 232.5 Q673 198 645 179 Q617 160 586 160 Q554 160 532 178.5 Q510 197 506 234 Q492 208 475.5 192 Q459 176 441 167 Q423 158 406 154.5 Q389 151 374 151 Q309 151 270 195 Q231 239 231 320 Q231 358 243 395.5 Q255 433 278 462.5 Q301 492 333.5 510.5 Q366 529 407 529 Q434 529 454.5 520.5 Q475 512 490.5 498 Q506 484 515.5 466.5 Q525 449 530 430 L545 516 L580 516 L545 311 Q542 295 540.5 278.5 Q539 262 539 251 Q539 222 551.5 206.5 Q564 191 586 191 Q610 191 631 208 Q652 225 667 255 Q682 285 691 327 Q700 369 700 419 Q700 476 679.5 523.5 Q659 571 622 604.5 Q585 638 533.5 657 Q482 676 421 676 Q356 676 298.5 650.5 Q241 625 198 579 Q155 533 130 470.5 Q105 408 105 333 Q105 268 125.5 211.5 Q146 155 184.5 113.5 Q223 72 279 48 Q335 24 406 24 Q436 24 469 27 Q502 30 530 37 L522 1 Q496 -6 465.5 -9 Q435 -12 402 -12 Z M411 494 Q376 494 349.5 480 Q323 466 305 442 Q287 418 278 386 Q269 354 269 319 Q269 257 299 221.5 Q329 186 378 186 Q409 186 434.5 200 Q460 214 478 238 Q496 262 506 293.5 Q516 325 516 361 Q516 391 507.5 416 Q499 441 484.5 458 Q470 475 451 484.5 Q432 494 411 494 Z " />
<glyph glyph-name="A" unicode="A" horiz-adv-x="668" d="M552 0 L482 197 L185 197 L118 0 L81 0 L321 700 L345 700 L587 0 L552 0 Z M473 227 L369 529 Q367 535 362.5 549 Q358 563 352.5 579.5 Q347 596 342 612.5 Q337 629 334 640 Q331 629 326 612 Q321 595 315 578 Q309 561 304 547.5 Q299 534 298 529 L194 227 L473 227 Z " />
<glyph glyph-name="B" unicode="B" horiz-adv-x="642" d="M115 700 L330 700 Q387 700 425 685 Q463 670 486 645.5 Q509 621 518.5 590 Q528 559 528 526 Q528 468 492.5 423.5 Q457 379 393 365 Q428 362 457.5 348 Q487 334 508 311 Q529 288 541 257 Q553 226 553 188 Q553 154 543 120.5 Q533 87 509 60 Q485 33 445.5 16.5 Q406 0 346 0 L115 0 L115 700 Z M355 32 Q402 32 433.5 44.5 Q465 57 483.5 78 Q502 99 509.5 126 Q517 153 517 181 Q517 214 508.5 244 Q500 274 478 297 Q456 320 418.5 333.5 Q381 347 323 347 L151 347 L151 32 L355 32 Z M311 379 Q401 379 446.5 419.5 Q492 460 492 528 Q492 553 485.5 578.5 Q479 604 461 623.5 Q443 643 412 655.5 Q381 668 333 668 L151 668 L151 379 L311 379 Z " />
<glyph glyph-name="C" unicode="C" horiz-adv-x="650" d="M361 -12 Q288 -12 236.5 19 Q185 50 152.5 100.5 Q120 151 105 216 Q90 281 90 350 Q90 420 106.5 485 Q123 550 156 600.5 Q189 651 240 681.5 Q291 712 360 712 Q404 712 436.5 702.5 Q469 693 492 677 Q515 661 531.5 640.5 Q548 620 560 599 L529 581 Q518 599 504.5 616 Q491 633 471.5 646.5 Q452 660 424.5 668 Q397 676 360 676 Q301 676 257.5 648.5 Q214 621 185.5 576 Q157 531 143 472 Q129 413 129 350 Q129 288 141.5 229 Q154 170 182 124.5 Q210 79 254 51.5 Q298 24 361 24 Q396 24 424.5 33 Q453 42 474.5 56.5 Q496 71 511.5 90 Q527 109 537 129 L570 116 Q559 92 540.5 69 Q522 46 496.5 28 Q471 10 437 -1 Q403 -12 361 -12 Z " />
<glyph glyph-name="D" unicode="D" horiz-adv-x="675" d="M115 700 L275 700 Q362 700 421.5 669.5 Q481 639 517 589.5 Q553 540 569 477.5 Q585 415 585 350 Q585 290 570.5 227.5 Q556 165 520 114.5 Q484 64 423.5 32 Q363 0 271 0 L115 0 L115 700 Z M271 36 Q352 36 405 65 Q458 94 489.5 139 Q521 184 533.5 240 Q546 296 546 350 Q546 408 532 464.5 Q518 521 486.5 565 Q455 609 403 636.5 Q351 664 275 664 L151 664 L151 36 L271 36 Z " />
<glyph glyph-name="E" unicode="E" horiz-adv-x="592" d="M115 0 L115 700 L480 700 L480 667 L151 667 L151 379 L373 379 L373 346 L151 346 L151 33 L502 33 L502 0 L115 0 Z " />
<glyph glyph-name="F" unicode="F" horiz-adv-x="560" d="M115 0 L115 700 L490 700 L490 667 L151 667 L151 379 L380 379 L380 346 L151 346 L151 0 L115 0 Z " />
<glyph glyph-name="G" unicode="G" horiz-adv-x="691" d="M363 -12 Q289 -12 237.5 19 Q186 50 153 100.5 Q120 151 105 216 Q90 281 90 350 Q90 422 106 487.5 Q122 553 155.5 603 Q189 653 240.5 682.5 Q292 712 363 712 Q400 712 430 703.5 Q460 695 483 681.5 Q506 668 523.5 650.5 Q541 633 554 616 L522 595 Q499 627 461 651.5 Q423 676 363 676 Q298 676 253.5 646.5 Q209 617 181 570 Q153 523 141 465 Q129 407 129 350 Q129 287 142.5 228 Q156 169 184.5 123.5 Q213 78 257 51 Q301 24 363 24 Q447 24 497 84.5 Q547 145 547 269 L547 281 L400 281 L400 315 L585 315 L585 281 Q585 203 568.5 147.5 Q552 92 522 56.5 Q492 21 451.5 4.5 Q411 -12 363 -12 Z " />
<glyph glyph-name="H" unicode="H" horiz-adv-x="678" d="M527 0 L527 347 L151 347 L151 0 L115 0 L115 700 L151 700 L151 381 L527 381 L527 700 L563 700 L563 0 L527 0 Z " />
<glyph glyph-name="I" unicode="I" horiz-adv-x="266" d="M115 0 L115 700 L151 700 L151 0 L115 0 Z " />
<glyph glyph-name="J" unicode="J" horiz-adv-x="542" d="M225 -12 Q149 -12 107.5 19.5 Q66 51 43 107 L73 123 Q93 78 128 50 Q163 22 225 22 Q253 22 283 30.5 Q313 39 338 61.5 Q363 84 379 123 Q395 162 395 223 L395 700 L431 700 L431 225 Q431 153 411.5 107 Q392 61 362 34.5 Q332 8 295.5 -2 Q259 -12 225 -12 Z " />
<glyph glyph-name="K" unicode="K" horiz-adv-x="629" d="M519 0 L284 431 L151 264 L151 0 L115 0 L115 700 L151 700 L151 317 L455 700 L498 700 L309 462 L561 0 L519 0 Z " />
<glyph glyph-name="L" unicode="L" horiz-adv-x="541" d="M115 0 L115 700 L151 700 L151 33 L498 33 L498 0 L115 0 Z " />
<glyph glyph-name="M" unicode="M" horiz-adv-x="808" d="M657 0 L657 596 L404 -12 L151 596 L151 0 L115 0 L115 700 L147 700 L404 81 L661 700 L693 700 L693 0 L657 0 Z " />
<glyph glyph-name="N" unicode="N" horiz-adv-x="691" d="M541 0 L151 631 L151 0 L115 0 L115 700 L150 700 L540 69 L540 700 L576 700 L576 0 L541 0 Z " />
<glyph glyph-name="O" unicode="O" horiz-adv-x="726" d="M363 24 Q428 24 473 53.5 Q518 83 545.5 130 Q573 177 585 235 Q597 293 597 350 Q597 412 585 471 Q573 530 545.5 575.5 Q518 621 473 648.5 Q428 676 363 676 Q298 676 253 646.5 Q208 617 180.5 570 Q153 523 141 465 Q129 407 129 350 Q129 288 141 229 Q153 170 180.5 124.5 Q208 79 253 51.5 Q298 24 363 24 Z M363 -12 Q288 -12 236 20 Q184 52 151.5 104 Q119 156 104.5 220.5 Q90 285 90 350 Q90 415 104.5 479.5 Q119 544 151.5 596 Q184 648 236 680 Q288 712 363 712 Q438 712 490 680 Q542 648 574.5 596 Q607 544 621.5 479.5 Q636 415 636 350 Q636 285 621.5 220.5 Q607 156 574.5 104 Q542 52 490 20 Q438 -12 363 -12 Z " />
<glyph glyph-name="P" unicode="P" horiz-adv-x="609" d="M115 0 L115 700 L334 700 Q397 700 439 682 Q481 664 506.5 635 Q532 606 543 569 Q554 532 554 494 Q554 459 542.5 422.5 Q531 386 504.5 356.5 Q478 327 436 308 Q394 289 334 289 L151 289 L151 0 L115 0 Z M334 325 Q384 325 418.5 340.5 Q453 356 474.5 380.5 Q496 405 505.5 435 Q515 465 515 494 Q515 525 506 555.5 Q497 586 476 610 Q455 634 420.5 649 Q386 664 334 664 L151 664 L151 325 L334 325 Z " />
<glyph glyph-name="Q" unicode="Q" horiz-adv-x="726" d="M569 -57 L509 33 Q480 12 444 0 Q408 -12 363 -12 Q288 -12 236 20 Q184 52 151.5 104 Q119 156 104.5 220.5 Q90 285 90 350 Q90 415 104.5 479.5 Q119 544 151.5 596 Q184 648 236 680 Q288 712 363 712 Q438 712 490 680 Q542 648 574.5 596 Q607 544 621.5 479.5 Q636 415 636 350 Q636 309 630.5 267.5 Q625 226 612.5 187 Q600 148 580.5 114 Q561 80 534 54 L596 -38 L569 -57 Z M363 24 Q401 24 432 34.5 Q463 45 488 64 L427 155 L454 174 L513 86 Q536 110 552 140.5 Q568 171 578 205.5 Q588 240 592.5 277 Q597 314 597 350 Q597 412 585 471 Q573 530 545.5 575.5 Q518 621 473 648.5 Q428 676 363 676 Q298 676 253 646.5 Q208 617 180.5 570 Q153 523 141 465 Q129 407 129 350 Q129 288 141 229 Q153 170 180.5 124.5 Q208 79 253 51.5 Q298 24 363 24 Z " />
<glyph glyph-name="R" unicode="R" horiz-adv-x="654" d="M556 517 Q556 482 545.5 449.5 Q535 417 512.5 391.5 Q490 366 455.5 349.5 Q421 333 373 329 L534 0 L494 0 L335 329 L151 329 L151 0 L115 0 L115 700 L355 700 Q412 700 450.5 684 Q489 668 512.5 642 Q536 616 546 583.5 Q556 551 556 517 Z M355 362 Q401 362 432.5 376 Q464 390 483 412 Q502 434 510 461.5 Q518 489 518 517 Q518 541 510.5 567.5 Q503 594 484.5 616 Q466 638 434.5 652.5 Q403 667 355 667 L151 667 L151 362 L355 362 Z " />
<glyph glyph-name="S" unicode="S" horiz-adv-x="600" d="M439 586 Q421 630 384 653.5 Q347 677 290 677 Q220 677 181 645 Q142 613 142 557 Q142 523 157 498.5 Q172 474 196 455 Q220 436 251 421.5 Q282 407 314 394 Q347 380 381 362 Q415 344 442.5 318 Q470 292 487.5 256.5 Q505 221 505 173 Q505 129 490 94.5 Q475 60 448 36.5 Q421 13 383.5 0.5 Q346 -12 301 -12 Q261 -12 226 0 Q191 12 163 32 Q135 52 114 78.5 Q93 105 81 135 L119 147 Q144 91 191.5 57 Q239 23 302 23 Q377 23 422 61 Q467 99 467 174 Q467 210 453 238.5 Q439 267 415.5 289.5 Q392 312 361.5 329 Q331 346 298 359 Q263 373 228.5 389.5 Q194 406 166 429.5 Q138 453 121 484 Q104 515 104 559 Q104 592 116.5 620 Q129 648 153 668.5 Q177 689 212 700.5 Q247 712 293 712 Q326 712 355 704 Q384 696 408 681 Q432 666 449 644.5 Q466 623 475 597 L439 586 Z " />
<glyph glyph-name="T" unicode="T" horiz-adv-x="567" d="M301 667 L301 0 L265 0 L265 667 L73 667 L73 700 L494 700 L494 667 L301 667 Z " />
<glyph glyph-name="U" unicode="U" horiz-adv-x="668" d="M334 -12 Q282 -12 240.5 2.5 Q199 17 170.5 48.5 Q142 80 126.5 129.5 Q111 179 111 249 L111 700 L147 700 L147 251 Q147 182 162.5 137.5 Q178 93 203.5 67.5 Q229 42 263 32 Q297 22 334 22 Q371 22 405 32 Q439 42 464.5 67.5 Q490 93 505.5 137.5 Q521 182 521 251 L521 700 L557 700 L557 249 Q557 179 541.5 129.5 Q526 80 497.5 48.5 Q469 17 427.5 2.5 Q386 -12 334 -12 Z " />
<glyph glyph-name="V" unicode="V" horiz-adv-x="642" d="M335 0 L307 0 L68 700 L107 700 L321 75 L535 700 L574 700 L335 0 Z " />
<glyph glyph-name="W" unicode="W" horiz-adv-x="842" d="M774 700 L604 0 L574 0 L421 612 L268 0 L238 0 L68 700 L107 700 L254 90 L406 700 L436 700 L588 90 L735 700 L774 700 Z " />
<glyph glyph-name="X" unicode="X" horiz-adv-x="556" d="M458 0 L278 329 L98 0 L58 0 L259 366 L75 700 L115 700 L278 402 L441 700 L481 700 L297 366 L498 0 L458 0 Z " />
<glyph glyph-name="Y" unicode="Y" horiz-adv-x="610" d="M287 0 L287 277 L59 700 L98 700 L305 314 L512 700 L551 700 L323 277 L323 0 L287 0 Z " />
<glyph glyph-name="Z" unicode="Z" horiz-adv-x="605" d="M72 0 L72 19 L485 667 L95 667 L95 700 L533 700 L533 679 L124 33 L533 33 L533 0 L72 0 Z " />
<glyph glyph-name="bracketleft" unicode="&#x5b;" horiz-adv-x="385" d="M135 -130 L135 712 L310 712 L310 678 L171 678 L171 -96 L310 -96 L310 -130 L135 -130 Z " />
<glyph glyph-name="backslash" unicode="&#x5c;" horiz-adv-x="492" d="M411 -130 L18 712 L56 712 L449 -130 L411 -130 Z " />
<glyph glyph-name="bracketright" unicode="&#x5d;" horiz-adv-x="385" d="M250 -130 L75 -130 L75 -96 L214 -96 L214 678 L75 678 L75 712 L250 712 L250 -130 Z " />
<glyph glyph-name="asciicircum" unicode="&#x5e;" horiz-adv-x="666" d="M508 362 L333 663 L158 362 L120 362 L314 712 L352 712 L546 362 L508 362 Z " />
<glyph glyph-name="underscore" unicode="&#x5f;" horiz-adv-x="536" d="M13 -155 L13 -122 L523 -122 L523 -155 L13 -155 Z " />
<glyph glyph-name="grave" unicode="&#x60;" horiz-adv-x="341" d="M207 576 L38 732 L93 732 L244 576 L207 576 Z " />
<glyph glyph-name="a" unicode="a" horiz-adv-x="527" d="M403 0 L403 80 Q373 38 330.5 13 Q288 -12 241 -12 Q166 -12 122 30.5 Q78 73 78 154 Q78 196 92 226.5 Q106 257 129.5 277 Q153 297 185 306.5 Q217 316 253 316 Q294 316 331 303 Q368 290 403 267 L403 343 Q403 388 392.5 417 Q382 446 365 462 Q348 478 325 484 Q302 490 278 490 Q236 490 195 474.5 Q154 459 124 441 L113 472 Q142 489 185 506 Q228 523 281 523 Q308 523 336 516 Q364 509 387 491 Q410 473 424.5 441 Q439 409 439 358 L439 0 L403 0 Z M241 21 Q269 21 293 30 Q317 39 337 53.5 Q357 68 373.5 86 Q390 104 403 122 L403 233 Q374 253 335.5 268 Q297 283 253 283 Q227 283 202.5 275 Q178 267 159 251.5 Q140 236 128.5 211.5 Q117 187 117 154 Q117 94 150.5 57.5 Q184 21 241 21 Z " />
<glyph glyph-name="b" unicode="b" horiz-adv-x="564" d="M303 -12 Q252 -12 214 8 Q176 28 144 73 L144 0 L108 0 L108 704 L144 722 L144 436 Q168 476 208.5 499.5 Q249 523 297 523 Q386 523 438.5 453 Q491 383 491 256 Q491 125 441 56.5 Q391 -12 303 -12 Z M300 24 Q375 24 413.5 87 Q452 150 452 256 Q452 368 412.5 427.5 Q373 487 296 487 Q268 487 244 477 Q220 467 200.5 451.5 Q181 436 166.5 417.5 Q152 399 144 383 L144 129 Q168 82 209 53 Q250 24 300 24 Z " />
<glyph glyph-name="c" unicode="c" horiz-adv-x="483" d="M257 -12 Q172 -12 122.5 57.5 Q73 127 73 255 Q73 382 123.5 452.5 Q174 523 264 523 Q316 523 355 495.5 Q394 468 413 416 L377 402 Q363 443 333 465 Q303 487 264 487 Q188 487 150 428 Q112 369 112 255 Q112 145 151.5 84.5 Q191 24 257 24 Q303 24 337 49.5 Q371 75 384 118 L420 105 Q403 51 360 19.5 Q317 -12 257 -12 Z " />
<glyph glyph-name="d" unicode="d" horiz-adv-x="564" d="M267 -12 Q222 -12 186 7 Q150 26 125 61 Q100 96 86.5 145.5 Q73 195 73 256 Q73 383 125.5 453 Q178 523 275 523 Q303 523 325.5 515 Q348 507 365.5 494.5 Q383 482 396.5 466.5 Q410 451 420 436 L420 704 L456 722 L456 0 L420 0 L420 73 Q389 28 350 8 Q311 -12 267 -12 Z M275 24 Q319 24 358 54.5 Q397 85 420 129 L420 384 Q411 399 397.5 416.5 Q384 434 366 450 Q348 466 325 476.5 Q302 487 275 487 Q196 487 154 427 Q112 367 112 256 Q112 208 123.5 165.5 Q135 123 156 91.5 Q177 60 207 42 Q237 24 275 24 Z " />
<glyph glyph-name="e" unicode="e" horiz-adv-x="531" d="M112 245 Q116 130 160 77 Q204 24 281 24 Q310 24 341.5 34 Q373 44 401 67 L422 41 Q395 18 357.5 3 Q320 -12 278 -12 Q180 -12 126.5 60 Q73 132 73 256 Q73 320 88.5 369.5 Q104 419 131 453 Q158 487 195.5 505 Q233 523 278 523 Q319 523 353 507.5 Q387 492 411.5 459.5 Q436 427 449.5 376.5 Q463 326 463 256 L463 245 L112 245 Z M278 490 Q244 490 215 477.5 Q186 465 164 439.5 Q142 414 128.5 373.5 Q115 333 112 278 L425 278 Q425 342 410.5 383.5 Q396 425 374 448.5 Q352 472 326.5 481 Q301 490 278 490 Z " />
<glyph glyph-name="f" unicode="f" horiz-adv-x="327" d="M161 478 L161 0 L125 0 L125 478 L43 478 L43 511 L125 511 L125 603 Q125 712 223 712 Q239 712 255 707.5 Q271 703 284 696 L284 664 Q270 670 256.5 674.5 Q243 679 223 679 Q188 679 174.5 660 Q161 641 161 599 L161 511 L284 511 L284 478 L161 478 Z " />
<glyph glyph-name="g" unicode="g" horiz-adv-x="566" d="M215 -181 Q328 -175 375 -134.5 Q422 -94 422 -19 L422 84 Q398 34 357.5 11 Q317 -12 269 -12 Q230 -12 194.5 5 Q159 22 132 55.5 Q105 89 89 139 Q73 189 73 256 Q73 319 87.5 368.5 Q102 418 128.5 452.5 Q155 487 191.5 505 Q228 523 273 523 Q301 523 325 515.5 Q349 508 368 495.5 Q387 483 400.5 467.5 Q414 452 422 437 L422 511 L458 511 L458 -23 Q458 -78 438.5 -113.5 Q419 -149 387.5 -170 Q356 -191 316 -200.5 Q276 -210 234 -213 L215 -181 Z M270 24 Q296 24 319.5 33 Q343 42 362.5 57.5 Q382 73 397 93 Q412 113 422 134 L422 389 Q396 437 356.5 462 Q317 487 273 487 Q195 487 153.5 427.5 Q112 368 112 256 Q112 200 124.5 157 Q137 114 158.5 84.5 Q180 55 209 39.5 Q238 24 270 24 Z " />
<glyph glyph-name="h" unicode="h" horiz-adv-x="562" d="M295 523 Q376 523 417.5 471.5 Q459 420 459 312 L459 0 L423 0 L423 320 Q423 366 413.5 398.5 Q404 431 387 451 Q370 471 346 480 Q322 489 292 489 Q260 489 233 479 Q206 469 186.5 446.5 Q167 424 155.5 387.5 Q144 351 144 297 L144 0 L108 0 L108 704 L144 722 L144 419 Q154 447 171.5 467 Q189 487 210 499.5 Q231 512 253 517.5 Q275 523 295 523 Z " />
<glyph glyph-name="i" unicode="i" horiz-adv-x="258" d="M111 0 L111 511 L147 511 L147 0 L111 0 Z M129 633 Q117 633 108.5 641.5 Q100 650 100 662 Q100 675 108.5 684 Q117 693 129 693 Q142 693 150 684 Q158 675 158 662 Q158 650 150 641.5 Q142 633 129 633 Z " />
<glyph glyph-name="j" unicode="j" horiz-adv-x="264" d="M129 633 Q117 633 108.5 641.5 Q100 650 100 662 Q100 675 108.5 684 Q117 693 129 693 Q142 693 150 684 Q158 675 158 662 Q158 650 150 641.5 Q142 633 129 633 Z M148 -49 Q148 -96 136.5 -126 Q125 -156 105 -174.5 Q85 -193 59 -201.5 Q33 -210 5 -213 L-13 -182 Q51 -177 81.5 -147.5 Q112 -118 112 -51 L112 511 L148 511 L148 -49 Z " />
<glyph glyph-name="k" unicode="k" horiz-adv-x="513" d="M279 371 L470 0 L429 0 L253 343 L144 227 L144 0 L108 0 L108 704 L144 722 L144 272 L362 511 L407 511 L279 371 Z " />
<glyph glyph-name="l" unicode="l" horiz-adv-x="252" d="M108 0 L108 704 L144 722 L144 0 L108 0 Z " />
<glyph glyph-name="m" unicode="m" horiz-adv-x="845" d="M582 523 Q656 523 699 477 Q742 431 742 351 L742 0 L706 0 L706 321 Q706 349 702 378.5 Q698 408 684.5 432.5 Q671 457 646 473 Q621 489 579 489 Q547 489 521.5 475.5 Q496 462 478.5 439 Q461 416 452 385.5 Q443 355 443 321 L443 0 L407 0 L407 321 Q407 349 402.5 378.5 Q398 408 385 432.5 Q372 457 347 473 Q322 489 282 489 Q247 489 221 476 Q195 463 178 439.5 Q161 416 152.5 384 Q144 352 144 314 L144 0 L108 0 L108 511 L144 511 L144 427 Q167 477 205 500 Q243 523 287 523 Q338 523 376.5 493.5 Q415 464 428 398 Q448 460 490 491.5 Q532 523 582 523 Z " />
<glyph glyph-name="n" unicode="n" horiz-adv-x="562" d="M144 419 Q154 447 171.5 467 Q189 487 209.5 499.5 Q230 512 252.5 517.5 Q275 523 295 523 Q376 523 417.5 471.5 Q459 420 459 312 L459 0 L423 0 L423 319 Q423 412 387 450.5 Q351 489 292 489 Q260 489 233 479 Q206 469 186.5 446.5 Q167 424 155.5 387.5 Q144 351 144 297 L144 0 L108 0 L108 511 L144 511 L144 419 Z " />
<glyph glyph-name="o" unicode="o" horiz-adv-x="550" d="M275 24 Q353 24 395.5 85 Q438 146 438 256 Q438 365 396.5 426 Q355 487 275 487 Q195 487 153.5 427.5 Q112 368 112 255 Q112 146 153.5 85 Q195 24 275 24 Z M275 523 Q366 523 421.5 453.5 Q477 384 477 256 Q477 193 462.5 143 Q448 93 421.5 58.5 Q395 24 357.5 6 Q320 -12 275 -12 Q184 -12 128.5 57.5 Q73 127 73 255 Q73 318 87.5 367.5 Q102 417 128.5 451.5 Q155 486 192.5 504.5 Q230 523 275 523 Z " />
<glyph glyph-name="p" unicode="p" horiz-adv-x="568" d="M293 -12 Q245 -12 206.5 12.5 Q168 37 144 84 L144 -185 L108 -203 L108 511 L144 511 L144 437 Q197 523 301 523 Q346 523 382 504 Q418 485 443 450 Q468 415 481.5 365.5 Q495 316 495 256 Q495 125 439.5 56.5 Q384 -12 293 -12 Z M293 24 Q371 24 413.5 84 Q456 144 456 256 Q456 308 445 351 Q434 394 413 424 Q392 454 361.5 470.5 Q331 487 293 487 Q246 487 206.5 460.5 Q167 434 144 389 L144 134 Q169 83 207.5 53.5 Q246 24 293 24 Z " />
<glyph glyph-name="q" unicode="q" horiz-adv-x="568" d="M275 -12 Q184 -12 128.5 54 Q73 120 73 251 Q73 311 86.5 361 Q100 411 125 447 Q150 483 186 503 Q222 523 267 523 Q371 523 424 437 L424 511 L460 511 L460 -182 L424 -200 L424 84 Q402 39 362.5 13.5 Q323 -12 275 -12 Z M275 24 Q322 24 360.5 53.5 Q399 83 424 134 L424 389 Q401 434 361.5 460.5 Q322 487 275 487 Q237 487 206.5 470 Q176 453 155 421.5 Q134 390 123 346.5 Q112 303 112 251 Q112 139 154.5 81.5 Q197 24 275 24 Z " />
<glyph glyph-name="r" unicode="r" horiz-adv-x="390" d="M108 0 L108 511 L144 511 L144 402 Q168 465 208.5 494 Q249 523 294 523 Q319 523 336 516.5 Q353 510 362 502 L356 466 Q346 472 329 477.5 Q312 483 289 483 Q266 483 240.5 472.5 Q215 462 193.5 438.5 Q172 415 158 376.5 Q144 338 144 283 L144 0 L108 0 Z " />
<glyph glyph-name="s" unicode="s" horiz-adv-x="467" d="M348 437 Q327 457 297.5 473 Q268 489 227 489 Q173 489 144 464 Q115 439 115 397 Q115 372 125 355 Q135 338 152.5 325 Q170 312 192.5 302 Q215 292 240 282 Q273 269 301 255.5 Q329 242 349.5 224 Q370 206 382 181 Q394 156 394 120 Q394 61 355 24.5 Q316 -12 241 -12 Q188 -12 148 10.5 Q108 33 80 65 L108 89 Q131 63 164.5 42.5 Q198 22 240 22 Q294 22 325.5 46 Q357 70 357 120 Q357 147 345 167 Q333 187 313.5 203 Q294 219 269 231 Q244 243 217 253 Q154 276 116 308 Q78 340 78 397 Q78 451 117.5 487 Q157 523 228 523 Q271 523 309.5 506 Q348 489 375 460 L348 437 Z " />
<glyph glyph-name="t" unicode="t" horiz-adv-x="371" d="M229 -12 Q176 -12 155.5 21 Q135 54 135 104 L135 478 L48 478 L48 511 L135 511 L135 704 L171 722 L171 511 L301 511 L301 478 L171 478 L171 109 Q171 69 183 46 Q195 23 233 23 Q256 23 275.5 31 Q295 39 308 47 L304 9 Q288 -1 267.5 -6.5 Q247 -12 229 -12 Z " />
<glyph glyph-name="u" unicode="u" horiz-adv-x="562" d="M418 0 L418 86 Q405 58 387.5 39 Q370 20 350.5 9 Q331 -2 309.5 -7 Q288 -12 268 -12 Q187 -12 145 39.5 Q103 91 103 199 L103 511 L139 511 L139 191 Q139 98 175 59.5 Q211 21 270 21 Q301 21 328.5 31 Q356 41 375.5 64 Q395 87 406.5 123.5 Q418 160 418 214 L418 511 L454 511 L454 0 L418 0 Z " />
<glyph glyph-name="v" unicode="v" horiz-adv-x="506" d="M266 0 L240 0 L58 511 L94 511 L253 68 L412 511 L448 511 L266 0 Z " />
<glyph glyph-name="w" unicode="w" horiz-adv-x="708" d="M520 0 L494 0 L354 443 L214 0 L188 0 L58 511 L94 511 L204 68 L341 511 L367 511 L504 68 L614 511 L650 511 L520 0 Z " />
<glyph glyph-name="x" unicode="x" horiz-adv-x="498" d="M58 0 L229 266 L72 511 L111 511 L249 297 L387 511 L426 511 L268 266 L440 0 L401 0 L249 236 L97 0 L58 0 Z " />
<glyph glyph-name="y" unicode="y" horiz-adv-x="515" d="M237 12 L53 511 L89 511 L255 59 L421 511 L457 511 L197 -194 L161 -194 L237 12 Z " />
<glyph glyph-name="z" unicode="z" horiz-adv-x="505" d="M73 0 L73 22 L379 478 L93 478 L93 511 L427 511 L427 490 L120 33 L426 33 L426 0 L73 0 Z " />
<glyph glyph-name="braceleft" unicode="&#x7b;" horiz-adv-x="384" d="M94 290 Q120 288 140.5 281.5 Q161 275 175 259 Q189 243 196.5 214 Q204 185 204 138 L204 56 Q204 -16 232 -56 Q260 -96 319 -98 L319 -130 Q235 -128 200 -71 Q165 -14 165 101 L165 162 Q165 216 139.5 244 Q114 272 72 272 L68 272 L68 311 L72 311 Q114 311 139.5 338.5 Q165 366 165 421 L165 481 Q165 596 200 653 Q235 710 319 712 L319 680 Q260 678 232 638 Q204 598 204 526 L204 444 Q204 400 196.5 371.5 Q189 343 175 326 Q161 309 140.5 301.5 Q120 294 94 292 L94 290 Z " />
<glyph glyph-name="bar" unicode="&#x7c;" horiz-adv-x="276" d="M120 -205 L120 805 L156 805 L156 -205 L120 -205 Z " />
<glyph glyph-name="braceright" unicode="&#x7d;" horiz-adv-x="384" d="M290 292 Q264 294 243.5 300.5 Q223 307 209 323 Q195 339 187.5 368 Q180 397 180 444 L180 526 Q180 598 152 638 Q124 678 65 680 L65 712 Q149 710 184 653 Q219 596 219 481 L219 420 Q219 366 244.5 338 Q270 310 312 310 L316 310 L316 271 L312 271 Q270 271 244.5 243.5 Q219 216 219 161 L219 101 Q219 -14 184 -71 Q149 -128 65 -130 L65 -98 Q124 -96 152 -56 Q180 -16 180 56 L180 138 Q180 182 187.5 210.5 Q195 239 209 256 Q223 273 243.5 280.5 Q264 288 290 290 L290 292 Z " />
<glyph glyph-name="asciitilde" unicode="&#x7e;" horiz-adv-x="666" d="M448 277 Q413 277 383.5 291.5 Q354 306 327 324 Q300 342 273 356.5 Q246 371 216 371 Q180 371 159.5 346.5 Q139 322 137 277 L100 277 Q100 301 107 324.5 Q114 348 128.5 366.5 Q143 385 165 396 Q187 407 218 407 Q253 407 282.5 392.5 Q312 378 339 360 Q366 342 393 327.5 Q420 313 450 313 Q486 313 506.5 338 Q527 363 529 407 L566 407 Q566 383 559 359.5 Q552 336 538 317.5 Q524 299 501.5 288 Q479 277 448 277 Z " />
<glyph glyph-name="Adieresis" unicode="&#xc4;" horiz-adv-x="668" d="M552 0 L482 197 L185 197 L118 0 L81 0 L321 700 L345 700 L587 0 L552 0 Z M473 227 L369 529 Q367 535 362.5 549 Q358 563 352.5 579.5 Q347 596 342 612.5 Q337 629 334 640 Q331 629 326 612 Q321 595 315 578 Q309 561 304 547.5 Q299 534 298 529 L194 227 L473 227 Z M250 796 Q238 796 229.5 804.5 Q221 813 221 825 Q221 838 229.5 847 Q238 856 250 856 Q263 856 271 847 Q279 838 279 825 Q279 813 271 804.5 Q263 796 250 796 Z M416 796 Q404 796 395.5 804.5 Q387 813 387 825 Q387 838 395.5 847 Q404 856 416 856 Q429 856 437 847 Q445 838 445 825 Q445 813 437 804.5 Q429 796 416 796 Z " />
<glyph glyph-name="Aring" unicode="&#xc5;" horiz-adv-x="668" d="M482 197 L186 197 L117 0 L81 0 L301 639 Q266 650 242.5 678 Q219 706 219 746 Q219 769 228 789.5 Q237 810 253 825.5 Q269 841 289.5 850 Q310 859 334 859 Q358 859 378.5 850 Q399 841 415 825.5 Q431 810 440 789.5 Q449 769 449 746 Q449 708 426 679 Q403 650 367 639 L587 0 L551 0 L482 197 Z M195 227 L473 227 L334 634 L195 227 Z M334 665 Q368 665 391.5 688 Q415 711 415 746 Q415 781 391.5 804.5 Q368 828 334 828 Q302 828 277.5 806 Q253 784 253 746 Q253 709 277.5 687 Q302 665 334 665 Z " />
<glyph glyph-name="Ccedilla" unicode="&#xc7;" horiz-adv-x="650" d="M346 -234 Q323 -234 305 -226.5 Q287 -219 275 -206 L300 -188 Q308 -194 318.5 -199.5 Q329 -205 345 -205 Q376 -205 392.5 -187.5 Q409 -170 409 -144 Q409 -118 391 -101 Q373 -84 344 -84 Q322 -84 306 -92 L296 -80 L345 -11 Q277 -8 228.5 24 Q180 56 149 106 Q118 156 104 219.5 Q90 283 90 350 Q90 420 106.5 485 Q123 550 156 600.5 Q189 651 240 681.5 Q291 712 360 712 Q404 712 436.5 702.5 Q469 693 492 677 Q515 661 531.5 640.5 Q548 620 560 599 L529 581 Q518 599 504.5 616 Q491 633 471.5 646.5 Q452 660 424.5 668 Q397 676 360 676 Q301 676 257.5 648.5 Q214 621 185 576 Q156 531 142 472 Q128 413 128 350 Q128 288 141 229 Q154 170 181.5 124.5 Q209 79 253.5 51.5 Q298 24 361 24 Q396 24 424.5 33 Q453 42 474.5 56.5 Q496 71 511.5 90 Q527 109 537 129 L570 116 Q559 93 541.5 70.5 Q524 48 499.5 30 Q475 12 443.5 0.5 Q412 -11 372 -12 L345 -59 Q370 -59 388.5 -66.5 Q407 -74 419 -86 Q431 -98 437 -113 Q443 -128 443 -143 Q443 -181 417.5 -207.5 Q392 -234 346 -234 Z " />
<glyph glyph-name="Eacute" unicode="&#xc9;" horiz-adv-x="592" d="M115 0 L115 700 L480 700 L480 667 L151 667 L151 379 L373 379 L373 346 L151 346 L151 33 L502 33 L502 0 L115 0 Z M248 766 L211 766 L362 922 L417 922 L248 766 Z " />
<glyph glyph-name="Ntilde" unicode="&#xd1;" horiz-adv-x="691" d="M541 0 L151 631 L151 0 L115 0 L115 700 L150 700 L540 69 L540 700 L576 700 L576 0 L541 0 Z M425 792 Q400 792 379 804.5 Q358 817 338 832.5 Q318 848 299 860.5 Q280 873 259 873 Q210 873 207 796 L180 796 Q180 844 201.5 875 Q223 906 266 906 Q291 906 312 893.5 Q333 881 353 865.5 Q373 850 392 837.5 Q411 825 432 825 Q481 825 484 902 L511 902 Q511 854 489.5 823 Q468 792 425 792 Z " />
<glyph glyph-name="Odieresis" unicode="&#xd6;" horiz-adv-x="726" d="M363 24 Q428 24 473 53.5 Q518 83 545.5 130 Q573 177 585 235 Q597 293 597 350 Q597 412 585 471 Q573 530 545.5 575.5 Q518 621 473 648.5 Q428 676 363 676 Q298 676 253 646.5 Q208 617 180.5 570 Q153 523 141 465 Q129 407 129 350 Q129 288 141 229 Q153 170 180.5 124.5 Q208 79 253 51.5 Q298 24 363 24 Z M363 -12 Q288 -12 236 20 Q184 52 151.5 104 Q119 156 104.5 220.5 Q90 285 90 350 Q90 415 104.5 479.5 Q119 544 151.5 596 Q184 648 236 680 Q288 712 363 712 Q438 712 490 680 Q542 648 574.5 596 Q607 544 621.5 479.5 Q636 415 636 350 Q636 285 621.5 220.5 Q607 156 574.5 104 Q542 52 490 20 Q438 -12 363 -12 Z M280 796 Q268 796 259.5 804.5 Q251 813 251 825 Q251 838 259.5 847 Q268 856 280 856 Q293 856 301 847 Q309 838 309 825 Q309 813 301 804.5 Q293 796 280 796 Z M446 796 Q434 796 425.5 804.5 Q417 813 417 825 Q417 838 425.5 847 Q434 856 446 856 Q459 856 467 847 Q475 838 475 825 Q475 813 467 804.5 Q459 796 446 796 Z " />
<glyph glyph-name="Udieresis" unicode="&#xdc;" horiz-adv-x="668" d="M334 -12 Q282 -12 240.5 2.5 Q199 17 170.5 48.5 Q142 80 126.5 129.5 Q111 179 111 249 L111 700 L147 700 L147 251 Q147 182 162.5 137.5 Q178 93 203.5 67.5 Q229 42 263 32 Q297 22 334 22 Q371 22 405 32 Q439 42 464.5 67.5 Q490 93 505.5 137.5 Q521 182 521 251 L521 700 L557 700 L557 249 Q557 179 541.5 129.5 Q526 80 497.5 48.5 Q469 17 427.5 2.5 Q386 -12 334 -12 Z M251 796 Q239 796 230.5 804.5 Q222 813 222 825 Q222 838 230.5 847 Q239 856 251 856 Q264 856 272 847 Q280 838 280 825 Q280 813 272 804.5 Q264 796 251 796 Z M417 796 Q405 796 396.5 804.5 Q388 813 388 825 Q388 838 396.5 847 Q405 856 417 856 Q430 856 438 847 Q446 838 446 825 Q446 813 438 804.5 Q430 796 417 796 Z " />
<glyph glyph-name="aacute" unicode="&#xe1;" horiz-adv-x="527" d="M403 0 L403 80 Q373 38 330.5 13 Q288 -12 241 -12 Q166 -12 122 30.5 Q78 73 78 154 Q78 196 92 226.5 Q106 257 129.5 277 Q153 297 185 306.5 Q217 316 253 316 Q294 316 331 303 Q368 290 403 267 L403 343 Q403 388 392.5 417 Q382 446 365 462 Q348 478 325 484 Q302 490 278 490 Q236 490 195 474.5 Q154 459 124 441 L113 472 Q142 489 185 506 Q228 523 281 523 Q308 523 336 516 Q364 509 387 491 Q410 473 424.5 441 Q439 409 439 358 L439 0 L403 0 Z M241 21 Q269 21 293 30 Q317 39 337 53.5 Q357 68 373.5 86 Q390 104 403 122 L403 233 Q374 253 335.5 268 Q297 283 253 283 Q227 283 202.5 275 Q178 267 159 251.5 Q140 236 128.5 211.5 Q117 187 117 154 Q117 94 150.5 57.5 Q184 21 241 21 Z M256 576 L219 576 L370 732 L425 732 L256 576 Z " />
<glyph glyph-name="agrave" unicode="&#xe0;" horiz-adv-x="527" d="M403 0 L403 80 Q373 38 330.5 13 Q288 -12 241 -12 Q166 -12 122 30.5 Q78 73 78 154 Q78 196 92 226.5 Q106 257 129.5 277 Q153 297 185 306.5 Q217 316 253 316 Q294 316 331 303 Q368 290 403 267 L403 343 Q403 388 392.5 417 Q382 446 365 462 Q348 478 325 484 Q302 490 278 490 Q236 490 195 474.5 Q154 459 124 441 L113 472 Q142 489 185 506 Q228 523 281 523 Q308 523 336 516 Q364 509 387 491 Q410 473 424.5 441 Q439 409 439 358 L439 0 L403 0 Z M241 21 Q269 21 293 30 Q317 39 337 53.5 Q357 68 373.5 86 Q390 104 403 122 L403 233 Q374 253 335.5 268 Q297 283 253 283 Q227 283 202.5 275 Q178 267 159 251.5 Q140 236 128.5 211.5 Q117 187 117 154 Q117 94 150.5 57.5 Q184 21 241 21 Z M316 576 L147 732 L202 732 L353 576 L316 576 Z " />
<glyph glyph-name="acircumflex" unicode="&#xe2;" horiz-adv-x="527" d="M403 0 L403 80 Q373 38 330.5 13 Q288 -12 241 -12 Q166 -12 122 30.5 Q78 73 78 154 Q78 196 92 226.5 Q106 257 129.5 277 Q153 297 185 306.5 Q217 316 253 316 Q294 316 331 303 Q368 290 403 267 L403 343 Q403 388 392.5 417 Q382 446 365 462 Q348 478 325 484 Q302 490 278 490 Q236 490 195 474.5 Q154 459 124 441 L113 472 Q142 489 185 506 Q228 523 281 523 Q308 523 336 516 Q364 509 387 491 Q410 473 424.5 441 Q439 409 439 358 L439 0 L403 0 Z M241 21 Q269 21 293 30 Q317 39 337 53.5 Q357 68 373.5 86 Q390 104 403 122 L403 233 Q374 253 335.5 268 Q297 283 253 283 Q227 283 202.5 275 Q178 267 159 251.5 Q140 236 128.5 211.5 Q117 187 117 154 Q117 94 150.5 57.5 Q184 21 241 21 Z M112 576 L263 732 L295 732 L446 576 L409 576 L279 696 L149 576 L112 576 Z " />
<glyph glyph-name="adieresis" unicode="&#xe4;" horiz-adv-x="527" d="M403 0 L403 80 Q373 38 330.5 13 Q288 -12 241 -12 Q166 -12 122 30.5 Q78 73 78 154 Q78 196 92 226.5 Q106 257 129.5 277 Q153 297 185 306.5 Q217 316 253 316 Q294 316 331 303 Q368 290 403 267 L403 343 Q403 388 392.5 417 Q382 446 365 462 Q348 478 325 484 Q302 490 278 490 Q236 490 195 474.5 Q154 459 124 441 L113 472 Q142 489 185 506 Q228 523 281 523 Q308 523 336 516 Q364 509 387 491 Q410 473 424.5 441 Q439 409 439 358 L439 0 L403 0 Z M241 21 Q269 21 293 30 Q317 39 337 53.5 Q357 68 373.5 86 Q390 104 403 122 L403 233 Q374 253 335.5 268 Q297 283 253 283 Q227 283 202.5 275 Q178 267 159 251.5 Q140 236 128.5 211.5 Q117 187 117 154 Q117 94 150.5 57.5 Q184 21 241 21 Z M196 606 Q184 606 175.5 614.5 Q167 623 167 635 Q167 648 175.5 657 Q184 666 196 666 Q209 666 217 657 Q225 648 225 635 Q225 623 217 614.5 Q209 606 196 606 Z M362 606 Q350 606 341.5 614.5 Q333 623 333 635 Q333 648 341.5 657 Q350 666 362 666 Q375 666 383 657 Q391 648 391 635 Q391 623 383 614.5 Q375 606 362 606 Z " />
<glyph glyph-name="atilde" unicode="&#xe3;" horiz-adv-x="527" d="M403 0 L403 80 Q373 38 330.5 13 Q288 -12 241 -12 Q166 -12 122 30.5 Q78 73 78 154 Q78 196 92 226.5 Q106 257 129.5 277 Q153 297 185 306.5 Q217 316 253 316 Q294 316 331 303 Q368 290 403 267 L403 343 Q403 388 392.5 417 Q382 446 365 462 Q348 478 325 484 Q302 490 278 490 Q236 490 195 474.5 Q154 459 124 441 L113 472 Q142 489 185 506 Q228 523 281 523 Q308 523 336 516 Q364 509 387 491 Q410 473 424.5 441 Q439 409 439 358 L439 0 L403 0 Z M241 21 Q269 21 293 30 Q317 39 337 53.5 Q357 68 373.5 86 Q390 104 403 122 L403 233 Q374 253 335.5 268 Q297 283 253 283 Q227 283 202.5 275 Q178 267 159 251.5 Q140 236 128.5 211.5 Q117 187 117 154 Q117 94 150.5 57.5 Q184 21 241 21 Z M359 602 Q334 602 313 614.5 Q292 627 272 642.5 Q252 658 233 670.5 Q214 683 193 683 Q144 683 141 606 L114 606 Q114 654 135.5 685 Q157 716 200 716 Q225 716 246 703.5 Q267 691 287 675.5 Q307 660 326 647.5 Q345 635 366 635 Q415 635 418 712 L445 712 Q445 664 423.5 633 Q402 602 359 602 Z " />
<glyph glyph-name="aring" unicode="&#xe5;" horiz-adv-x="527" d="M403 0 L403 80 Q373 38 330.5 13 Q288 -12 241 -12 Q166 -12 122 30.5 Q78 73 78 154 Q78 196 92 226.5 Q106 257 129.5 277 Q153 297 185 306.5 Q217 316 253 316 Q294 316 331 303 Q368 290 403 267 L403 343 Q403 388 392.5 417 Q382 446 365 462 Q348 478 325 484 Q302 490 278 490 Q236 490 195 474.5 Q154 459 124 441 L113 472 Q142 489 185 506 Q228 523 281 523 Q308 523 336 516 Q364 509 387 491 Q410 473 424.5 441 Q439 409 439 358 L439 0 L403 0 Z M241 21 Q269 21 293 30 Q317 39 337 53.5 Q357 68 373.5 86 Q390 104 403 122 L403 233 Q374 253 335.5 268 Q297 283 253 283 Q227 283 202.5 275 Q178 267 159 251.5 Q140 236 128.5 211.5 Q117 187 117 154 Q117 94 150.5 57.5 Q184 21 241 21 Z M284 575 Q260 575 239.5 584 Q219 593 203 608 Q187 623 178 643.5 Q169 664 169 687 Q169 710 178 730.5 Q187 751 203 766.5 Q219 782 239.5 791 Q260 800 284 800 Q308 800 328.5 791 Q349 782 365 766.5 Q381 751 390 730.5 Q399 710 399 687 Q399 664 390 643.5 Q381 623 365 608 Q349 593 328.5 584 Q308 575 284 575 Z M283 606 Q317 606 341 629 Q365 652 365 687 Q365 722 341 745.5 Q317 769 283 769 Q251 769 227 745.5 Q203 722 203 687 Q203 670 209.5 655 Q216 640 227 629 Q238 618 252.5 612 Q267 606 283 606 Z " />
<glyph glyph-name="ccedilla" unicode="&#xe7;" horiz-adv-x="483" d="M251 -234 Q228 -234 210 -226.5 Q192 -219 180 -206 L205 -188 Q213 -194 223.5 -199.5 Q234 -205 250 -205 Q281 -205 297.5 -187.5 Q314 -170 314 -144 Q314 -118 296 -101 Q278 -84 249 -84 Q227 -84 211 -92 L201 -80 L250 -12 Q169 -9 121 60 Q73 129 73 255 Q73 382 123.5 452.5 Q174 523 264 523 Q316 523 355 495.5 Q394 468 413 416 L377 402 Q363 443 333 465 Q303 487 264 487 Q188 487 150 428 Q112 369 112 255 Q112 145 151.5 84.5 Q191 24 257 24 Q303 24 337 49.5 Q371 75 384 118 L420 105 Q405 55 367.5 25 Q330 -5 278 -10 L250 -59 Q275 -59 293.5 -66.5 Q312 -74 324 -86 Q336 -98 342 -113 Q348 -128 348 -143 Q348 -181 322.5 -207.5 Q297 -234 251 -234 Z " />
<glyph glyph-name="eacute" unicode="&#xe9;" horiz-adv-x="531" d="M112 245 Q116 130 160 77 Q204 24 281 24 Q310 24 341.5 34 Q373 44 401 67 L422 41 Q395 18 357.5 3 Q320 -12 278 -12 Q180 -12 126.5 60 Q73 132 73 256 Q73 320 88.5 369.5 Q104 419 131 453 Q158 487 195.5 505 Q233 523 278 523 Q319 523 353 507.5 Q387 492 411.5 459.5 Q436 427 449.5 376.5 Q463 326 463 256 L463 245 L112 245 Z M278 490 Q244 490 215 477.5 Q186 465 164 439.5 Q142 414 128.5 373.5 Q115 333 112 278 L425 278 Q425 342 410.5 383.5 Q396 425 374 448.5 Q352 472 326.5 481 Q301 490 278 490 Z M254 576 L217 576 L368 732 L423 732 L254 576 Z " />
<glyph glyph-name="egrave" unicode="&#xe8;" horiz-adv-x="531" d="M112 245 Q116 130 160 77 Q204 24 281 24 Q310 24 341.5 34 Q373 44 401 67 L422 41 Q395 18 357.5 3 Q320 -12 278 -12 Q180 -12 126.5 60 Q73 132 73 256 Q73 320 88.5 369.5 Q104 419 131 453 Q158 487 195.5 505 Q233 523 278 523 Q319 523 353 507.5 Q387 492 411.5 459.5 Q436 427 449.5 376.5 Q463 326 463 256 L463 245 L112 245 Z M278 490 Q244 490 215 477.5 Q186 465 164 439.5 Q142 414 128.5 373.5 Q115 333 112 278 L425 278 Q425 342 410.5 383.5 Q396 425 374 448.5 Q352 472 326.5 481 Q301 490 278 490 Z M296 576 L127 732 L182 732 L333 576 L296 576 Z " />
<glyph glyph-name="ecircumflex" unicode="&#xea;" horiz-adv-x="531" d="M112 245 Q116 130 160 77 Q204 24 281 24 Q310 24 341.5 34 Q373 44 401 67 L422 41 Q395 18 357.5 3 Q320 -12 278 -12 Q180 -12 126.5 60 Q73 132 73 256 Q73 320 88.5 369.5 Q104 419 131 453 Q158 487 195.5 505 Q233 523 278 523 Q319 523 353 507.5 Q387 492 411.5 459.5 Q436 427 449.5 376.5 Q463 326 463 256 L463 245 L112 245 Z M278 490 Q244 490 215 477.5 Q186 465 164 439.5 Q142 414 128.5 373.5 Q115 333 112 278 L425 278 Q425 342 410.5 383.5 Q396 425 374 448.5 Q352 472 326.5 481 Q301 490 278 490 Z M111 576 L262 732 L294 732 L445 576 L408 576 L278 696 L148 576 L111 576 Z " />
<glyph glyph-name="edieresis" unicode="&#xeb;" horiz-adv-x="531" d="M112 245 Q116 130 160 77 Q204 24 281 24 Q310 24 341.5 34 Q373 44 401 67 L422 41 Q395 18 357.5 3 Q320 -12 278 -12 Q180 -12 126.5 60 Q73 132 73 256 Q73 320 88.5 369.5 Q104 419 131 453 Q158 487 195.5 505 Q233 523 278 523 Q319 523 353 507.5 Q387 492 411.5 459.5 Q436 427 449.5 376.5 Q463 326 463 256 L463 245 L112 245 Z M278 490 Q244 490 215 477.5 Q186 465 164 439.5 Q142 414 128.5 373.5 Q115 333 112 278 L425 278 Q425 342 410.5 383.5 Q396 425 374 448.5 Q352 472 326.5 481 Q301 490 278 490 Z M195 606 Q183 606 174.5 614.5 Q166 623 166 635 Q166 648 174.5 657 Q183 666 195 666 Q208 666 216 657 Q224 648 224 635 Q224 623 216 614.5 Q208 606 195 606 Z M361 606 Q349 606 340.5 614.5 Q332 623 332 635 Q332 648 340.5 657 Q349 666 361 666 Q374 666 382 657 Q390 648 390 635 Q390 623 382 614.5 Q374 606 361 606 Z " />
<glyph glyph-name="iacute" unicode="&#xed;" horiz-adv-x="258" d="M111 0 L111 511 L147 511 L147 0 L111 0 Z M83 576 L46 576 L197 732 L252 732 L83 576 Z " />
<glyph glyph-name="igrave" unicode="&#xec;" horiz-adv-x="258" d="M111 0 L111 511 L147 511 L147 0 L111 0 Z M178 576 L9 732 L64 732 L215 576 L178 576 Z " />
<glyph glyph-name="icircumflex" unicode="&#xee;" horiz-adv-x="258" d="M111 0 L111 511 L147 511 L147 0 L111 0 Z M-38 576 L113 732 L145 732 L296 576 L259 576 L129 696 L-1 576 L-38 576 Z " />
<glyph glyph-name="idieresis" unicode="&#xef;" horiz-adv-x="258" d="M111 0 L111 511 L147 511 L147 0 L111 0 Z M46 606 Q34 606 25.5 614.5 Q17 623 17 635 Q17 648 25.5 657 Q34 666 46 666 Q59 666 67 657 Q75 648 75 635 Q75 623 67 614.5 Q59 606 46 606 Z M212 606 Q200 606 191.5 614.5 Q183 623 183 635 Q183 648 191.5 657 Q200 666 212 666 Q225 666 233 657 Q241 648 241 635 Q241 623 233 614.5 Q225 606 212 606 Z " />
<glyph glyph-name="ntilde" unicode="&#xf1;" horiz-adv-x="562" d="M144 419 Q154 447 171.5 467 Q189 487 209.5 499.5 Q230 512 252.5 517.5 Q275 523 295 523 Q376 523 417.5 471.5 Q459 420 459 312 L459 0 L423 0 L423 319 Q423 412 387 450.5 Q351 489 292 489 Q260 489 233 479 Q206 469 186.5 446.5 Q167 424 155.5 387.5 Q144 351 144 297 L144 0 L108 0 L108 511 L144 511 L144 419 Z M369 602 Q344 602 323 614.5 Q302 627 282 642.5 Q262 658 243 670.5 Q224 683 203 683 Q154 683 151 606 L124 606 Q124 654 145.5 685 Q167 716 210 716 Q235 716 256 703.5 Q277 691 297 675.5 Q317 660 336 647.5 Q355 635 376 635 Q425 635 428 712 L455 712 Q455 664 433.5 633 Q412 602 369 602 Z " />
<glyph glyph-name="oacute" unicode="&#xf3;" horiz-adv-x="550" d="M275 24 Q353 24 395.5 85 Q438 146 438 256 Q438 365 396.5 426 Q355 487 275 487 Q195 487 153.5 427.5 Q112 368 112 255 Q112 146 153.5 85 Q195 24 275 24 Z M275 523 Q366 523 421.5 453.5 Q477 384 477 256 Q477 193 462.5 143 Q448 93 421.5 58.5 Q395 24 357.5 6 Q320 -12 275 -12 Q184 -12 128.5 57.5 Q73 127 73 255 Q73 318 87.5 367.5 Q102 417 128.5 451.5 Q155 486 192.5 504.5 Q230 523 275 523 Z M261 576 L224 576 L375 732 L430 732 L261 576 Z " />
<glyph glyph-name="ograve" unicode="&#xf2;" horiz-adv-x="550" d="M275 24 Q353 24 395.5 85 Q438 146 438 256 Q438 365 396.5 426 Q355 487 275 487 Q195 487 153.5 427.5 Q112 368 112 255 Q112 146 153.5 85 Q195 24 275 24 Z M275 523 Q366 523 421.5 453.5 Q477 384 477 256 Q477 193 462.5 143 Q448 93 421.5 58.5 Q395 24 357.5 6 Q320 -12 275 -12 Q184 -12 128.5 57.5 Q73 127 73 255 Q73 318 87.5 367.5 Q102 417 128.5 451.5 Q155 486 192.5 504.5 Q230 523 275 523 Z M289 576 L120 732 L175 732 L326 576 L289 576 Z " />
<glyph glyph-name="ocircumflex" unicode="&#xf4;" horiz-adv-x="550" d="M275 24 Q353 24 395.5 85 Q438 146 438 256 Q438 365 396.5 426 Q355 487 275 487 Q195 487 153.5 427.5 Q112 368 112 255 Q112 146 153.5 85 Q195 24 275 24 Z M275 523 Q366 523 421.5 453.5 Q477 384 477 256 Q477 193 462.5 143 Q448 93 421.5 58.5 Q395 24 357.5 6 Q320 -12 275 -12 Q184 -12 128.5 57.5 Q73 127 73 255 Q73 318 87.5 367.5 Q102 417 128.5 451.5 Q155 486 192.5 504.5 Q230 523 275 523 Z M108 576 L259 732 L291 732 L442 576 L405 576 L275 696 L145 576 L108 576 Z " />
<glyph glyph-name="odieresis" unicode="&#xf6;" horiz-adv-x="550" d="M275 24 Q353 24 395.5 85 Q438 146 438 256 Q438 365 396.5 426 Q355 487 275 487 Q195 487 153.5 427.5 Q112 368 112 255 Q112 146 153.5 85 Q195 24 275 24 Z M275 523 Q366 523 421.5 453.5 Q477 384 477 256 Q477 193 462.5 143 Q448 93 421.5 58.5 Q395 24 357.5 6 Q320 -12 275 -12 Q184 -12 128.5 57.5 Q73 127 73 255 Q73 318 87.5 367.5 Q102 417 128.5 451.5 Q155 486 192.5 504.5 Q230 523 275 523 Z M192 606 Q180 606 171.5 614.5 Q163 623 163 635 Q163 648 171.5 657 Q180 666 192 666 Q205 666 213 657 Q221 648 221 635 Q221 623 213 614.5 Q205 606 192 606 Z M358 606 Q346 606 337.5 614.5 Q329 623 329 635 Q329 648 337.5 657 Q346 666 358 666 Q371 666 379 657 Q387 648 387 635 Q387 623 379 614.5 Q371 606 358 606 Z " />
<glyph glyph-name="otilde" unicode="&#xf5;" horiz-adv-x="550" d="M275 24 Q353 24 395.5 85 Q438 146 438 256 Q438 365 396.5 426 Q355 487 275 487 Q195 487 153.5 427.5 Q112 368 112 255 Q112 146 153.5 85 Q195 24 275 24 Z M275 523 Q366 523 421.5 453.5 Q477 384 477 256 Q477 193 462.5 143 Q448 93 421.5 58.5 Q395 24 357.5 6 Q320 -12 275 -12 Q184 -12 128.5 57.5 Q73 127 73 255 Q73 318 87.5 367.5 Q102 417 128.5 451.5 Q155 486 192.5 504.5 Q230 523 275 523 Z M355 602 Q330 602 309 614.5 Q288 627 268 642.5 Q248 658 229 670.5 Q210 683 189 683 Q140 683 137 606 L110 606 Q110 654 131.5 685 Q153 716 196 716 Q221 716 242 703.5 Q263 691 283 675.5 Q303 660 322 647.5 Q341 635 362 635 Q411 635 414 712 L441 712 Q441 664 419.5 633 Q398 602 355 602 Z " />
<glyph glyph-name="uacute" unicode="&#xfa;" horiz-adv-x="562" d="M418 0 L418 86 Q405 58 387.5 39 Q370 20 350.5 9 Q331 -2 309.5 -7 Q288 -12 268 -12 Q187 -12 145 39.5 Q103 91 103 199 L103 511 L139 511 L139 191 Q139 98 175 59.5 Q211 21 270 21 Q301 21 328.5 31 Q356 41 375.5 64 Q395 87 406.5 123.5 Q418 160 418 214 L418 511 L454 511 L454 0 L418 0 Z M251 576 L214 576 L365 732 L420 732 L251 576 Z " />
<glyph glyph-name="ugrave" unicode="&#xf9;" horiz-adv-x="562" d="M418 0 L418 86 Q405 58 387.5 39 Q370 20 350.5 9 Q331 -2 309.5 -7 Q288 -12 268 -12 Q187 -12 145 39.5 Q103 91 103 199 L103 511 L139 511 L139 191 Q139 98 175 59.5 Q211 21 270 21 Q301 21 328.5 31 Q356 41 375.5 64 Q395 87 406.5 123.5 Q418 160 418 214 L418 511 L454 511 L454 0 L418 0 Z M302 576 L133 732 L188 732 L339 576 L302 576 Z " />
<glyph glyph-name="ucircumflex" unicode="&#xfb;" horiz-adv-x="562" d="M418 0 L418 86 Q405 58 387.5 39 Q370 20 350.5 9 Q331 -2 309.5 -7 Q288 -12 268 -12 Q187 -12 145 39.5 Q103 91 103 199 L103 511 L139 511 L139 191 Q139 98 175 59.5 Q211 21 270 21 Q301 21 328.5 31 Q356 41 375.5 64 Q395 87 406.5 123.5 Q418 160 418 214 L418 511 L454 511 L454 0 L418 0 Z M108 576 L259 732 L291 732 L442 576 L405 576 L275 696 L145 576 L108 576 Z " />
<glyph glyph-name="udieresis" unicode="&#xfc;" horiz-adv-x="562" d="M418 0 L418 86 Q405 58 387.5 39 Q370 20 350.5 9 Q331 -2 309.5 -7 Q288 -12 268 -12 Q187 -12 145 39.5 Q103 91 103 199 L103 511 L139 511 L139 191 Q139 98 175 59.5 Q211 21 270 21 Q301 21 328.5 31 Q356 41 375.5 64 Q395 87 406.5 123.5 Q418 160 418 214 L418 511 L454 511 L454 0 L418 0 Z M192 606 Q180 606 171.5 614.5 Q163 623 163 635 Q163 648 171.5 657 Q180 666 192 666 Q205 666 213 657 Q221 648 221 635 Q221 623 213 614.5 Q205 606 192 606 Z M358 606 Q346 606 337.5 614.5 Q329 623 329 635 Q329 648 337.5 657 Q346 666 358 666 Q371 666 379 657 Q387 648 387 635 Q387 623 379 614.5 Q371 606 358 606 Z " />
<glyph glyph-name="dagger" unicode="&#x2020;" horiz-adv-x="566" d="M293 464 L301 338 L286 -141 L280 -141 L265 338 L273 464 L133 455 L98 455 L98 489 L133 489 L273 480 L265 587 L265 712 L301 712 L301 587 L293 480 L433 489 L468 489 L468 455 L433 455 L293 464 Z " />
<glyph glyph-name="degree" unicode="&#xb0;" horiz-adv-x="406" d="M203 482 Q174 482 149.5 492 Q125 502 107 520 Q89 538 78.5 562.5 Q68 587 68 616 Q68 645 78.5 669.5 Q89 694 107 712 Q125 730 149.5 740 Q174 750 203 750 Q231 750 256 740 Q281 730 299 712 Q317 694 327.5 669.5 Q338 645 338 616 Q338 587 327.5 562.5 Q317 538 299 520 Q281 502 256 492 Q231 482 203 482 Z M203 515 Q247 515 275.5 544 Q304 573 304 616 Q304 660 275.5 688.5 Q247 717 203 717 Q158 717 130 688.5 Q102 660 102 616 Q102 573 130 544 Q158 515 203 515 Z " />
<glyph glyph-name="cent" unicode="&#xa2;" horiz-adv-x="517" d="M250 -12 L250 82 Q174 90 129.5 158.5 Q85 227 85 348 Q85 465 128.5 534.5 Q172 604 250 614 L250 712 L286 712 L286 616 Q334 613 370.5 585.5 Q407 558 425 509 L389 495 Q375 536 345 557.5 Q315 579 276 579 Q200 579 162 520.5 Q124 462 124 348 Q124 238 163.5 178 Q203 118 269 118 Q315 118 349 143 Q383 168 396 211 L432 198 Q416 147 378 117 Q340 87 286 82 L286 -12 L250 -12 Z " />
<glyph glyph-name="sterling" unicode="&#xa3;" horiz-adv-x="610" d="M108 0 L108 40 Q167 92 188.5 143.5 Q210 195 210 250 Q210 266 208 281.5 Q206 297 203 311 L108 311 L108 344 L194 344 Q187 368 178 390.5 Q169 413 161.5 435.5 Q154 458 149 480 Q144 502 144 526 Q144 562 156.5 595.5 Q169 629 194.5 655 Q220 681 258.5 696.5 Q297 712 350 712 Q405 712 449.5 697.5 Q494 683 526 658 L511 625 Q488 645 449 661 Q410 677 350 677 Q305 677 273.5 663.5 Q242 650 221.5 629 Q201 608 191.5 581 Q182 554 182 527 Q182 503 187.5 481 Q193 459 201 436.5 Q209 414 218 391 Q227 368 234 344 L402 344 L402 311 L242 311 Q248 285 248 258 Q248 187 220 131 Q192 75 142 33 L542 33 L542 0 L108 0 Z " />
<glyph glyph-name="section" unicode="&#xa7;" horiz-adv-x="538" d="M399 624 Q381 640 348.5 658 Q316 676 262 676 Q235 676 210.5 669.5 Q186 663 167.5 650 Q149 637 138.5 617 Q128 597 128 570 Q128 542 138 523 Q148 504 170 488.5 Q192 473 226 459 Q260 445 307 427 Q335 416 362 403.5 Q389 391 409.5 374 Q430 357 442.5 334 Q455 311 455 279 Q455 247 434.5 215 Q414 183 370 169 Q416 146 435.5 109.5 Q455 73 455 33 Q455 -7 441 -36 Q427 -65 401.5 -83.5 Q376 -102 341 -111 Q306 -120 264 -120 Q199 -120 153.5 -97.5 Q108 -75 83 -49 L111 -23 Q121 -32 135 -43 Q149 -54 167.5 -63 Q186 -72 210 -78 Q234 -84 264 -84 Q296 -84 324 -78 Q352 -72 372.5 -58.5 Q393 -45 404.5 -22.5 Q416 0 416 33 Q416 69 398.5 92.5 Q381 116 353 133.5 Q325 151 290 164 Q255 177 220 191 Q190 203 166 214.5 Q142 226 125 241 Q108 256 98.5 275 Q89 294 89 321 Q89 366 119.5 395 Q150 424 195 432 Q136 456 112.5 493 Q89 530 89 573 Q89 606 103 631.5 Q117 657 140.5 675 Q164 693 195.5 702.5 Q227 712 262 712 Q293 712 319 706 Q345 700 365.5 691 Q386 682 401.5 671 Q417 660 428 650 L399 624 Z M416 276 Q416 303 401.5 323 Q387 343 362.5 358.5 Q338 374 304.5 386.5 Q271 399 233 412 Q184 404 156 380.5 Q128 357 128 321 Q128 289 157 267 Q186 245 231 228 Q264 216 292.5 205.5 Q321 195 338 187 Q371 199 393.5 221.5 Q416 244 416 276 Z " />
<glyph glyph-name="bullet" unicode="&#x2022;" horiz-adv-x="422" d="M211 264 Q174 264 148.5 289.5 Q123 315 123 351 Q123 387 148.5 412.5 Q174 438 211 438 Q248 438 273.5 412.5 Q299 387 299 351 Q299 315 273.5 289.5 Q248 264 211 264 Z " />
<glyph glyph-name="paragraph" unicode="&#xb6;" horiz-adv-x="608" d="M457 -109 L457 647 L350 647 L350 -157 L314 -174 L314 295 Q240 295 190.5 313 Q141 331 111 359.5 Q81 388 68 423 Q55 458 55 491 Q55 527 66 561.5 Q77 596 101.5 623 Q126 650 166.5 666.5 Q207 683 267 683 L493 683 L493 -91 L457 -109 Z M314 647 L269 647 Q219 647 185.5 634 Q152 621 132 599 Q112 577 103 549.5 Q94 522 94 492 Q94 464 105 435.5 Q116 407 141.5 383.5 Q167 360 209 345.5 Q251 331 314 331 L314 647 Z " />
<glyph glyph-name="germandbls" unicode="&#xdf;" horiz-adv-x="572" d="M306 24 Q335 24 362.5 34.5 Q390 45 411 66.5 Q432 88 445 121 Q458 154 458 199 Q458 230 448.5 259.5 Q439 289 418 312 Q397 335 362.5 349 Q328 363 278 363 L274 363 L274 396 L278 396 Q343 396 382.5 429 Q422 462 422 534 Q422 601 387.5 638.5 Q353 676 283 676 Q252 676 225.5 665 Q199 654 179 631 Q159 608 147.5 572 Q136 536 136 486 L136 -176 L100 -194 L100 486 Q100 548 116 591 Q132 634 158 661 Q184 688 217 700 Q250 712 283 712 Q323 712 356 699 Q389 686 412.5 663 Q436 640 448.5 607 Q461 574 461 534 Q461 512 456 488 Q451 464 437.5 442.5 Q424 421 401.5 405 Q379 389 345 382 Q384 376 412.5 358 Q441 340 460 314.5 Q479 289 488 259 Q497 229 497 199 Q497 148 482 108.5 Q467 69 441.5 42.5 Q416 16 381 2 Q346 -12 306 -12 Q287 -12 272 -9.5 Q257 -7 247 -3 L265 28 Q281 24 306 24 Z " />
<glyph glyph-name="registered" unicode="&#xae;" horiz-adv-x="880" d="M440 -12 Q363 -12 297 15.5 Q231 43 182 92 Q133 141 105.5 207 Q78 273 78 350 Q78 427 105.5 493 Q133 559 182 608 Q231 657 297 684.5 Q363 712 440 712 Q517 712 583 684.5 Q649 657 698 608 Q747 559 774.5 493 Q802 427 802 350 Q802 273 774.5 207 Q747 141 698 92 Q649 43 583 15.5 Q517 -12 440 -12 Z M440 22 Q510 22 570 47 Q630 72 673.5 116 Q717 160 741.5 220 Q766 280 766 350 Q766 420 741.5 480 Q717 540 673.5 584 Q630 628 570 653 Q510 678 440 678 Q369 678 309.5 653 Q250 628 206.5 584 Q163 540 138.5 480 Q114 420 114 350 Q114 280 138.5 220 Q163 160 206.5 116 Q250 72 309.5 47 Q369 22 440 22 Z M599 438 Q599 393 572 359.5 Q545 326 488 321 L593 137 L551 137 L449 319 L339 319 L339 137 L303 137 L303 560 L481 560 Q514 560 536.5 548 Q559 536 573 518 Q587 500 593 478.5 Q599 457 599 438 Z M472 355 Q497 355 514 362 Q531 369 541.5 380.5 Q552 392 556.5 407 Q561 422 561 438 Q561 453 557 468.5 Q553 484 543 496.5 Q533 509 515.5 516.5 Q498 524 472 524 L339 524 L339 355 L472 355 Z " />
<glyph glyph-name="copyright" unicode="&#xa9;" horiz-adv-x="880" d="M440 -12 Q363 -12 297 15.5 Q231 43 182 92 Q133 141 105.5 207 Q78 273 78 350 Q78 427 105.5 493 Q133 559 182 608 Q231 657 297 684.5 Q363 712 440 712 Q517 712 583 684.5 Q649 657 698 608 Q747 559 774.5 493 Q802 427 802 350 Q802 273 774.5 207 Q747 141 698 92 Q649 43 583 15.5 Q517 -12 440 -12 Z M440 22 Q510 22 570 47 Q630 72 673.5 116 Q717 160 741.5 220 Q766 280 766 350 Q766 420 741.5 480 Q717 540 673.5 584 Q630 628 570 653 Q510 678 440 678 Q369 678 309.5 653 Q250 628 206.5 584 Q163 540 138.5 480 Q114 420 114 350 Q114 280 138.5 220 Q163 160 206.5 116 Q250 72 309.5 47 Q369 22 440 22 Z M446 138 Q364 138 321.5 193.5 Q279 249 279 355 Q279 454 321.5 513.5 Q364 573 445 573 Q497 573 530.5 550 Q564 527 582 485 L548 471 Q535 499 509.5 518.5 Q484 538 445 538 Q381 538 349 489 Q317 440 317 355 Q317 264 350 218.5 Q383 173 446 173 Q483 173 513.5 190 Q544 207 558 249 L588 237 Q571 189 534.5 163.5 Q498 138 446 138 Z " />
<glyph glyph-name="trademark" unicode="&#x2122;" horiz-adv-x="792" d="M199 666 L199 278 L163 278 L163 666 L43 666 L43 700 L318 700 L318 666 L199 666 Z M663 278 L663 575 L534 268 L405 575 L405 278 L369 278 L369 700 L391 700 L534 358 L677 700 L699 700 L699 278 L663 278 Z " />
<glyph glyph-name="acute" unicode="&#xb4;" horiz-adv-x="341" d="M136 576 L99 576 L250 732 L305 732 L136 576 Z " />
<glyph glyph-name="dieresis" unicode="&#xa8;" horiz-adv-x="341" d="M89 606 Q77 606 68.5 614.5 Q60 623 60 635 Q60 648 68.5 657 Q77 666 89 666 Q102 666 110 657 Q118 648 118 635 Q118 623 110 614.5 Q102 606 89 606 Z M255 606 Q243 606 234.5 614.5 Q226 623 226 635 Q226 648 234.5 657 Q243 666 255 666 Q268 666 276 657 Q284 648 284 635 Q284 623 276 614.5 Q268 606 255 606 Z " />
<glyph glyph-name="notequal" unicode="&#x2260;" horiz-adv-x="666" d="M300 229 L245 123 L202 123 L257 229 L98 229 L98 265 L275 265 L355 419 L98 419 L98 455 L373 455 L420 546 L463 546 L416 455 L568 455 L568 419 L398 419 L318 265 L568 265 L568 229 L300 229 Z " />
<glyph glyph-name="AE" unicode="&#xc6;" horiz-adv-x="859" d="M411 0 L411 197 L162 197 L49 0 L8 0 L412 700 L747 700 L747 667 L447 667 L447 379 L640 379 L640 346 L447 346 L447 33 L769 33 L769 0 L411 0 Z M411 227 L411 634 L178 227 L411 227 Z " />
<glyph glyph-name="Oslash" unicode="&#xd8;" horiz-adv-x="726" d="M561 616 Q601 562 618.5 492 Q636 422 636 350 Q636 285 621.5 220.5 Q607 156 574.5 104 Q542 52 490 20 Q438 -12 363 -12 Q306 -12 263 6.5 Q220 25 188 57 L142 -12 L101 -12 L165 84 Q125 137 107.5 207.5 Q90 278 90 350 Q90 415 104.5 479.5 Q119 544 151.5 596 Q184 648 236 680 Q288 712 363 712 Q420 712 462.5 693.5 Q505 675 537 643 L584 712 L625 712 L561 616 Z M363 24 Q428 24 473 53.5 Q518 83 545.5 130 Q573 177 585.5 235 Q598 293 598 350 Q598 416 584.5 477 Q571 538 540 584 L208 87 Q235 58 273.5 41 Q312 24 363 24 Z M128 350 Q128 284 141 223 Q154 162 186 115 L517 612 Q490 641 452 658.5 Q414 676 363 676 Q298 676 253 646.5 Q208 617 180 570 Q152 523 140 465 Q128 407 128 350 Z " />
<glyph glyph-name="infinity" unicode="&#x221e;" horiz-adv-x="1008" d="M737 143 Q695 143 660.5 157 Q626 171 597.5 196.5 Q569 222 546.5 256 Q524 290 505 331 Q485 292 461.5 258 Q438 224 409.5 198.5 Q381 173 347 158 Q313 143 272 143 Q228 143 190 157 Q152 171 124 198.5 Q96 226 79.5 266 Q63 306 63 357 Q63 409 79.5 449 Q96 489 124 516.5 Q152 544 190 558.5 Q228 573 272 573 Q313 573 347 557.5 Q381 542 409.5 516 Q438 490 461 455.5 Q484 421 504 383 Q523 424 545.5 459 Q568 494 596 519.5 Q624 545 658 559 Q692 573 735 573 Q779 573 817 558.5 Q855 544 883.5 516.5 Q912 489 928.5 449 Q945 409 945 357 Q945 306 929 266 Q913 226 884.5 198.5 Q856 171 818 157 Q780 143 737 143 Z M737 176 Q773 176 804 188 Q835 200 858 223.5 Q881 247 894 280.5 Q907 314 907 357 Q907 400 894 434 Q881 468 857.5 491.5 Q834 515 802.5 527.5 Q771 540 735 540 Q696 540 663 524 Q630 508 603 482.5 Q576 457 554.5 424 Q533 391 516 357 Q533 322 555 289.5 Q577 257 604 231.5 Q631 206 664 191 Q697 176 737 176 Z M272 176 Q312 176 344.5 191 Q377 206 404 231.5 Q431 257 452.5 289.5 Q474 322 491 357 Q474 391 452.5 424 Q431 457 404 482.5 Q377 508 344.5 524 Q312 540 272 540 Q236 540 205 527.5 Q174 515 151 491.5 Q128 468 114.5 434 Q101 400 101 357 Q101 314 114.5 280.5 Q128 247 151 223.5 Q174 200 205 188 Q236 176 272 176 Z " />
<glyph glyph-name="plusminus" unicode="&#xb1;" horiz-adv-x="666" d="M350 388 L350 204 L314 204 L314 388 L98 388 L98 424 L314 424 L314 608 L350 608 L350 424 L568 424 L568 388 L350 388 Z M98 0 L98 36 L568 36 L568 0 L98 0 Z " />
<glyph glyph-name="lessequal" unicode="&#x2264;" horiz-adv-x="666" d="M568 156 L98 360 L98 398 L568 602 L568 561 L145 379 L568 197 L568 156 Z M98 0 L98 36 L568 36 L568 0 L98 0 Z " />
<glyph glyph-name="greaterequal" unicode="&#x2265;" horiz-adv-x="666" d="M98 0 L98 36 L568 36 L568 0 L98 0 Z M98 156 L98 197 L521 379 L98 561 L98 602 L568 398 L568 360 L98 156 Z " />
<glyph glyph-name="yen" unicode="&#xa5;" horiz-adv-x="564" d="M315 309 L469 309 L469 276 L300 276 L300 156 L469 156 L469 123 L300 123 L300 0 L264 0 L264 123 L83 123 L83 156 L264 156 L264 276 L83 276 L83 309 L249 309 L36 700 L75 700 L282 318 L489 700 L528 700 L315 309 Z " />
<glyph glyph-name="mu" unicode="&#xb5;" horiz-adv-x="562" d="M418 0 L418 86 Q398 40 359.5 14 Q321 -12 268 -12 Q225 -12 192 3 Q159 18 139 50 L139 -181 L103 -200 L103 511 L139 511 L139 191 Q139 138 150.5 105 Q162 72 180.5 53.5 Q199 35 222.5 28 Q246 21 270 21 Q301 21 328 31 Q355 41 375 63.5 Q395 86 406.5 123 Q418 160 418 214 L418 511 L454 511 L454 0 L418 0 Z " />
<glyph glyph-name="partialdiff" unicode="&#x2202;" horiz-adv-x="592" d="M251 -12 Q209 -12 173.5 2 Q138 16 112.5 42 Q87 68 72.5 104.5 Q58 141 58 185 Q58 240 76 286 Q94 332 124.5 365 Q155 398 196 416.5 Q237 435 284 435 Q365 435 413.5 394.5 Q462 354 470 283 Q472 312 472.5 328.5 Q473 345 473 354 Q473 432 456.5 490 Q440 548 409 587.5 Q378 627 333.5 649.5 Q289 672 234 680 L242 712 Q375 692 442 604.5 Q509 517 509 354 Q509 280 495 213.5 Q481 147 450 97 Q419 47 370 17.5 Q321 -12 251 -12 Z M251 24 Q294 24 330 39 Q366 54 391.5 81 Q417 108 431.5 147 Q446 186 446 234 Q446 313 401 355 Q356 397 284 397 Q244 397 210 381.5 Q176 366 151 338 Q126 310 111.5 271 Q97 232 97 185 Q97 149 108.5 119 Q120 89 140.5 68 Q161 47 189.5 35.5 Q218 24 251 24 Z " />
<glyph glyph-name="summation" unicode="&#x2211;" horiz-adv-x="636" d="M75 -142 L75 -113 L371 288 L89 669 L89 698 L550 698 L550 662 L142 662 L417 290 L127 -106 L570 -106 L570 -142 L75 -142 Z " />
<glyph glyph-name="product" unicode="&#x220f;" horiz-adv-x="706" d="M555 -140 L555 664 L151 664 L151 -140 L115 -140 L115 700 L591 700 L591 -140 L555 -140 Z " />
<glyph glyph-name="pi" unicode="&#x3c0;" horiz-adv-x="652" d="M506 -12 Q453 -12 432.5 21 Q412 54 412 104 L412 475 L211 475 L211 333 Q211 264 204.5 209.5 Q198 155 184 112 Q170 69 146.5 36.5 Q123 4 89 -20 L60 3 Q84 19 104.5 42 Q125 65 141 101.5 Q157 138 166 192 Q175 246 175 326 L175 475 L78 475 L78 511 L577 511 L577 475 L448 475 L448 109 Q448 69 460 46 Q472 23 510 23 Q533 23 552.5 31 Q572 39 585 47 L581 9 Q565 -1 544.5 -6.5 Q524 -12 506 -12 Z " />
<glyph glyph-name="integral" unicode="&#x222b;" horiz-adv-x="378" d="M109 -140 Q93 -140 77 -135.5 Q61 -131 48 -124 L48 -92 Q62 -98 75.5 -102.5 Q89 -107 109 -107 Q144 -107 157.5 -88 Q171 -69 171 -27 L171 603 Q171 712 269 712 Q285 712 301 707.5 Q317 703 330 696 L330 664 Q316 670 302.5 674.5 Q289 679 269 679 Q234 679 220.5 660 Q207 641 207 599 L207 -31 Q207 -140 109 -140 Z " />
<glyph glyph-name="ordfeminine" unicode="&#xaa;" horiz-adv-x="458" d="M339 283 L339 325 Q315 304 279.5 288.5 Q244 273 206 273 Q142 273 102.5 307.5 Q63 342 63 408 Q63 444 76.5 470 Q90 496 112.5 513.5 Q135 531 163.5 539 Q192 547 221 547 Q254 547 285 538.5 Q316 530 339 517 L339 554 Q339 624 309.5 651 Q280 678 221 678 Q187 678 158.5 668 Q130 658 108 644 L98 676 Q121 691 155 701.5 Q189 712 221 712 Q257 712 285.5 704.5 Q314 697 334 680 Q354 663 364.5 633.5 Q375 604 375 561 L375 283 L339 283 Z M206 306 Q251 306 284.5 323 Q318 340 339 360 L339 481 Q319 494 286.5 504 Q254 514 221 514 Q200 514 178.5 508 Q157 502 140 489.5 Q123 477 112.5 456.5 Q102 436 102 408 Q102 355 132 330.5 Q162 306 206 306 Z " />
<glyph glyph-name="ordmasculine" unicode="&#xba;" horiz-adv-x="475" d="M237 272 Q157 272 109.5 329 Q62 386 62 492 Q62 596 109.5 654 Q157 712 237 712 Q318 712 365.5 654 Q413 596 413 492 Q413 386 365.5 329 Q318 272 237 272 Z M237 309 Q300 309 337 356.5 Q374 404 374 492 Q374 579 337 627 Q300 675 237 675 Q175 675 138 627 Q101 579 101 492 Q101 404 138 356.5 Q175 309 237 309 Z " />
<glyph glyph-name="ae" unicode="&#xe6;" horiz-adv-x="856" d="M442 245 Q446 129 490 76.5 Q534 24 611 24 Q640 24 671.5 34 Q703 44 731 67 L752 41 Q725 18 687.5 3 Q650 -12 608 -12 Q544 -12 498.5 19.5 Q453 51 429 109 Q387 42 336 15 Q285 -12 241 -12 Q166 -12 122 30.5 Q78 73 78 154 Q78 196 92 226.5 Q106 257 129.5 277 Q153 297 185 306.5 Q217 316 253 316 Q294 316 331 303 Q368 290 403 267 L403 343 Q403 388 392.5 417 Q382 446 365 462 Q348 478 325 484 Q302 490 278 490 Q236 490 195 474.5 Q154 459 124 441 L113 472 Q142 489 185 506 Q228 523 281 523 Q304 523 328.5 518 Q353 513 375 499.5 Q397 486 412.5 461.5 Q428 437 433 399 Q456 462 503 492.5 Q550 523 608 523 Q649 523 683 507.5 Q717 492 741.5 459.5 Q766 427 779.5 376.5 Q793 326 793 256 L793 245 L442 245 Z M241 21 Q298 21 342 57 Q386 93 416 145 Q406 180 403 229 L403 233 Q374 253 335.5 268 Q297 283 253 283 Q227 283 202.5 275 Q178 267 159 251.5 Q140 236 128.5 211.5 Q117 187 117 154 Q117 94 150.5 57.5 Q184 21 241 21 Z M608 490 Q574 490 545 478 Q516 466 494 440.5 Q472 415 458.5 375 Q445 335 442 278 L755 278 Q755 344 740.5 385 Q726 426 704 449.5 Q682 473 656.5 481.5 Q631 490 608 490 Z " />
<glyph glyph-name="oslash" unicode="&#xf8;" horiz-adv-x="550" d="M427 445 Q451 411 464 363.5 Q477 316 477 256 Q477 193 462.5 143 Q448 93 421.5 58.5 Q395 24 357.5 6 Q320 -12 275 -12 Q197 -12 145 38 L110 -12 L68 -12 L122 66 Q99 100 86 147.5 Q73 195 73 255 Q73 318 87.5 367.5 Q102 417 128.5 451.5 Q155 486 192.5 504.5 Q230 523 275 523 Q352 523 405 472 L440 523 L482 523 L427 445 Z M112 255 Q112 156 145 99 L384 442 Q342 487 275 487 Q195 487 153.5 427.5 Q112 368 112 255 Z M275 24 Q353 24 395.5 85 Q438 146 438 256 Q438 304 430 343.5 Q422 383 405 412 L167 69 Q207 24 275 24 Z " />
<glyph glyph-name="questiondown" unicode="&#xbf;" horiz-adv-x="532" d="M294 356 L294 322 Q294 277 280 245 Q266 213 245 187 Q224 161 200 139 Q176 117 155 94 Q134 71 120 43.5 Q106 16 106 -20 Q106 -50 116 -76.5 Q126 -103 146 -122.5 Q166 -142 195 -153 Q224 -164 262 -164 Q391 -164 428 -43 L462 -58 Q440 -127 387.5 -163.5 Q335 -200 262 -200 Q215 -200 179 -186 Q143 -172 118 -147.5 Q93 -123 80.5 -90 Q68 -57 68 -20 Q68 21 82 50.5 Q96 80 117 104.5 Q138 129 162 150.5 Q186 172 207 196.5 Q228 221 242 251 Q256 281 256 322 L256 356 L294 356 Z M275 463 Q262 463 254 472 Q246 481 246 494 Q246 506 254 514.5 Q262 523 275 523 Q287 523 295.5 514.5 Q304 506 304 494 Q304 481 295.5 472 Q287 463 275 463 Z " />
<glyph glyph-name="exclamdown" unicode="&#xa1;" horiz-adv-x="276" d="M143 319 L157 52 L157 -200 L119 -200 L119 52 L133 319 L143 319 Z M138 523 Q150 523 158.5 514.5 Q167 506 167 494 Q167 481 158.5 472 Q150 463 138 463 Q125 463 117 472 Q109 481 109 494 Q109 506 117 514.5 Q125 523 138 523 Z " />
<glyph glyph-name="logicalnot" unicode="&#xac;" horiz-adv-x="666" d="M532 176 L532 427 L98 427 L98 463 L568 463 L568 176 L532 176 Z " />
<glyph glyph-name="radical" unicode="&#x221a;" horiz-adv-x="564" d="M514 712 L266 -105 L220 -105 L50 222 L88 222 L241 -70 L476 712 L514 712 Z " />
<glyph glyph-name="florin" unicode="&#x192;" horiz-adv-x="336" d="M13 -182 Q77 -177 107.5 -147.5 Q138 -118 138 -51 L138 478 L56 478 L56 511 L138 511 L138 603 Q138 712 236 712 Q252 712 268 707.5 Q284 703 297 696 L297 664 Q283 670 269.5 674.5 Q256 679 236 679 Q201 679 187.5 660 Q174 641 174 599 L174 511 L297 511 L297 478 L174 478 L174 -49 Q174 -96 162.5 -126 Q151 -156 131 -174.5 Q111 -193 85 -201.5 Q59 -210 31 -213 L13 -182 Z " />
<glyph glyph-name="approxequal" unicode="&#x2248;" horiz-adv-x="666" d="M448 366 Q413 366 383.5 380.5 Q354 395 327 413 Q300 431 273 445.5 Q246 460 216 460 Q180 460 159.5 435.5 Q139 411 137 366 L100 366 Q100 390 107 413.5 Q114 437 128.5 455.5 Q143 474 165 485 Q187 496 218 496 Q253 496 282.5 481.5 Q312 467 339 449 Q366 431 393 416.5 Q420 402 450 402 Q486 402 506.5 427 Q527 452 529 496 L566 496 Q566 472 559 448.5 Q552 425 538 406.5 Q524 388 501.5 377 Q479 366 448 366 Z M448 190 Q413 190 383.5 204.5 Q354 219 327 237 Q300 255 273 269.5 Q246 284 216 284 Q180 284 159.5 259.5 Q139 235 137 190 L100 190 Q100 214 107 237.5 Q114 261 128.5 279.5 Q143 298 165 309 Q187 320 218 320 Q253 320 282.5 305.5 Q312 291 339 273 Q366 255 393 240.5 Q420 226 450 226 Q486 226 506.5 251 Q527 276 529 320 L566 320 Q566 296 559 272.5 Q552 249 538 230.5 Q524 212 501.5 201 Q479 190 448 190 Z " />
<glyph glyph-name="Delta" unicode="&#x2206;" horiz-adv-x="668" d="M80 0 L322 700 L346 700 L588 0 L80 0 Z M334 629 L128 36 L540 36 L334 629 Z " />
<glyph glyph-name="guillemotleft" unicode="&#xab;" horiz-adv-x="471" d="M208 0 L56 256 L208 511 L250 511 L98 256 L250 0 L208 0 Z M388 0 L236 256 L388 511 L430 511 L278 256 L430 0 L388 0 Z " />
<glyph glyph-name="guillemotright" unicode="&#xbb;" horiz-adv-x="471" d="M41 0 L193 256 L41 511 L83 511 L235 256 L83 0 L41 0 Z M221 0 L373 256 L221 511 L263 511 L415 256 L263 0 L221 0 Z " />
<glyph glyph-name="ellipsis" unicode="&#x2026;" horiz-adv-x="826" d="M148 -12 Q136 -12 127.5 -3.5 Q119 5 119 17 Q119 30 127.5 39 Q136 48 148 48 Q161 48 169 39 Q177 30 177 17 Q177 5 169 -3.5 Q161 -12 148 -12 Z M412 -12 Q400 -12 391.5 -3.5 Q383 5 383 17 Q383 30 391.5 39 Q400 48 412 48 Q425 48 433 39 Q441 30 441 17 Q441 5 433 -3.5 Q425 -12 412 -12 Z M675 -12 Q663 -12 654.5 -3.5 Q646 5 646 17 Q646 30 654.5 39 Q663 48 675 48 Q688 48 696 39 Q704 30 704 17 Q704 5 696 -3.5 Q688 -12 675 -12 Z " />
<glyph glyph-name="Agrave" unicode="&#xc0;" horiz-adv-x="668" d="M552 0 L482 197 L185 197 L118 0 L81 0 L321 700 L345 700 L587 0 L552 0 Z M473 227 L369 529 Q367 535 362.5 549 Q358 563 352.5 579.5 Q347 596 342 612.5 Q337 629 334 640 Q331 629 326 612 Q321 595 315 578 Q309 561 304 547.5 Q299 534 298 529 L194 227 L473 227 Z M385 766 L216 922 L271 922 L422 766 L385 766 Z " />
<glyph glyph-name="Atilde" unicode="&#xc3;" horiz-adv-x="668" d="M552 0 L482 197 L185 197 L118 0 L81 0 L321 700 L345 700 L587 0 L552 0 Z M473 227 L369 529 Q367 535 362.5 549 Q358 563 352.5 579.5 Q347 596 342 612.5 Q337 629 334 640 Q331 629 326 612 Q321 595 315 578 Q309 561 304 547.5 Q299 534 298 529 L194 227 L473 227 Z M413 792 Q388 792 367 804.5 Q346 817 326 832.5 Q306 848 287 860.5 Q268 873 247 873 Q198 873 195 796 L168 796 Q168 844 189.5 875 Q211 906 254 906 Q279 906 300 893.5 Q321 881 341 865.5 Q361 850 380 837.5 Q399 825 420 825 Q469 825 472 902 L499 902 Q499 854 477.5 823 Q456 792 413 792 Z " />
<glyph glyph-name="Otilde" unicode="&#xd5;" horiz-adv-x="726" d="M363 24 Q428 24 473 53.5 Q518 83 545.5 130 Q573 177 585 235 Q597 293 597 350 Q597 412 585 471 Q573 530 545.5 575.5 Q518 621 473 648.5 Q428 676 363 676 Q298 676 253 646.5 Q208 617 180.5 570 Q153 523 141 465 Q129 407 129 350 Q129 288 141 229 Q153 170 180.5 124.5 Q208 79 253 51.5 Q298 24 363 24 Z M363 -12 Q288 -12 236 20 Q184 52 151.5 104 Q119 156 104.5 220.5 Q90 285 90 350 Q90 415 104.5 479.5 Q119 544 151.5 596 Q184 648 236 680 Q288 712 363 712 Q438 712 490 680 Q542 648 574.5 596 Q607 544 621.5 479.5 Q636 415 636 350 Q636 285 621.5 220.5 Q607 156 574.5 104 Q542 52 490 20 Q438 -12 363 -12 Z M443 792 Q418 792 397 804.5 Q376 817 356 832.5 Q336 848 317 860.5 Q298 873 277 873 Q228 873 225 796 L198 796 Q198 844 219.5 875 Q241 906 284 906 Q309 906 330 893.5 Q351 881 371 865.5 Q391 850 410 837.5 Q429 825 450 825 Q499 825 502 902 L529 902 Q529 854 507.5 823 Q486 792 443 792 Z " />
<glyph glyph-name="OE" unicode="&#x152;" horiz-adv-x="925" d="M495 0 L495 24 Q477 12 444 0 Q411 -12 368 -12 Q291 -12 238 20 Q185 52 152 103.5 Q119 155 104.5 219.5 Q90 284 90 350 Q90 416 105 481 Q120 546 153 597 Q186 648 239 680 Q292 712 368 712 Q411 712 443 700.5 Q475 689 495 677 L495 700 L813 700 L813 667 L531 667 L531 379 L706 379 L706 346 L531 346 L531 33 L835 33 L835 0 L495 0 Z M368 24 Q410 24 442.5 38 Q475 52 495 69 L495 634 Q469 654 435.5 665 Q402 676 368 676 Q301 676 255.5 646.5 Q210 617 181.5 570 Q153 523 140.5 465 Q128 407 128 349 Q128 286 140.5 227.5 Q153 169 181.5 124 Q210 79 255.5 51.5 Q301 24 368 24 Z " />
<glyph glyph-name="oe" unicode="&#x153;" horiz-adv-x="896" d="M477 245 Q481 129 525 76.5 Q569 24 646 24 Q675 24 706.5 34 Q738 44 766 67 L787 41 Q760 18 722.5 3 Q685 -12 643 -12 Q574 -12 525.5 25.5 Q477 63 457 136 Q437 62 388 25 Q339 -12 275 -12 Q184 -12 128.5 57.5 Q73 127 73 255 Q73 318 87.5 367.5 Q102 417 128.5 451.5 Q155 486 192.5 504.5 Q230 523 275 523 Q340 523 389 486 Q438 449 458 374 Q479 449 529 486 Q579 523 643 523 Q684 523 718 507.5 Q752 492 776.5 459.5 Q801 427 814.5 376.5 Q828 326 828 256 L828 245 L477 245 Z M275 24 Q351 24 394.5 83 Q438 142 438 256 Q438 368 395.5 427.5 Q353 487 275 487 Q195 487 153.5 427.5 Q112 368 112 255 Q112 146 153.5 85 Q195 24 275 24 Z M643 490 Q609 490 580 478 Q551 466 529 440.5 Q507 415 493.5 375 Q480 335 477 278 L790 278 Q790 344 775.5 385 Q761 426 739 449.5 Q717 473 691.5 481.5 Q666 490 643 490 Z " />
<glyph glyph-name="endash" unicode="&#x2013;" horiz-adv-x="531" d="M75 269 L75 305 L456 305 L456 269 L75 269 Z " />
<glyph glyph-name="emdash" unicode="&#x2014;" horiz-adv-x="611" d="M13 269 L13 305 L598 305 L598 269 L13 269 Z " />
<glyph glyph-name="quotedblleft" unicode="&#x201c;" horiz-adv-x="388" d="M135 709 Q121 689 111.5 657.5 Q102 626 102 598 Q102 592 102.5 589 Q103 586 103 585 Q117 585 126 577 Q135 569 135 556 Q135 542 126.5 533.5 Q118 525 106 525 Q92 525 82.5 535 Q73 545 73 571 Q73 592 78 613.5 Q83 635 90.5 653.5 Q98 672 107.5 687.5 Q117 703 126 712 L135 709 Z M311 709 Q297 689 287.5 657.5 Q278 626 278 598 Q278 592 278.5 589 Q279 586 279 585 Q293 585 302 577 Q311 569 311 556 Q311 542 302.5 533.5 Q294 525 282 525 Q268 525 258.5 535 Q249 545 249 571 Q249 592 254 613.5 Q259 635 266.5 653.5 Q274 672 283.5 687.5 Q293 703 302 712 L311 709 Z " />
<glyph glyph-name="quotedblright" unicode="&#x201d;" horiz-adv-x="388" d="M253 528 Q267 548 276.5 579.5 Q286 611 286 639 Q286 645 285.5 648 Q285 651 285 652 Q271 652 262 660 Q253 668 253 681 Q253 695 261.5 703.5 Q270 712 282 712 Q296 712 305.5 702 Q315 692 315 666 Q315 645 310 623.5 Q305 602 297.5 583.5 Q290 565 280.5 549.5 Q271 534 262 525 L253 528 Z M77 528 Q91 548 100.5 579.5 Q110 611 110 639 Q110 645 109.5 648 Q109 651 109 652 Q95 652 86 660 Q77 668 77 681 Q77 695 85.5 703.5 Q94 712 106 712 Q120 712 129.5 702 Q139 692 139 666 Q139 645 134 623.5 Q129 602 121.5 583.5 Q114 565 104.5 549.5 Q95 534 86 525 L77 528 Z " />
<glyph glyph-name="quoteleft" unicode="&#x2018;" horiz-adv-x="212" d="M135 709 Q121 689 111.5 657.5 Q102 626 102 598 Q102 592 102.5 589 Q103 586 103 585 Q117 585 126 577 Q135 569 135 556 Q135 542 126.5 533.5 Q118 525 106 525 Q92 525 82.5 535 Q73 545 73 571 Q73 592 78 613.5 Q83 635 90.5 653.5 Q98 672 107.5 687.5 Q117 703 126 712 L135 709 Z " />
<glyph glyph-name="quoteright" unicode="&#x2019;" horiz-adv-x="212" d="M77 528 Q91 548 100.5 579.5 Q110 611 110 639 Q110 645 109.5 648 Q109 651 109 652 Q95 652 86 660 Q77 668 77 681 Q77 695 85.5 703.5 Q94 712 106 712 Q120 712 129.5 702 Q139 692 139 666 Q139 645 134 623.5 Q129 602 121.5 583.5 Q114 565 104.5 549.5 Q95 534 86 525 L77 528 Z " />
<glyph glyph-name="divide" unicode="&#xf7;" horiz-adv-x="666" d="M98 325 L98 359 L568 359 L568 325 L98 325 Z M330 520 Q318 520 309.5 528.5 Q301 537 301 549 Q301 562 309.5 571 Q318 580 330 580 Q343 580 351 571 Q359 562 359 549 Q359 537 351 528.5 Q343 520 330 520 Z M330 105 Q318 105 309.5 113.5 Q301 122 301 134 Q301 147 309.5 156 Q318 165 330 165 Q343 165 351 156 Q359 147 359 134 Q359 122 351 113.5 Q343 105 330 105 Z " />
<glyph glyph-name="lozenge" unicode="&#x25ca;" horiz-adv-x="626" d="M296 -12 L94 350 L296 712 L332 712 L534 350 L332 -12 L296 -12 Z M314 680 L131 350 L314 20 L497 350 L314 680 Z " />
<glyph glyph-name="ydieresis" unicode="&#xff;" horiz-adv-x="515" d="M237 12 L53 511 L89 511 L255 59 L421 511 L457 511 L197 -194 L161 -194 L237 12 Z M169 606 Q157 606 148.5 614.5 Q140 623 140 635 Q140 648 148.5 657 Q157 666 169 666 Q182 666 190 657 Q198 648 198 635 Q198 623 190 614.5 Q182 606 169 606 Z M335 606 Q323 606 314.5 614.5 Q306 623 306 635 Q306 648 314.5 657 Q323 666 335 666 Q348 666 356 657 Q364 648 364 635 Q364 623 356 614.5 Q348 606 335 606 Z " />
<glyph glyph-name="Ydieresis" unicode="&#x178;" horiz-adv-x="610" d="M287 0 L287 277 L59 700 L98 700 L305 314 L512 700 L551 700 L323 277 L323 0 L287 0 Z M222 796 Q210 796 201.5 804.5 Q193 813 193 825 Q193 838 201.5 847 Q210 856 222 856 Q235 856 243 847 Q251 838 251 825 Q251 813 243 804.5 Q235 796 222 796 Z M388 796 Q376 796 367.5 804.5 Q359 813 359 825 Q359 838 367.5 847 Q376 856 388 856 Q401 856 409 847 Q417 838 417 825 Q417 813 409 804.5 Q401 796 388 796 Z " />
<glyph glyph-name="fraction" unicode="&#x2044;" horiz-adv-x="331" d="M-95 -12 L383 712 L426 712 L-52 -12 L-95 -12 Z " />
<glyph glyph-name="Euro" unicode="&#x20ac;" horiz-adv-x="596" d="M362 -12 Q304 -12 262.5 9.5 Q221 31 193 67 Q165 103 149 149 Q133 195 126 244 L63 244 L77 277 L121 277 Q119 293 119 308.5 Q119 324 119 340 Q119 357 120 374 Q121 391 123 409 L63 409 L77 442 L127 442 Q135 493 153 541.5 Q171 590 200.5 628 Q230 666 272 689 Q314 712 371 712 Q412 712 450 702 Q488 692 518 672 L504 639 Q478 656 443.5 666 Q409 676 371 676 Q322 676 286.5 656 Q251 636 226.5 603 Q202 570 187.5 528 Q173 486 166 442 L422 442 L408 409 L162 409 Q160 391 159 374 Q158 357 158 340 Q158 308 161 277 L353 277 L340 244 L165 244 Q171 202 185 162 Q199 122 222.5 91.5 Q246 61 280.5 42.5 Q315 24 362 24 Q410 24 446.5 43.5 Q483 63 509 92 L538 72 Q526 56 508.5 41 Q491 26 469 14 Q447 2 420 -5 Q393 -12 362 -12 Z " />
<glyph glyph-name="guilsinglleft" unicode="&#x2039;" horiz-adv-x="291" d="M208 0 L56 256 L208 511 L250 511 L98 256 L250 0 L208 0 Z " />
<glyph glyph-name="guilsinglright" unicode="&#x203a;" horiz-adv-x="291" d="M41 0 L193 256 L41 511 L83 511 L235 256 L83 0 L41 0 Z " />
<glyph glyph-name="fi" unicode="&#xfb01;" horiz-adv-x="553" d="M161 478 L161 0 L125 0 L125 478 L43 478 L43 511 L125 511 L125 603 Q125 712 223 712 Q239 712 255 707.5 Q271 703 284 696 L284 664 Q270 670 256.5 674.5 Q243 679 223 679 Q188 679 174.5 660 Q161 641 161 599 L161 511 L284 511 L284 478 L161 478 Z M406 0 L406 511 L442 511 L442 0 L406 0 Z M424 633 Q412 633 403.5 641.5 Q395 650 395 662 Q395 675 403.5 684 Q412 693 424 693 Q437 693 445 684 Q453 675 453 662 Q453 650 445 641.5 Q437 633 424 633 Z " />
<glyph glyph-name="fl" unicode="&#xfb02;" horiz-adv-x="547" d="M161 478 L161 0 L125 0 L125 478 L43 478 L43 511 L125 511 L125 603 Q125 712 223 712 Q239 712 255 707.5 Q271 703 284 696 L284 664 Q270 670 256.5 674.5 Q243 679 223 679 Q188 679 174.5 660 Q161 641 161 599 L161 511 L284 511 L284 478 L161 478 Z M403 0 L403 704 L439 722 L439 0 L403 0 Z " />
<glyph glyph-name="daggerdbl" unicode="&#x2021;" horiz-adv-x="566" d="M433 116 L468 116 L468 82 L433 82 L293 91 L301 -16 L301 -141 L265 -141 L265 -16 L273 91 L133 82 L98 82 L98 116 L133 116 L273 107 L265 233 L265 338 L273 464 L133 455 L98 455 L98 489 L133 489 L273 480 L265 587 L265 712 L301 712 L301 587 L293 480 L433 489 L468 489 L468 455 L433 455 L293 464 L301 338 L301 233 L293 107 L433 116 Z " />
<glyph glyph-name="periodcentered" unicode="&#xb7;" horiz-adv-x="212" d="M106 320 Q94 320 85.5 328.5 Q77 337 77 349 Q77 362 85.5 371 Q94 380 106 380 Q119 380 127 371 Q135 362 135 349 Q135 337 127 328.5 Q119 320 106 320 Z " />
<glyph glyph-name="quotesinglbase" unicode="&#x201a;" horiz-adv-x="212" d="M77 -138 Q91 -118 100.5 -86.5 Q110 -55 110 -27 Q110 -23 109.5 -20 Q109 -17 109 -14 Q95 -14 86 -6 Q77 2 77 15 Q77 29 85.5 37.5 Q94 46 106 46 Q120 46 129.5 36 Q139 26 139 0 Q139 -21 134 -42.5 Q129 -64 121.5 -82.5 Q114 -101 104.5 -116.5 Q95 -132 86 -141 L77 -138 Z " />
<glyph glyph-name="quotedblbase" unicode="&#x201e;" horiz-adv-x="388" d="M253 -138 Q267 -118 276.5 -86.5 Q286 -55 286 -27 Q286 -22 285.5 -18.5 Q285 -15 285 -14 Q271 -14 262 -6 Q253 2 253 15 Q253 29 261.5 37.5 Q270 46 282 46 Q296 46 305.5 36 Q315 26 315 0 Q315 -21 310 -42.5 Q305 -64 297.5 -82.5 Q290 -101 280.5 -116.5 Q271 -132 262 -141 L253 -138 Z M77 -138 Q91 -118 100.5 -86.5 Q110 -55 110 -27 Q110 -22 109.5 -18.5 Q109 -15 109 -14 Q95 -14 86 -6 Q77 2 77 15 Q77 29 85.5 37.5 Q94 46 106 46 Q120 46 129.5 36 Q139 26 139 0 Q139 -21 134 -42.5 Q129 -64 121.5 -82.5 Q114 -101 104.5 -116.5 Q95 -132 86 -141 L77 -138 Z " />
<glyph glyph-name="perthousand" unicode="&#x2030;" horiz-adv-x="1277" d="M225 356 Q183 356 154 372 Q125 388 107 413.5 Q89 439 81 470.5 Q73 502 73 534 Q73 563 80.5 594.5 Q88 626 106 652 Q124 678 153 695 Q182 712 225 712 Q268 712 297 695 Q326 678 344 652 Q362 626 369.5 594.5 Q377 563 377 534 Q377 502 369 470.5 Q361 439 343 413.5 Q325 388 296 372 Q267 356 225 356 Z M225 392 Q256 392 278 404.5 Q300 417 313.5 437.5 Q327 458 333 483 Q339 508 339 534 Q339 557 333 582 Q327 607 313.5 628 Q300 649 278.5 662.5 Q257 676 225 676 Q193 676 171.5 662.5 Q150 649 136.5 628 Q123 607 117 582 Q111 557 111 534 Q111 508 117 483 Q123 458 136.5 437.5 Q150 417 172 404.5 Q194 392 225 392 Z M230 -12 L187 -12 L665 712 L708 712 L230 -12 Z M670 -12 Q628 -12 599 4 Q570 20 552 45.5 Q534 71 526 102.5 Q518 134 518 166 Q518 195 525.5 226.5 Q533 258 551 284 Q569 310 598 327 Q627 344 670 344 Q713 344 742 327 Q771 310 789 284 Q807 258 814.5 226.5 Q822 195 822 166 Q822 134 814 102.5 Q806 71 788 45.5 Q770 20 741 4 Q712 -12 670 -12 Z M670 24 Q701 24 723 36.5 Q745 49 758.5 69.5 Q772 90 778 115 Q784 140 784 166 Q784 189 778 214 Q772 239 758.5 260 Q745 281 723.5 294.5 Q702 308 670 308 Q638 308 616.5 294.5 Q595 281 581.5 260 Q568 239 562 214 Q556 189 556 166 Q556 140 562 115 Q568 90 581.5 69.5 Q595 49 617 36.5 Q639 24 670 24 Z M1062 -12 Q1020 -12 991 4 Q962 20 944 45.5 Q926 71 918 102.5 Q910 134 910 166 Q910 195 917.5 226.5 Q925 258 943 284 Q961 310 990 327 Q1019 344 1062 344 Q1105 344 1134 327 Q1163 310 1181 284 Q1199 258 1206.5 226.5 Q1214 195 1214 166 Q1214 134 1206 102.5 Q1198 71 1180 45.5 Q1162 20 1133 4 Q1104 -12 1062 -12 Z M1062 24 Q1093 24 1115 36.5 Q1137 49 1150.5 69.5 Q1164 90 1170 115 Q1176 140 1176 166 Q1176 189 1170 214 Q1164 239 1150.5 260 Q1137 281 1115.5 294.5 Q1094 308 1062 308 Q1030 308 1008.5 294.5 Q987 281 973.5 260 Q960 239 954 214 Q948 189 948 166 Q948 140 954 115 Q960 90 973.5 69.5 Q987 49 1009 36.5 Q1031 24 1062 24 Z " />
<glyph glyph-name="Acircumflex" unicode="&#xc2;" horiz-adv-x="668" d="M552 0 L482 197 L185 197 L118 0 L81 0 L321 700 L345 700 L587 0 L552 0 Z M473 227 L369 529 Q367 535 362.5 549 Q358 563 352.5 579.5 Q347 596 342 612.5 Q337 629 334 640 Q331 629 326 612 Q321 595 315 578 Q309 561 304 547.5 Q299 534 298 529 L194 227 L473 227 Z M166 766 L317 922 L349 922 L500 766 L463 766 L333 886 L203 766 L166 766 Z " />
<glyph glyph-name="Ecircumflex" unicode="&#xca;" horiz-adv-x="592" d="M115 0 L115 700 L480 700 L480 667 L151 667 L151 379 L373 379 L373 346 L151 346 L151 33 L502 33 L502 0 L115 0 Z M131 766 L282 922 L314 922 L465 766 L428 766 L298 886 L168 766 L131 766 Z " />
<glyph glyph-name="Aacute" unicode="&#xc1;" horiz-adv-x="668" d="M552 0 L482 197 L185 197 L118 0 L81 0 L321 700 L345 700 L587 0 L552 0 Z M473 227 L369 529 Q367 535 362.5 549 Q358 563 352.5 579.5 Q347 596 342 612.5 Q337 629 334 640 Q331 629 326 612 Q321 595 315 578 Q309 561 304 547.5 Q299 534 298 529 L194 227 L473 227 Z M279 766 L242 766 L393 922 L448 922 L279 766 Z " />
<glyph glyph-name="Edieresis" unicode="&#xcb;" horiz-adv-x="592" d="M115 0 L115 700 L480 700 L480 667 L151 667 L151 379 L373 379 L373 346 L151 346 L151 33 L502 33 L502 0 L115 0 Z M189 796 Q177 796 168.5 804.5 Q160 813 160 825 Q160 838 168.5 847 Q177 856 189 856 Q202 856 210 847 Q218 838 218 825 Q218 813 210 804.5 Q202 796 189 796 Z M355 796 Q343 796 334.5 804.5 Q326 813 326 825 Q326 838 334.5 847 Q343 856 355 856 Q368 856 376 847 Q384 838 384 825 Q384 813 376 804.5 Q368 796 355 796 Z " />
<glyph glyph-name="Egrave" unicode="&#xc8;" horiz-adv-x="592" d="M115 0 L115 700 L480 700 L480 667 L151 667 L151 379 L373 379 L373 346 L151 346 L151 33 L502 33 L502 0 L115 0 Z M307 766 L138 922 L193 922 L344 766 L307 766 Z " />
<glyph glyph-name="Iacute" unicode="&#xcd;" horiz-adv-x="266" d="M115 0 L115 700 L151 700 L151 0 L115 0 Z M76 766 L39 766 L190 922 L245 922 L76 766 Z " />
<glyph glyph-name="Icircumflex" unicode="&#xce;" horiz-adv-x="266" d="M115 0 L115 700 L151 700 L151 0 L115 0 Z M-35 766 L116 922 L148 922 L299 766 L262 766 L132 886 L2 766 L-35 766 Z " />
<glyph glyph-name="Idieresis" unicode="&#xcf;" horiz-adv-x="266" d="M115 0 L115 700 L151 700 L151 0 L115 0 Z M49 796 Q37 796 28.5 804.5 Q20 813 20 825 Q20 838 28.5 847 Q37 856 49 856 Q62 856 70 847 Q78 838 78 825 Q78 813 70 804.5 Q62 796 49 796 Z M215 796 Q203 796 194.5 804.5 Q186 813 186 825 Q186 838 194.5 847 Q203 856 215 856 Q228 856 236 847 Q244 838 244 825 Q244 813 236 804.5 Q228 796 215 796 Z " />
<glyph glyph-name="Igrave" unicode="&#xcc;" horiz-adv-x="266" d="M115 0 L115 700 L151 700 L151 0 L115 0 Z M187 766 L18 922 L73 922 L224 766 L187 766 Z " />
<glyph glyph-name="Oacute" unicode="&#xd3;" horiz-adv-x="726" d="M363 24 Q428 24 473 53.5 Q518 83 545.5 130 Q573 177 585 235 Q597 293 597 350 Q597 412 585 471 Q573 530 545.5 575.5 Q518 621 473 648.5 Q428 676 363 676 Q298 676 253 646.5 Q208 617 180.5 570 Q153 523 141 465 Q129 407 129 350 Q129 288 141 229 Q153 170 180.5 124.5 Q208 79 253 51.5 Q298 24 363 24 Z M363 -12 Q288 -12 236 20 Q184 52 151.5 104 Q119 156 104.5 220.5 Q90 285 90 350 Q90 415 104.5 479.5 Q119 544 151.5 596 Q184 648 236 680 Q288 712 363 712 Q438 712 490 680 Q542 648 574.5 596 Q607 544 621.5 479.5 Q636 415 636 350 Q636 285 621.5 220.5 Q607 156 574.5 104 Q542 52 490 20 Q438 -12 363 -12 Z M329 766 L292 766 L443 922 L498 922 L329 766 Z " />
<glyph glyph-name="Ocircumflex" unicode="&#xd4;" horiz-adv-x="726" d="M363 24 Q428 24 473 53.5 Q518 83 545.5 130 Q573 177 585 235 Q597 293 597 350 Q597 412 585 471 Q573 530 545.5 575.5 Q518 621 473 648.5 Q428 676 363 676 Q298 676 253 646.5 Q208 617 180.5 570 Q153 523 141 465 Q129 407 129 350 Q129 288 141 229 Q153 170 180.5 124.5 Q208 79 253 51.5 Q298 24 363 24 Z M363 -12 Q288 -12 236 20 Q184 52 151.5 104 Q119 156 104.5 220.5 Q90 285 90 350 Q90 415 104.5 479.5 Q119 544 151.5 596 Q184 648 236 680 Q288 712 363 712 Q438 712 490 680 Q542 648 574.5 596 Q607 544 621.5 479.5 Q636 415 636 350 Q636 285 621.5 220.5 Q607 156 574.5 104 Q542 52 490 20 Q438 -12 363 -12 Z M208 766 L359 922 L391 922 L542 766 L505 766 L375 886 L245 766 L208 766 Z " />
<glyph glyph-name="Ograve" unicode="&#xd2;" horiz-adv-x="726" d="M363 24 Q428 24 473 53.5 Q518 83 545.5 130 Q573 177 585 235 Q597 293 597 350 Q597 412 585 471 Q573 530 545.5 575.5 Q518 621 473 648.5 Q428 676 363 676 Q298 676 253 646.5 Q208 617 180.5 570 Q153 523 141 465 Q129 407 129 350 Q129 288 141 229 Q153 170 180.5 124.5 Q208 79 253 51.5 Q298 24 363 24 Z M363 -12 Q288 -12 236 20 Q184 52 151.5 104 Q119 156 104.5 220.5 Q90 285 90 350 Q90 415 104.5 479.5 Q119 544 151.5 596 Q184 648 236 680 Q288 712 363 712 Q438 712 490 680 Q542 648 574.5 596 Q607 544 621.5 479.5 Q636 415 636 350 Q636 285 621.5 220.5 Q607 156 574.5 104 Q542 52 490 20 Q438 -12 363 -12 Z M410 766 L241 922 L296 922 L447 766 L410 766 Z " />
<glyph glyph-name="Uacute" unicode="&#xda;" horiz-adv-x="668" d="M334 -12 Q282 -12 240.5 2.5 Q199 17 170.5 48.5 Q142 80 126.5 129.5 Q111 179 111 249 L111 700 L147 700 L147 251 Q147 182 162.5 137.5 Q178 93 203.5 67.5 Q229 42 263 32 Q297 22 334 22 Q371 22 405 32 Q439 42 464.5 67.5 Q490 93 505.5 137.5 Q521 182 521 251 L521 700 L557 700 L557 249 Q557 179 541.5 129.5 Q526 80 497.5 48.5 Q469 17 427.5 2.5 Q386 -12 334 -12 Z M298 766 L261 766 L412 922 L467 922 L298 766 Z " />
<glyph glyph-name="Ucircumflex" unicode="&#xdb;" horiz-adv-x="668" d="M334 -12 Q282 -12 240.5 2.5 Q199 17 170.5 48.5 Q142 80 126.5 129.5 Q111 179 111 249 L111 700 L147 700 L147 251 Q147 182 162.5 137.5 Q178 93 203.5 67.5 Q229 42 263 32 Q297 22 334 22 Q371 22 405 32 Q439 42 464.5 67.5 Q490 93 505.5 137.5 Q521 182 521 251 L521 700 L557 700 L557 249 Q557 179 541.5 129.5 Q526 80 497.5 48.5 Q469 17 427.5 2.5 Q386 -12 334 -12 Z M167 766 L318 922 L350 922 L501 766 L464 766 L334 886 L204 766 L167 766 Z " />
<glyph glyph-name="Ugrave" unicode="&#xd9;" horiz-adv-x="668" d="M334 -12 Q282 -12 240.5 2.5 Q199 17 170.5 48.5 Q142 80 126.5 129.5 Q111 179 111 249 L111 700 L147 700 L147 251 Q147 182 162.5 137.5 Q178 93 203.5 67.5 Q229 42 263 32 Q297 22 334 22 Q371 22 405 32 Q439 42 464.5 67.5 Q490 93 505.5 137.5 Q521 182 521 251 L521 700 L557 700 L557 249 Q557 179 541.5 129.5 Q526 80 497.5 48.5 Q469 17 427.5 2.5 Q386 -12 334 -12 Z M389 766 L220 922 L275 922 L426 766 L389 766 Z " />
<glyph glyph-name="dotlessi" unicode="&#x131;" horiz-adv-x="258" d="M111 0 L111 511 L147 511 L147 0 L111 0 Z " />
<glyph glyph-name="circumflex" unicode="&#x2c6;" horiz-adv-x="341" d="M5 576 L156 732 L188 732 L339 576 L302 576 L172 696 L42 576 L5 576 Z " />
<glyph glyph-name="tilde" unicode="&#x2dc;" horiz-adv-x="341" d="M250 602 Q225 602 204 614.5 Q183 627 163 642.5 Q143 658 124 670.5 Q105 683 84 683 Q35 683 32 606 L5 606 Q5 654 26.5 685 Q48 716 91 716 Q116 716 137 703.5 Q158 691 178 675.5 Q198 660 217 647.5 Q236 635 257 635 Q306 635 309 712 L336 712 Q336 664 314.5 633 Q293 602 250 602 Z " />
<glyph glyph-name="macron" unicode="&#xaf;" horiz-adv-x="341" d="M7 623 L7 656 L337 656 L337 623 L7 623 Z " />
<glyph glyph-name="breve" unicode="&#x2d8;" horiz-adv-x="341" d="M172 581 Q128 581 96 593.5 Q64 606 43.5 628 Q23 650 13 679.5 Q3 709 3 742 L37 742 Q37 710 47.5 686 Q58 662 76.5 646 Q95 630 119.5 622 Q144 614 172 614 Q200 614 224.5 622 Q249 630 267.5 646 Q286 662 296.5 686 Q307 710 307 742 L341 742 Q341 709 331 679.5 Q321 650 300.5 628 Q280 606 248 593.5 Q216 581 172 581 Z " />
<glyph glyph-name="dotaccent" unicode="&#x2d9;" horiz-adv-x="341" d="M172 606 Q160 606 151.5 614.5 Q143 623 143 635 Q143 648 151.5 657 Q160 666 172 666 Q185 666 193 657 Q201 648 201 635 Q201 623 193 614.5 Q185 606 172 606 Z " />
<glyph glyph-name="ring" unicode="&#x2da;" horiz-adv-x="341" d="M172 540 Q148 540 127.5 549 Q107 558 91 573 Q75 588 66 608.5 Q57 629 57 652 Q57 675 66 695.5 Q75 716 91 731.5 Q107 747 127.5 756 Q148 765 172 765 Q196 765 216.5 756 Q237 747 253 731.5 Q269 716 278 695.5 Q287 675 287 652 Q287 629 278 608.5 Q269 588 253 573 Q237 558 216.5 549 Q196 540 172 540 Z M171 571 Q205 571 229 594 Q253 617 253 652 Q253 687 229 710.5 Q205 734 171 734 Q139 734 115 710.5 Q91 687 91 652 Q91 635 97.5 620 Q104 605 115 594 Q126 583 140.5 577 Q155 571 171 571 Z " />
<glyph glyph-name="cedilla" unicode="&#xb8;" horiz-adv-x="341" d="M176 -234 Q153 -234 135 -226.5 Q117 -219 105 -206 L130 -188 Q138 -194 148.5 -199.5 Q159 -205 175 -205 Q206 -205 222.5 -187.5 Q239 -170 239 -144 Q239 -118 221 -101 Q203 -84 174 -84 Q152 -84 136 -92 L126 -80 L191 10 L215 10 L175 -59 Q200 -59 218.5 -66.5 Q237 -74 249 -86 Q261 -98 267 -113 Q273 -128 273 -143 Q273 -181 247.5 -207.5 Q222 -234 176 -234 Z " />
<glyph glyph-name="hungarumlaut" unicode="&#x2dd;" horiz-adv-x="341" d="M124 576 L87 576 L238 732 L293 732 L124 576 Z M322 576 L285 576 L436 732 L491 732 L322 576 Z " />
<glyph glyph-name="ogonek" unicode="&#x2db;" horiz-adv-x="341" d="M175 -234 Q156 -234 138.5 -228.5 Q121 -223 108 -211 Q95 -199 87 -180.5 Q79 -162 79 -136 Q79 -89 116.5 -49.5 Q154 -10 215 10 L247 10 Q113 -45 113 -136 Q113 -174 132.5 -189.5 Q152 -205 175 -205 Q201 -205 216 -193.5 Q231 -182 239 -173 L263 -190 Q249 -207 228 -220.5 Q207 -234 175 -234 Z " />
<glyph glyph-name="caron" unicode="&#x2c7;" horiz-adv-x="341" d="M188 576 L156 576 L5 732 L42 732 L172 612 L302 732 L339 732 L188 576 Z " />
<glyph glyph-name="currency" unicode="&#xa4;" horiz-adv-x="641" d="M320 101 Q236 101 169 154 L99 83 L70 111 L142 182 Q100 246 100 333 Q100 420 142 484 L70 555 L99 583 L169 512 Q236 565 320 565 Q404 565 471 512 L541 583 L570 555 L498 484 Q540 420 540 333 Q540 246 498 182 L570 111 L541 83 L471 154 Q404 101 320 101 Z M320 138 Q361 138 394.5 152.5 Q428 167 451.5 193 Q475 219 488 254.5 Q501 290 501 333 Q501 376 488 411.5 Q475 447 451.5 473 Q428 499 394.5 513.5 Q361 528 320 528 Q279 528 245.5 513.5 Q212 499 188.5 473 Q165 447 152 411.5 Q139 376 139 333 Q139 290 152 254.5 Q165 219 188.5 193 Q212 167 245.5 152.5 Q279 138 320 138 Z " />
<glyph glyph-name="uni00AD" unicode="&#xad;" horiz-adv-x="409" d="M93 280 L93 316 L316 316 L316 280 L93 280 Z " />
<glyph glyph-name="Amacron" unicode="&#x100;" horiz-adv-x="668" d="M552 0 L482 197 L185 197 L118 0 L81 0 L321 700 L345 700 L587 0 L552 0 Z M473 227 L369 529 Q367 535 362.5 549 Q358 563 352.5 579.5 Q347 596 342 612.5 Q337 629 334 640 Q331 629 326 612 Q321 595 315 578 Q309 561 304 547.5 Q299 534 298 529 L194 227 L473 227 Z M168 813 L168 846 L498 846 L498 813 L168 813 Z " />
<glyph glyph-name="amacron" unicode="&#x101;" horiz-adv-x="527" d="M403 0 L403 80 Q373 38 330.5 13 Q288 -12 241 -12 Q166 -12 122 30.5 Q78 73 78 154 Q78 196 92 226.5 Q106 257 129.5 277 Q153 297 185 306.5 Q217 316 253 316 Q294 316 331 303 Q368 290 403 267 L403 343 Q403 388 392.5 417 Q382 446 365 462 Q348 478 325 484 Q302 490 278 490 Q236 490 195 474.5 Q154 459 124 441 L113 472 Q142 489 185 506 Q228 523 281 523 Q308 523 336 516 Q364 509 387 491 Q410 473 424.5 441 Q439 409 439 358 L439 0 L403 0 Z M241 21 Q269 21 293 30 Q317 39 337 53.5 Q357 68 373.5 86 Q390 104 403 122 L403 233 Q374 253 335.5 268 Q297 283 253 283 Q227 283 202.5 275 Q178 267 159 251.5 Q140 236 128.5 211.5 Q117 187 117 154 Q117 94 150.5 57.5 Q184 21 241 21 Z M110 623 L110 656 L440 656 L440 623 L110 623 Z " />
<glyph glyph-name="Abreve" unicode="&#x102;" horiz-adv-x="668" d="M552 0 L482 197 L185 197 L118 0 L81 0 L321 700 L345 700 L587 0 L552 0 Z M473 227 L369 529 Q367 535 362.5 549 Q358 563 352.5 579.5 Q347 596 342 612.5 Q337 629 334 640 Q331 629 326 612 Q321 595 315 578 Q309 561 304 547.5 Q299 534 298 529 L194 227 L473 227 Z M333 771 Q289 771 257 783.5 Q225 796 204.5 818 Q184 840 174 869.5 Q164 899 164 932 L198 932 Q198 900 208.5 876 Q219 852 237.5 836 Q256 820 280.5 812 Q305 804 333 804 Q361 804 385.5 812 Q410 820 428.5 836 Q447 852 457.5 876 Q468 900 468 932 L502 932 Q502 899 492 869.5 Q482 840 461.5 818 Q441 796 409 783.5 Q377 771 333 771 Z " />
<glyph glyph-name="abreve" unicode="&#x103;" horiz-adv-x="527" d="M403 0 L403 80 Q373 38 330.5 13 Q288 -12 241 -12 Q166 -12 122 30.5 Q78 73 78 154 Q78 196 92 226.5 Q106 257 129.5 277 Q153 297 185 306.5 Q217 316 253 316 Q294 316 331 303 Q368 290 403 267 L403 343 Q403 388 392.5 417 Q382 446 365 462 Q348 478 325 484 Q302 490 278 490 Q236 490 195 474.5 Q154 459 124 441 L113 472 Q142 489 185 506 Q228 523 281 523 Q308 523 336 516 Q364 509 387 491 Q410 473 424.5 441 Q439 409 439 358 L439 0 L403 0 Z M241 21 Q269 21 293 30 Q317 39 337 53.5 Q357 68 373.5 86 Q390 104 403 122 L403 233 Q374 253 335.5 268 Q297 283 253 283 Q227 283 202.5 275 Q178 267 159 251.5 Q140 236 128.5 211.5 Q117 187 117 154 Q117 94 150.5 57.5 Q184 21 241 21 Z M275 581 Q231 581 199 593.5 Q167 606 146.5 628 Q126 650 116 679.5 Q106 709 106 742 L140 742 Q140 710 150.5 686 Q161 662 179.5 646 Q198 630 222.5 622 Q247 614 275 614 Q303 614 327.5 622 Q352 630 370.5 646 Q389 662 399.5 686 Q410 710 410 742 L444 742 Q444 709 434 679.5 Q424 650 403.5 628 Q383 606 351 593.5 Q319 581 275 581 Z " />
<glyph glyph-name="Aogonek" unicode="&#x104;" horiz-adv-x="668" d="M587 0 Q515 -23 485 -58.5 Q455 -94 455 -136 Q455 -174 474.5 -189.5 Q494 -205 517 -205 Q543 -205 558 -193.5 Q573 -182 581 -173 L605 -190 Q591 -207 570 -220.5 Q549 -234 517 -234 Q498 -234 480.5 -228.5 Q463 -223 450 -211 Q437 -199 429 -180.5 Q421 -162 421 -136 Q421 -92 453 -56 Q485 -20 550 3 L482 197 L185 197 L118 0 L81 0 L321 700 L345 700 L587 0 Z M473 227 L369 529 Q367 535 362.5 549 Q358 563 352.5 579.5 Q347 596 342 612.5 Q337 629 334 640 Q331 629 326 612 Q321 595 315 578 Q309 561 304 547.5 Q299 534 298 529 L194 227 L473 227 Z " />
<glyph glyph-name="aogonek" unicode="&#x105;" horiz-adv-x="527" d="M369 -234 Q350 -234 332.5 -228.5 Q315 -223 302 -211 Q289 -199 281 -180.5 Q273 -162 273 -136 Q273 -91 307.5 -53.5 Q342 -16 403 4 L403 80 Q373 38 330.5 13 Q288 -12 241 -12 Q166 -12 122 30.5 Q78 73 78 154 Q78 196 92 226.5 Q106 257 129.5 277 Q153 297 185 306.5 Q217 316 253 316 Q294 316 331 303 Q368 290 403 267 L403 343 Q403 388 392.5 417 Q382 446 365 462 Q348 478 325 484 Q302 490 278 490 Q236 490 195 474.5 Q154 459 124 441 L113 472 Q142 489 185 506 Q228 523 281 523 Q308 523 336 516 Q364 509 387 491 Q410 473 424.5 441 Q439 409 439 358 L439 0 Q374 -23 340.5 -56.5 Q307 -90 307 -136 Q307 -174 326.5 -189.5 Q346 -205 369 -205 Q395 -205 410 -193.5 Q425 -182 433 -173 L457 -190 Q443 -207 422 -220.5 Q401 -234 369 -234 Z M241 21 Q269 21 293 30 Q317 39 337 53.5 Q357 68 373.5 86 Q390 104 403 122 L403 233 Q374 253 335.5 268 Q297 283 253 283 Q227 283 202.5 275 Q178 267 159 251.5 Q140 236 128.5 211.5 Q117 187 117 154 Q117 94 150.5 57.5 Q184 21 241 21 Z " />
<glyph glyph-name="Cacute" unicode="&#x106;" horiz-adv-x="650" d="M361 -12 Q288 -12 236.5 19 Q185 50 152.5 100.5 Q120 151 105 216 Q90 281 90 350 Q90 420 106.5 485 Q123 550 156 600.5 Q189 651 240 681.5 Q291 712 360 712 Q404 712 436.5 702.5 Q469 693 492 677 Q515 661 531.5 640.5 Q548 620 560 599 L529 581 Q518 599 504.5 616 Q491 633 471.5 646.5 Q452 660 424.5 668 Q397 676 360 676 Q301 676 257.5 648.5 Q214 621 185.5 576 Q157 531 143 472 Q129 413 129 350 Q129 288 141.5 229 Q154 170 182 124.5 Q210 79 254 51.5 Q298 24 361 24 Q396 24 424.5 33 Q453 42 474.5 56.5 Q496 71 511.5 90 Q527 109 537 129 L570 116 Q559 92 540.5 69 Q522 46 496.5 28 Q471 10 437 -1 Q403 -12 361 -12 Z M332 766 L295 766 L446 922 L501 922 L332 766 Z " />
<glyph glyph-name="cacute" unicode="&#x107;" horiz-adv-x="483" d="M257 -12 Q172 -12 122.5 57.5 Q73 127 73 255 Q73 382 123.5 452.5 Q174 523 264 523 Q316 523 355 495.5 Q394 468 413 416 L377 402 Q363 443 333 465 Q303 487 264 487 Q188 487 150 428 Q112 369 112 255 Q112 145 151.5 84.5 Q191 24 257 24 Q303 24 337 49.5 Q371 75 384 118 L420 105 Q403 51 360 19.5 Q317 -12 257 -12 Z M209 576 L172 576 L323 732 L378 732 L209 576 Z " />
<glyph glyph-name="Ccircumflex" unicode="&#x108;" horiz-adv-x="650" d="M361 -12 Q288 -12 236.5 19 Q185 50 152.5 100.5 Q120 151 105 216 Q90 281 90 350 Q90 420 106.5 485 Q123 550 156 600.5 Q189 651 240 681.5 Q291 712 360 712 Q404 712 436.5 702.5 Q469 693 492 677 Q515 661 531.5 640.5 Q548 620 560 599 L529 581 Q518 599 504.5 616 Q491 633 471.5 646.5 Q452 660 424.5 668 Q397 676 360 676 Q301 676 257.5 648.5 Q214 621 185.5 576 Q157 531 143 472 Q129 413 129 350 Q129 288 141.5 229 Q154 170 182 124.5 Q210 79 254 51.5 Q298 24 361 24 Q396 24 424.5 33 Q453 42 474.5 56.5 Q496 71 511.5 90 Q527 109 537 129 L570 116 Q559 92 540.5 69 Q522 46 496.5 28 Q471 10 437 -1 Q403 -12 361 -12 Z M196 766 L347 922 L379 922 L530 766 L493 766 L363 886 L233 766 L196 766 Z " />
<glyph glyph-name="ccircumflex" unicode="&#x109;" horiz-adv-x="483" d="M257 -12 Q172 -12 122.5 57.5 Q73 127 73 255 Q73 382 123.5 452.5 Q174 523 264 523 Q316 523 355 495.5 Q394 468 413 416 L377 402 Q363 443 333 465 Q303 487 264 487 Q188 487 150 428 Q112 369 112 255 Q112 145 151.5 84.5 Q191 24 257 24 Q303 24 337 49.5 Q371 75 384 118 L420 105 Q403 51 360 19.5 Q317 -12 257 -12 Z M93 576 L244 732 L276 732 L427 576 L390 576 L260 696 L130 576 L93 576 Z " />
<glyph glyph-name="Cdotaccent" unicode="&#x10a;" horiz-adv-x="650" d="M361 -12 Q288 -12 236.5 19 Q185 50 152.5 100.5 Q120 151 105 216 Q90 281 90 350 Q90 420 106.5 485 Q123 550 156 600.5 Q189 651 240 681.5 Q291 712 360 712 Q404 712 436.5 702.5 Q469 693 492 677 Q515 661 531.5 640.5 Q548 620 560 599 L529 581 Q518 599 504.5 616 Q491 633 471.5 646.5 Q452 660 424.5 668 Q397 676 360 676 Q301 676 257.5 648.5 Q214 621 185.5 576 Q157 531 143 472 Q129 413 129 350 Q129 288 141.5 229 Q154 170 182 124.5 Q210 79 254 51.5 Q298 24 361 24 Q396 24 424.5 33 Q453 42 474.5 56.5 Q496 71 511.5 90 Q527 109 537 129 L570 116 Q559 92 540.5 69 Q522 46 496.5 28 Q471 10 437 -1 Q403 -12 361 -12 Z M363 796 Q351 796 342.5 804.5 Q334 813 334 825 Q334 838 342.5 847 Q351 856 363 856 Q376 856 384 847 Q392 838 392 825 Q392 813 384 804.5 Q376 796 363 796 Z " />
<glyph glyph-name="cdotaccent" unicode="&#x10b;" horiz-adv-x="483" d="M257 -12 Q172 -12 122.5 57.5 Q73 127 73 255 Q73 382 123.5 452.5 Q174 523 264 523 Q316 523 355 495.5 Q394 468 413 416 L377 402 Q363 443 333 465 Q303 487 264 487 Q188 487 150 428 Q112 369 112 255 Q112 145 151.5 84.5 Q191 24 257 24 Q303 24 337 49.5 Q371 75 384 118 L420 105 Q403 51 360 19.5 Q317 -12 257 -12 Z M265 606 Q253 606 244.5 614.5 Q236 623 236 635 Q236 648 244.5 657 Q253 666 265 666 Q278 666 286 657 Q294 648 294 635 Q294 623 286 614.5 Q278 606 265 606 Z " />
<glyph glyph-name="Ccaron" unicode="&#x10c;" horiz-adv-x="650" d="M361 -12 Q288 -12 236.5 19 Q185 50 152.5 100.5 Q120 151 105 216 Q90 281 90 350 Q90 420 106.5 485 Q123 550 156 600.5 Q189 651 240 681.5 Q291 712 360 712 Q404 712 436.5 702.5 Q469 693 492 677 Q515 661 531.5 640.5 Q548 620 560 599 L529 581 Q518 599 504.5 616 Q491 633 471.5 646.5 Q452 660 424.5 668 Q397 676 360 676 Q301 676 257.5 648.5 Q214 621 185.5 576 Q157 531 143 472 Q129 413 129 350 Q129 288 141.5 229 Q154 170 182 124.5 Q210 79 254 51.5 Q298 24 361 24 Q396 24 424.5 33 Q453 42 474.5 56.5 Q496 71 511.5 90 Q527 109 537 129 L570 116 Q559 92 540.5 69 Q522 46 496.5 28 Q471 10 437 -1 Q403 -12 361 -12 Z M379 766 L347 766 L196 922 L233 922 L363 802 L493 922 L530 922 L379 766 Z " />
<glyph glyph-name="ccaron" unicode="&#x10d;" horiz-adv-x="483" d="M257 -12 Q172 -12 122.5 57.5 Q73 127 73 255 Q73 382 123.5 452.5 Q174 523 264 523 Q316 523 355 495.5 Q394 468 413 416 L377 402 Q363 443 333 465 Q303 487 264 487 Q188 487 150 428 Q112 369 112 255 Q112 145 151.5 84.5 Q191 24 257 24 Q303 24 337 49.5 Q371 75 384 118 L420 105 Q403 51 360 19.5 Q317 -12 257 -12 Z M279 576 L247 576 L96 732 L133 732 L263 612 L393 732 L430 732 L279 576 Z " />
<glyph glyph-name="Dcaron" unicode="&#x10e;" horiz-adv-x="675" d="M115 700 L275 700 Q362 700 421.5 669.5 Q481 639 517 589.5 Q553 540 569 477.5 Q585 415 585 350 Q585 290 570.5 227.5 Q556 165 520 114.5 Q484 64 423.5 32 Q363 0 271 0 L115 0 L115 700 Z M271 36 Q352 36 405 65 Q458 94 489.5 139 Q521 184 533.5 240 Q546 296 546 350 Q546 408 532 464.5 Q518 521 486.5 565 Q455 609 403 636.5 Q351 664 275 664 L151 664 L151 36 L271 36 Z M311 766 L279 766 L128 922 L165 922 L295 802 L425 922 L462 922 L311 766 Z " />
<glyph glyph-name="dcaron" unicode="&#x10f;" horiz-adv-x="653" d="M267 -12 Q222 -12 186 7 Q150 26 125 61 Q100 96 86.5 145.5 Q73 195 73 256 Q73 383 125.5 453 Q178 523 275 523 Q303 523 325.5 515 Q348 507 365.5 494.5 Q383 482 396.5 466.5 Q410 451 420 436 L420 704 L456 722 L456 0 L420 0 L420 73 Q389 28 350 8 Q311 -12 267 -12 Z M275 24 Q319 24 358 54.5 Q397 85 420 129 L420 384 Q411 399 397.5 416.5 Q384 434 366 450 Q348 466 325 476.5 Q302 487 275 487 Q196 487 154 427 Q112 367 112 256 Q112 208 123.5 165.5 Q135 123 156 91.5 Q177 60 207 42 Q237 24 275 24 Z M610 712 L610 694 Q610 622 595 569.5 Q580 517 554 484 L544 492 Q558 521 566 577.5 Q574 634 574 712 L610 712 Z " />
<glyph glyph-name="Dcroat" unicode="&#x110;" horiz-adv-x="675" d="M115 331 L45 331 L45 367 L115 367 L115 700 L275 700 Q362 700 421.5 669.5 Q481 639 517 589.5 Q553 540 569 477.5 Q585 415 585 350 Q585 290 570.5 227.5 Q556 165 520 114.5 Q484 64 423.5 32 Q363 0 271 0 L115 0 L115 331 Z M271 36 Q352 36 405 65 Q458 94 489.5 139 Q521 184 533.5 240 Q546 296 546 350 Q546 408 532 464.5 Q518 521 486.5 565 Q455 609 403 636.5 Q351 664 275 664 L151 664 L151 367 L326 367 L326 331 L151 331 L151 36 L271 36 Z " />
<glyph glyph-name="dcroat" unicode="&#x111;" horiz-adv-x="564" d="M456 568 L456 0 L420 0 L420 73 Q389 28 350 8 Q311 -12 267 -12 Q222 -12 186 7 Q150 26 125 61 Q100 96 86.5 145.5 Q73 195 73 256 Q73 383 125.5 453 Q178 523 275 523 Q303 523 325.5 515 Q348 507 365.5 494.5 Q383 482 396.5 466.5 Q410 451 420 436 L420 568 L276 568 L276 601 L420 601 L420 704 L456 722 L456 601 L528 601 L528 568 L456 568 Z M275 25 Q319 25 358 55 Q397 85 420 129 L420 384 Q411 399 397.5 416.5 Q384 434 366 449.5 Q348 465 325 475.5 Q302 486 275 486 Q196 486 154 426.5 Q112 367 112 256 Q112 208 123.5 166 Q135 124 156 92.5 Q177 61 207 43 Q237 25 275 25 Z " />
<glyph glyph-name="Emacron" unicode="&#x112;" horiz-adv-x="592" d="M115 0 L115 700 L480 700 L480 667 L151 667 L151 379 L373 379 L373 346 L151 346 L151 33 L502 33 L502 0 L115 0 Z M137 813 L137 846 L467 846 L467 813 L137 813 Z " />
<glyph glyph-name="emacron" unicode="&#x113;" horiz-adv-x="531" d="M112 245 Q116 130 160 77 Q204 24 281 24 Q310 24 341.5 34 Q373 44 401 67 L422 41 Q395 18 357.5 3 Q320 -12 278 -12 Q180 -12 126.5 60 Q73 132 73 256 Q73 320 88.5 369.5 Q104 419 131 453 Q158 487 195.5 505 Q233 523 278 523 Q319 523 353 507.5 Q387 492 411.5 459.5 Q436 427 449.5 376.5 Q463 326 463 256 L463 245 L112 245 Z M278 490 Q244 490 215 477.5 Q186 465 164 439.5 Q142 414 128.5 373.5 Q115 333 112 278 L425 278 Q425 342 410.5 383.5 Q396 425 374 448.5 Q352 472 326.5 481 Q301 490 278 490 Z M113 623 L113 656 L443 656 L443 623 L113 623 Z " />
<glyph glyph-name="Ebreve" unicode="&#x114;" horiz-adv-x="592" d="M115 0 L115 700 L480 700 L480 667 L151 667 L151 379 L373 379 L373 346 L151 346 L151 33 L502 33 L502 0 L115 0 Z M307 771 Q263 771 231 783.5 Q199 796 178.5 818 Q158 840 148 869.5 Q138 899 138 932 L172 932 Q172 900 182.5 876 Q193 852 211.5 836 Q230 820 254.5 812 Q279 804 307 804 Q335 804 359.5 812 Q384 820 402.5 836 Q421 852 431.5 876 Q442 900 442 932 L476 932 Q476 899 466 869.5 Q456 840 435.5 818 Q415 796 383 783.5 Q351 771 307 771 Z " />
<glyph glyph-name="ebreve" unicode="&#x115;" horiz-adv-x="531" d="M112 245 Q116 130 160 77 Q204 24 281 24 Q310 24 341.5 34 Q373 44 401 67 L422 41 Q395 18 357.5 3 Q320 -12 278 -12 Q180 -12 126.5 60 Q73 132 73 256 Q73 320 88.5 369.5 Q104 419 131 453 Q158 487 195.5 505 Q233 523 278 523 Q319 523 353 507.5 Q387 492 411.5 459.5 Q436 427 449.5 376.5 Q463 326 463 256 L463 245 L112 245 Z M278 490 Q244 490 215 477.5 Q186 465 164 439.5 Q142 414 128.5 373.5 Q115 333 112 278 L425 278 Q425 342 410.5 383.5 Q396 425 374 448.5 Q352 472 326.5 481 Q301 490 278 490 Z M278 581 Q234 581 202 593.5 Q170 606 149.5 628 Q129 650 119 679.5 Q109 709 109 742 L143 742 Q143 710 153.5 686 Q164 662 182.5 646 Q201 630 225.5 622 Q250 614 278 614 Q306 614 330.5 622 Q355 630 373.5 646 Q392 662 402.5 686 Q413 710 413 742 L447 742 Q447 709 437 679.5 Q427 650 406.5 628 Q386 606 354 593.5 Q322 581 278 581 Z " />
<glyph glyph-name="Edotaccent" unicode="&#x116;" horiz-adv-x="592" d="M115 0 L115 700 L480 700 L480 667 L151 667 L151 379 L373 379 L373 346 L151 346 L151 33 L502 33 L502 0 L115 0 Z M307 796 Q295 796 286.5 804.5 Q278 813 278 825 Q278 838 286.5 847 Q295 856 307 856 Q320 856 328 847 Q336 838 336 825 Q336 813 328 804.5 Q320 796 307 796 Z " />
<glyph glyph-name="edotaccent" unicode="&#x117;" horiz-adv-x="531" d="M112 245 Q116 130 160 77 Q204 24 281 24 Q310 24 341.5 34 Q373 44 401 67 L422 41 Q395 18 357.5 3 Q320 -12 278 -12 Q180 -12 126.5 60 Q73 132 73 256 Q73 320 88.5 369.5 Q104 419 131 453 Q158 487 195.5 505 Q233 523 278 523 Q319 523 353 507.5 Q387 492 411.5 459.5 Q436 427 449.5 376.5 Q463 326 463 256 L463 245 L112 245 Z M278 490 Q244 490 215 477.5 Q186 465 164 439.5 Q142 414 128.5 373.5 Q115 333 112 278 L425 278 Q425 342 410.5 383.5 Q396 425 374 448.5 Q352 472 326.5 481 Q301 490 278 490 Z M278 606 Q266 606 257.5 614.5 Q249 623 249 635 Q249 648 257.5 657 Q266 666 278 666 Q291 666 299 657 Q307 648 307 635 Q307 623 299 614.5 Q291 606 278 606 Z " />
<glyph glyph-name="Eogonek" unicode="&#x118;" horiz-adv-x="592" d="M383 -234 Q364 -234 346.5 -228.5 Q329 -223 316 -211 Q303 -199 295 -180.5 Q287 -162 287 -136 Q287 -93 316.5 -55.5 Q346 -18 397 0 L115 0 L115 700 L480 700 L480 667 L151 667 L151 379 L373 379 L373 346 L151 346 L151 33 L502 33 L502 0 L473 0 Q442 0 414.5 -11.5 Q387 -23 366 -41.5 Q345 -60 333 -84.5 Q321 -109 321 -136 Q321 -174 340.5 -189.5 Q360 -205 383 -205 Q409 -205 424 -193.5 Q439 -182 447 -173 L471 -190 Q457 -207 436 -220.5 Q415 -234 383 -234 Z " />
<glyph glyph-name="eogonek" unicode="&#x119;" horiz-adv-x="531" d="M288 -234 Q269 -234 251.5 -228.5 Q234 -223 221 -211 Q208 -199 200 -180.5 Q192 -162 192 -136 Q192 -99 215 -66 Q238 -33 278 -12 Q180 -12 126.5 60 Q73 132 73 256 Q73 320 88.5 369.5 Q104 419 131 453 Q158 487 195.5 505 Q233 523 278 523 Q319 523 353 507.5 Q387 492 411.5 459.5 Q436 427 449.5 376.5 Q463 326 463 256 L463 245 L112 245 Q116 129 160 76.5 Q204 24 281 24 Q310 24 341.5 34 Q373 44 401 67 L422 41 Q402 24 378.5 12.5 Q355 1 329 -9 Q277 -29 251.5 -63 Q226 -97 226 -136 Q226 -174 245.5 -189.5 Q265 -205 288 -205 Q314 -205 329 -193.5 Q344 -182 352 -173 L376 -190 Q362 -207 341 -220.5 Q320 -234 288 -234 Z M278 490 Q244 490 215 478 Q186 466 164 440.5 Q142 415 128.5 375 Q115 335 112 278 L425 278 Q425 344 410.5 385 Q396 426 374 449.5 Q352 473 326.5 481.5 Q301 490 278 490 Z " />
<glyph glyph-name="Ecaron" unicode="&#x11a;" horiz-adv-x="592" d="M115 0 L115 700 L480 700 L480 667 L151 667 L151 379 L373 379 L373 346 L151 346 L151 33 L502 33 L502 0 L115 0 Z M323 766 L291 766 L140 922 L177 922 L307 802 L437 922 L474 922 L323 766 Z " />
<glyph glyph-name="ecaron" unicode="&#x11b;" horiz-adv-x="531" d="M112 245 Q116 130 160 77 Q204 24 281 24 Q310 24 341.5 34 Q373 44 401 67 L422 41 Q395 18 357.5 3 Q320 -12 278 -12 Q180 -12 126.5 60 Q73 132 73 256 Q73 320 88.5 369.5 Q104 419 131 453 Q158 487 195.5 505 Q233 523 278 523 Q319 523 353 507.5 Q387 492 411.5 459.5 Q436 427 449.5 376.5 Q463 326 463 256 L463 245 L112 245 Z M278 490 Q244 490 215 477.5 Q186 465 164 439.5 Q142 414 128.5 373.5 Q115 333 112 278 L425 278 Q425 342 410.5 383.5 Q396 425 374 448.5 Q352 472 326.5 481 Q301 490 278 490 Z M294 576 L262 576 L111 732 L148 732 L278 612 L408 732 L445 732 L294 576 Z " />
<glyph glyph-name="Gcircumflex" unicode="&#x11c;" horiz-adv-x="691" d="M363 -12 Q289 -12 237.5 19 Q186 50 153 100.5 Q120 151 105 216 Q90 281 90 350 Q90 422 106 487.5 Q122 553 155.5 603 Q189 653 240.5 682.5 Q292 712 363 712 Q400 712 430 703.5 Q460 695 483 681.5 Q506 668 523.5 650.5 Q541 633 554 616 L522 595 Q499 627 461 651.5 Q423 676 363 676 Q298 676 253.5 646.5 Q209 617 181 570 Q153 523 141 465 Q129 407 129 350 Q129 287 142.5 228 Q156 169 184.5 123.5 Q213 78 257 51 Q301 24 363 24 Q447 24 497 84.5 Q547 145 547 269 L547 281 L400 281 L400 315 L585 315 L585 281 Q585 203 568.5 147.5 Q552 92 522 56.5 Q492 21 451.5 4.5 Q411 -12 363 -12 Z M195 766 L346 922 L378 922 L529 766 L492 766 L362 886 L232 766 L195 766 Z " />
<glyph glyph-name="gcircumflex" unicode="&#x11d;" horiz-adv-x="566" d="M215 -181 Q328 -175 375 -134.5 Q422 -94 422 -19 L422 84 Q398 34 357.5 11 Q317 -12 269 -12 Q230 -12 194.5 5 Q159 22 132 55.5 Q105 89 89 139 Q73 189 73 256 Q73 319 87.5 368.5 Q102 418 128.5 452.5 Q155 487 191.5 505 Q228 523 273 523 Q301 523 325 515.5 Q349 508 368 495.5 Q387 483 400.5 467.5 Q414 452 422 437 L422 511 L458 511 L458 -23 Q458 -78 438.5 -113.5 Q419 -149 387.5 -170 Q356 -191 316 -200.5 Q276 -210 234 -213 L215 -181 Z M270 24 Q296 24 319.5 33 Q343 42 362.5 57.5 Q382 73 397 93 Q412 113 422 134 L422 389 Q396 437 356.5 462 Q317 487 273 487 Q195 487 153.5 427.5 Q112 368 112 256 Q112 200 124.5 157 Q137 114 158.5 84.5 Q180 55 209 39.5 Q238 24 270 24 Z M121 576 L272 732 L304 732 L455 576 L418 576 L288 696 L158 576 L121 576 Z " />
<glyph glyph-name="Gbreve" unicode="&#x11e;" horiz-adv-x="691" d="M363 -12 Q289 -12 237.5 19 Q186 50 153 100.5 Q120 151 105 216 Q90 281 90 350 Q90 422 106 487.5 Q122 553 155.5 603 Q189 653 240.5 682.5 Q292 712 363 712 Q400 712 430 703.5 Q460 695 483 681.5 Q506 668 523.5 650.5 Q541 633 554 616 L522 595 Q499 627 461 651.5 Q423 676 363 676 Q298 676 253.5 646.5 Q209 617 181 570 Q153 523 141 465 Q129 407 129 350 Q129 287 142.5 228 Q156 169 184.5 123.5 Q213 78 257 51 Q301 24 363 24 Q447 24 497 84.5 Q547 145 547 269 L547 281 L400 281 L400 315 L585 315 L585 281 Q585 203 568.5 147.5 Q552 92 522 56.5 Q492 21 451.5 4.5 Q411 -12 363 -12 Z M362 771 Q318 771 286 783.5 Q254 796 233.5 818 Q213 840 203 869.5 Q193 899 193 932 L227 932 Q227 900 237.5 876 Q248 852 266.5 836 Q285 820 309.5 812 Q334 804 362 804 Q390 804 414.5 812 Q439 820 457.5 836 Q476 852 486.5 876 Q497 900 497 932 L531 932 Q531 899 521 869.5 Q511 840 490.5 818 Q470 796 438 783.5 Q406 771 362 771 Z " />
<glyph glyph-name="gbreve" unicode="&#x11f;" horiz-adv-x="566" d="M215 -181 Q328 -175 375 -134.5 Q422 -94 422 -19 L422 84 Q398 34 357.5 11 Q317 -12 269 -12 Q230 -12 194.5 5 Q159 22 132 55.5 Q105 89 89 139 Q73 189 73 256 Q73 319 87.5 368.5 Q102 418 128.5 452.5 Q155 487 191.5 505 Q228 523 273 523 Q301 523 325 515.5 Q349 508 368 495.5 Q387 483 400.5 467.5 Q414 452 422 437 L422 511 L458 511 L458 -23 Q458 -78 438.5 -113.5 Q419 -149 387.5 -170 Q356 -191 316 -200.5 Q276 -210 234 -213 L215 -181 Z M270 24 Q296 24 319.5 33 Q343 42 362.5 57.5 Q382 73 397 93 Q412 113 422 134 L422 389 Q396 437 356.5 462 Q317 487 273 487 Q195 487 153.5 427.5 Q112 368 112 256 Q112 200 124.5 157 Q137 114 158.5 84.5 Q180 55 209 39.5 Q238 24 270 24 Z M288 581 Q244 581 212 593.5 Q180 606 159.5 628 Q139 650 129 679.5 Q119 709 119 742 L153 742 Q153 710 163.5 686 Q174 662 192.5 646 Q211 630 235.5 622 Q260 614 288 614 Q316 614 340.5 622 Q365 630 383.5 646 Q402 662 412.5 686 Q423 710 423 742 L457 742 Q457 709 447 679.5 Q437 650 416.5 628 Q396 606 364 593.5 Q332 581 288 581 Z " />
<glyph glyph-name="Gdotaccent" unicode="&#x120;" horiz-adv-x="691" d="M363 -12 Q289 -12 237.5 19 Q186 50 153 100.5 Q120 151 105 216 Q90 281 90 350 Q90 422 106 487.5 Q122 553 155.5 603 Q189 653 240.5 682.5 Q292 712 363 712 Q400 712 430 703.5 Q460 695 483 681.5 Q506 668 523.5 650.5 Q541 633 554 616 L522 595 Q499 627 461 651.5 Q423 676 363 676 Q298 676 253.5 646.5 Q209 617 181 570 Q153 523 141 465 Q129 407 129 350 Q129 287 142.5 228 Q156 169 184.5 123.5 Q213 78 257 51 Q301 24 363 24 Q447 24 497 84.5 Q547 145 547 269 L547 281 L400 281 L400 315 L585 315 L585 281 Q585 203 568.5 147.5 Q552 92 522 56.5 Q492 21 451.5 4.5 Q411 -12 363 -12 Z M360 796 Q348 796 339.5 804.5 Q331 813 331 825 Q331 838 339.5 847 Q348 856 360 856 Q373 856 381 847 Q389 838 389 825 Q389 813 381 804.5 Q373 796 360 796 Z " />
<glyph glyph-name="gdotaccent" unicode="&#x121;" horiz-adv-x="566" d="M215 -181 Q328 -175 375 -134.5 Q422 -94 422 -19 L422 84 Q398 34 357.5 11 Q317 -12 269 -12 Q230 -12 194.5 5 Q159 22 132 55.5 Q105 89 89 139 Q73 189 73 256 Q73 319 87.5 368.5 Q102 418 128.5 452.5 Q155 487 191.5 505 Q228 523 273 523 Q301 523 325 515.5 Q349 508 368 495.5 Q387 483 400.5 467.5 Q414 452 422 437 L422 511 L458 511 L458 -23 Q458 -78 438.5 -113.5 Q419 -149 387.5 -170 Q356 -191 316 -200.5 Q276 -210 234 -213 L215 -181 Z M270 24 Q296 24 319.5 33 Q343 42 362.5 57.5 Q382 73 397 93 Q412 113 422 134 L422 389 Q396 437 356.5 462 Q317 487 273 487 Q195 487 153.5 427.5 Q112 368 112 256 Q112 200 124.5 157 Q137 114 158.5 84.5 Q180 55 209 39.5 Q238 24 270 24 Z M288 606 Q276 606 267.5 614.5 Q259 623 259 635 Q259 648 267.5 657 Q276 666 288 666 Q301 666 309 657 Q317 648 317 635 Q317 623 309 614.5 Q301 606 288 606 Z " />
<glyph glyph-name="Gcommaaccent" unicode="&#x122;" horiz-adv-x="691" d="M363 -12 Q289 -12 237.5 19 Q186 50 153 100.5 Q120 151 105 216 Q90 281 90 350 Q90 422 106 487.5 Q122 553 155.5 603 Q189 653 240.5 682.5 Q292 712 363 712 Q400 712 430 703.5 Q460 695 483 681.5 Q506 668 523.5 650.5 Q541 633 554 616 L522 595 Q499 627 461 651.5 Q423 676 363 676 Q298 676 253.5 646.5 Q209 617 181 570 Q153 523 141 465 Q129 407 129 350 Q129 287 142.5 228 Q156 169 184.5 123.5 Q213 78 257 51 Q301 24 363 24 Q447 24 497 84.5 Q547 145 547 269 L547 281 L400 281 L400 315 L585 315 L585 281 Q585 203 568.5 147.5 Q552 92 522 56.5 Q492 21 451.5 4.5 Q411 -12 363 -12 Z M324 -242 Q338 -222 347.5 -190.5 Q357 -159 357 -131 Q357 -125 356.5 -122 Q356 -119 356 -118 Q342 -118 333 -110 Q324 -102 324 -89 Q324 -75 332.5 -66.5 Q341 -58 353 -58 Q367 -58 376.5 -68 Q386 -78 386 -104 Q386 -125 381 -146.5 Q376 -168 368.5 -186.5 Q361 -205 351.5 -220.5 Q342 -236 333 -245 L324 -242 Z " />
<glyph glyph-name="gcommaaccent" unicode="&#x123;" horiz-adv-x="566" d="M215 -181 Q328 -175 375 -134.5 Q422 -94 422 -19 L422 84 Q398 34 357.5 11 Q317 -12 269 -12 Q230 -12 194.5 5 Q159 22 132 55.5 Q105 89 89 139 Q73 189 73 256 Q73 319 87.5 368.5 Q102 418 128.5 452.5 Q155 487 191.5 505 Q228 523 273 523 Q301 523 325 515.5 Q349 508 368 495.5 Q387 483 400.5 467.5 Q414 452 422 437 L422 511 L458 511 L458 -23 Q458 -78 438.5 -113.5 Q419 -149 387.5 -170 Q356 -191 316 -200.5 Q276 -210 234 -213 L215 -181 Z M270 24 Q296 24 319.5 33 Q343 42 362.5 57.5 Q382 73 397 93 Q412 113 422 134 L422 389 Q396 437 356.5 462 Q317 487 273 487 Q195 487 153.5 427.5 Q112 368 112 256 Q112 200 124.5 157 Q137 114 158.5 84.5 Q180 55 209 39.5 Q238 24 270 24 Z M285 603 Q271 603 261.5 613 Q252 623 252 649 Q252 670 257 691.5 Q262 713 269.5 731.5 Q277 750 286.5 765.5 Q296 781 305 790 L314 787 Q300 767 290.5 735.5 Q281 704 281 676 Q281 670 281.5 667 Q282 664 282 663 Q296 663 305 655 Q314 647 314 634 Q314 620 305.5 611.5 Q297 603 285 603 Z " />
<glyph glyph-name="Hcircumflex" unicode="&#x124;" horiz-adv-x="678" d="M527 0 L527 347 L151 347 L151 0 L115 0 L115 700 L151 700 L151 381 L527 381 L527 700 L563 700 L563 0 L527 0 Z M170 766 L321 922 L353 922 L504 766 L467 766 L337 886 L207 766 L170 766 Z " />
<glyph glyph-name="hcircumflex" unicode="&#x125;" horiz-adv-x="562" d="M295 523 Q376 523 417.5 471.5 Q459 420 459 312 L459 0 L423 0 L423 320 Q423 366 413.5 398.5 Q404 431 387 451 Q370 471 346 480 Q322 489 292 489 Q260 489 233 479 Q206 469 186.5 446.5 Q167 424 155.5 387.5 Q144 351 144 297 L144 0 L108 0 L108 704 L144 722 L144 419 Q154 447 171.5 467 Q189 487 210 499.5 Q231 512 253 517.5 Q275 523 295 523 Z M125 765 L276 921 L308 921 L459 765 L422 765 L292 885 L162 765 L125 765 Z " />
<glyph glyph-name="Hbar" unicode="&#x126;" horiz-adv-x="678" d="M527 0 L527 347 L151 347 L151 0 L115 0 L115 548 L32 548 L32 582 L115 582 L115 700 L151 700 L151 582 L527 582 L527 700 L563 700 L563 582 L646 582 L646 548 L563 548 L563 0 L527 0 Z M527 381 L527 548 L151 548 L151 381 L527 381 Z " />
<glyph glyph-name="hbar" unicode="&#x127;" horiz-adv-x="562" d="M423 0 L423 286 Q423 332 413.5 364.5 Q404 397 387 417 Q370 437 346 446 Q322 455 292 455 Q260 455 233 445 Q206 435 186.5 412.5 Q167 390 155.5 353.5 Q144 317 144 263 L144 0 L108 0 L108 549 L40 549 L40 582 L108 582 L108 704 L144 722 L144 582 L297 582 L297 549 L144 549 L144 385 Q154 413 171.5 433 Q189 453 210 465.5 Q231 478 253 483.5 Q275 489 295 489 Q376 489 417.5 437.5 Q459 386 459 278 L459 0 L423 0 Z " />
<glyph glyph-name="Itilde" unicode="&#x128;" horiz-adv-x="266" d="M115 0 L115 700 L151 700 L151 0 L115 0 Z M213 792 Q188 792 167 804.5 Q146 817 126 832.5 Q106 848 87 860.5 Q68 873 47 873 Q-2 873 -5 796 L-32 796 Q-32 844 -10.5 875 Q11 906 54 906 Q79 906 100 893.5 Q121 881 141 865.5 Q161 850 180 837.5 Q199 825 220 825 Q269 825 272 902 L299 902 Q299 854 277.5 823 Q256 792 213 792 Z " />
<glyph glyph-name="itilde" unicode="&#x129;" horiz-adv-x="258" d="M111 0 L111 511 L147 511 L147 0 L111 0 Z M209 602 Q184 602 163 614.5 Q142 627 122 642.5 Q102 658 83 670.5 Q64 683 43 683 Q-6 683 -9 606 L-36 606 Q-36 654 -14.5 685 Q7 716 50 716 Q75 716 96 703.5 Q117 691 137 675.5 Q157 660 176 647.5 Q195 635 216 635 Q265 635 268 712 L295 712 Q295 664 273.5 633 Q252 602 209 602 Z " />
<glyph glyph-name="Imacron" unicode="&#x12a;" horiz-adv-x="266" d="M115 0 L115 700 L151 700 L151 0 L115 0 Z M-32 813 L-32 846 L298 846 L298 813 L-32 813 Z " />
<glyph glyph-name="imacron" unicode="&#x12b;" horiz-adv-x="258" d="M111 0 L111 511 L147 511 L147 0 L111 0 Z M-36 623 L-36 656 L294 656 L294 623 L-36 623 Z " />
<glyph glyph-name="Ibreve" unicode="&#x12c;" horiz-adv-x="266" d="M115 0 L115 700 L151 700 L151 0 L115 0 Z M133 771 Q89 771 57 783.5 Q25 796 4.5 818 Q-16 840 -26 869.5 Q-36 899 -36 932 L-2 932 Q-2 900 8.5 876 Q19 852 37.5 836 Q56 820 80.5 812 Q105 804 133 804 Q161 804 185.5 812 Q210 820 228.5 836 Q247 852 257.5 876 Q268 900 268 932 L302 932 Q302 899 292 869.5 Q282 840 261.5 818 Q241 796 209 783.5 Q177 771 133 771 Z " />
<glyph glyph-name="ibreve" unicode="&#x12d;" horiz-adv-x="258" d="M111 0 L111 511 L147 511 L147 0 L111 0 Z M129 581 Q85 581 53 593.5 Q21 606 0.5 628 Q-20 650 -30 679.5 Q-40 709 -40 742 L-6 742 Q-6 710 4.5 686 Q15 662 33.5 646 Q52 630 76.5 622 Q101 614 129 614 Q157 614 181.5 622 Q206 630 224.5 646 Q243 662 253.5 686 Q264 710 264 742 L298 742 Q298 709 288 679.5 Q278 650 257.5 628 Q237 606 205 593.5 Q173 581 129 581 Z " />
<glyph glyph-name="Iogonek" unicode="&#x12e;" horiz-adv-x="266" d="M131 -234 Q112 -234 94.5 -228.5 Q77 -223 64 -211 Q51 -199 43 -180.5 Q35 -162 35 -136 Q35 -121 39.5 -102.5 Q44 -84 53.5 -65.5 Q63 -47 78.5 -29 Q94 -11 115 3 L115 700 L151 700 L151 0 Q107 -26 88 -64 Q69 -102 69 -136 Q69 -174 88.5 -189.5 Q108 -205 131 -205 Q157 -205 172 -193.5 Q187 -182 195 -173 L219 -190 Q205 -207 184 -220.5 Q163 -234 131 -234 Z " />
<glyph glyph-name="iogonek" unicode="&#x12f;" horiz-adv-x="258" d="M127 -234 Q108 -234 90.5 -228.5 Q73 -223 60 -211 Q47 -199 39 -180.5 Q31 -162 31 -136 Q31 -121 35.5 -102.5 Q40 -84 49.5 -65.5 Q59 -47 74.5 -29 Q90 -11 111 3 L111 511 L147 511 L147 0 Q103 -26 84 -64 Q65 -102 65 -136 Q65 -174 84.5 -189.5 Q104 -205 127 -205 Q153 -205 168 -193.5 Q183 -182 191 -173 L215 -190 Q201 -207 180 -220.5 Q159 -234 127 -234 Z M129 633 Q117 633 108.5 641.5 Q100 650 100 662 Q100 675 108.5 684 Q117 693 129 693 Q142 693 150 684 Q158 675 158 662 Q158 650 150 641.5 Q142 633 129 633 Z " />
<glyph glyph-name="Idotaccent" unicode="&#x130;" horiz-adv-x="266" d="M115 0 L115 700 L151 700 L151 0 L115 0 Z M133 796 Q121 796 112.5 804.5 Q104 813 104 825 Q104 838 112.5 847 Q121 856 133 856 Q146 856 154 847 Q162 838 162 825 Q162 813 154 804.5 Q146 796 133 796 Z " />
<glyph glyph-name="IJ" unicode="&#x132;" horiz-adv-x="762" d="M115 0 L115 700 L151 700 L151 0 L115 0 Z M445 -12 Q369 -12 327.5 19.5 Q286 51 263 107 L293 123 Q313 78 348 50 Q383 22 445 22 Q473 22 503 30.5 Q533 39 558 61.5 Q583 84 599 123 Q615 162 615 223 L615 700 L651 700 L651 225 Q651 153 631.5 107 Q612 61 582 34.5 Q552 8 515.5 -2 Q479 -12 445 -12 Z " />
<glyph glyph-name="ij" unicode="&#x133;" horiz-adv-x="481" d="M111 0 L111 511 L147 511 L147 0 L111 0 Z M129 633 Q117 633 108.5 641.5 Q100 650 100 662 Q100 675 108.5 684 Q117 693 129 693 Q142 693 150 684 Q158 675 158 662 Q158 650 150 641.5 Q142 633 129 633 Z M346 633 Q334 633 325.5 641.5 Q317 650 317 662 Q317 675 325.5 684 Q334 693 346 693 Q359 693 367 684 Q375 675 375 662 Q375 650 367 641.5 Q359 633 346 633 Z M365 -49 Q365 -96 353.5 -126 Q342 -156 322 -174.5 Q302 -193 276 -201.5 Q250 -210 222 -213 L204 -182 Q268 -177 298.5 -147.5 Q329 -118 329 -51 L329 511 L365 511 L365 -49 Z " />
<glyph glyph-name="Jcircumflex" unicode="&#x134;" horiz-adv-x="542" d="M225 -12 Q149 -12 107.5 19.5 Q66 51 43 107 L73 123 Q93 78 128 50 Q163 22 225 22 Q253 22 283 30.5 Q313 39 338 61.5 Q363 84 379 123 Q395 162 395 223 L395 700 L431 700 L431 225 Q431 153 411.5 107 Q392 61 362 34.5 Q332 8 295.5 -2 Q259 -12 225 -12 Z M232 766 L383 922 L415 922 L566 766 L529 766 L399 886 L269 766 L232 766 Z " />
<glyph glyph-name="jcircumflex" unicode="&#x135;" horiz-adv-x="264" d="M148 -49 Q148 -96 136.5 -126 Q125 -156 105 -174.5 Q85 -193 59 -201.5 Q33 -210 5 -213 L-13 -182 Q51 -177 81.5 -147.5 Q112 -118 112 -51 L112 511 L148 511 L148 -49 Z M-37 576 L114 732 L146 732 L297 576 L260 576 L130 696 L0 576 L-37 576 Z " />
<glyph glyph-name="Kcommaaccent" unicode="&#x136;" horiz-adv-x="629" d="M519 0 L284 431 L151 264 L151 0 L115 0 L115 700 L151 700 L151 317 L455 700 L498 700 L309 462 L561 0 L519 0 Z M311 -242 Q325 -222 334.5 -190.5 Q344 -159 344 -131 Q344 -125 343.5 -122 Q343 -119 343 -118 Q329 -118 320 -110 Q311 -102 311 -89 Q311 -75 319.5 -66.5 Q328 -58 340 -58 Q354 -58 363.5 -68 Q373 -78 373 -104 Q373 -125 368 -146.5 Q363 -168 355.5 -186.5 Q348 -205 338.5 -220.5 Q329 -236 320 -245 L311 -242 Z " />
<glyph glyph-name="kcommaaccent" unicode="&#x137;" horiz-adv-x="513" d="M279 371 L470 0 L429 0 L253 343 L144 227 L144 0 L108 0 L108 704 L144 722 L144 272 L362 511 L407 511 L279 371 Z M247 -242 Q261 -222 270.5 -190.5 Q280 -159 280 -131 Q280 -125 279.5 -122 Q279 -119 279 -118 Q265 -118 256 -110 Q247 -102 247 -89 Q247 -75 255.5 -66.5 Q264 -58 276 -58 Q290 -58 299.5 -68 Q309 -78 309 -104 Q309 -125 304 -146.5 Q299 -168 291.5 -186.5 Q284 -205 274.5 -220.5 Q265 -236 256 -245 L247 -242 Z " />
<glyph glyph-name="kgreenlandic" unicode="&#x138;" horiz-adv-x="526" d="M443 0 L286 294 L144 115 L144 0 L108 0 L108 511 L144 511 L144 169 L411 511 L457 511 L310 324 L483 0 L443 0 Z " />
<glyph glyph-name="Lacute" unicode="&#x139;" horiz-adv-x="541" d="M115 0 L115 700 L151 700 L151 33 L498 33 L498 0 L115 0 Z M105 766 L68 766 L219 922 L274 922 L105 766 Z " />
<glyph glyph-name="lacute" unicode="&#x13a;" horiz-adv-x="252" d="M108 0 L108 704 L144 722 L144 0 L108 0 Z M79 756 L42 756 L193 912 L248 912 L79 756 Z " />
<glyph glyph-name="Lcommaaccent" unicode="&#x13b;" horiz-adv-x="541" d="M115 0 L115 700 L151 700 L151 33 L498 33 L498 0 L115 0 Z M276 -242 Q290 -222 299.5 -190.5 Q309 -159 309 -131 Q309 -125 308.5 -122 Q308 -119 308 -118 Q294 -118 285 -110 Q276 -102 276 -89 Q276 -75 284.5 -66.5 Q293 -58 305 -58 Q319 -58 328.5 -68 Q338 -78 338 -104 Q338 -125 333 -146.5 Q328 -168 320.5 -186.5 Q313 -205 303.5 -220.5 Q294 -236 285 -245 L276 -242 Z " />
<glyph glyph-name="lcommaaccent" unicode="&#x13c;" horiz-adv-x="252" d="M108 0 L108 704 L144 722 L144 0 L108 0 Z M101 -242 Q115 -222 124.5 -190.5 Q134 -159 134 -131 Q134 -125 133.5 -122 Q133 -119 133 -118 Q119 -118 110 -110 Q101 -102 101 -89 Q101 -75 109.5 -66.5 Q118 -58 130 -58 Q144 -58 153.5 -68 Q163 -78 163 -104 Q163 -125 158 -146.5 Q153 -168 145.5 -186.5 Q138 -205 128.5 -220.5 Q119 -236 110 -245 L101 -242 Z " />
<glyph glyph-name="Lcaron" unicode="&#x13d;" horiz-adv-x="541" d="M115 0 L115 700 L151 700 L151 33 L498 33 L498 0 L115 0 Z M149 766 L117 766 L-34 922 L3 922 L133 802 L263 922 L300 922 L149 766 Z " />
<glyph glyph-name="lcaron" unicode="&#x13e;" horiz-adv-x="366" d="M108 0 L108 704 L144 722 L144 0 L108 0 Z M323 712 L323 694 Q323 622 308 569.5 Q293 517 267 484 L257 492 Q271 521 279 577.5 Q287 634 287 712 L323 712 Z " />
<glyph glyph-name="Ldot" unicode="&#x13f;" horiz-adv-x="541" d="M115 0 L115 700 L151 700 L151 33 L498 33 L498 0 L115 0 Z M401 301 Q389 301 380.5 309.5 Q372 318 372 330 Q372 343 380.5 352 Q389 361 401 361 Q414 361 422 352 Q430 343 430 330 Q430 318 422 309.5 Q414 301 401 301 Z " />
<glyph glyph-name="ldot" unicode="&#x140;" horiz-adv-x="344" d="M108 0 L108 704 L144 722 L144 0 L108 0 Z M287 267 Q275 267 266.5 275.5 Q258 284 258 296 Q258 309 266.5 318 Q275 327 287 327 Q300 327 308 318 Q316 309 316 296 Q316 284 308 275.5 Q300 267 287 267 Z " />
<glyph glyph-name="Nacute" unicode="&#x143;" horiz-adv-x="691" d="M541 0 L151 631 L151 0 L115 0 L115 700 L150 700 L540 69 L540 700 L576 700 L576 0 L541 0 Z M319 766 L282 766 L433 922 L488 922 L319 766 Z " />
<glyph glyph-name="nacute" unicode="&#x144;" horiz-adv-x="562" d="M144 419 Q154 447 171.5 467 Q189 487 209.5 499.5 Q230 512 252.5 517.5 Q275 523 295 523 Q376 523 417.5 471.5 Q459 420 459 312 L459 0 L423 0 L423 319 Q423 412 387 450.5 Q351 489 292 489 Q260 489 233 479 Q206 469 186.5 446.5 Q167 424 155.5 387.5 Q144 351 144 297 L144 0 L108 0 L108 511 L144 511 L144 419 Z M236 576 L199 576 L350 732 L405 732 L236 576 Z " />
<glyph glyph-name="Ncommaaccent" unicode="&#x145;" horiz-adv-x="691" d="M541 0 L151 631 L151 0 L115 0 L115 700 L150 700 L540 69 L540 700 L576 700 L576 0 L541 0 Z M319 -242 Q333 -222 342.5 -190.5 Q352 -159 352 -131 Q352 -125 351.5 -122 Q351 -119 351 -118 Q337 -118 328 -110 Q319 -102 319 -89 Q319 -75 327.5 -66.5 Q336 -58 348 -58 Q362 -58 371.5 -68 Q381 -78 381 -104 Q381 -125 376 -146.5 Q371 -168 363.5 -186.5 Q356 -205 346.5 -220.5 Q337 -236 328 -245 L319 -242 Z " />
<glyph glyph-name="ncommaaccent" unicode="&#x146;" horiz-adv-x="562" d="M144 419 Q154 447 171.5 467 Q189 487 209.5 499.5 Q230 512 252.5 517.5 Q275 523 295 523 Q376 523 417.5 471.5 Q459 420 459 312 L459 0 L423 0 L423 319 Q423 412 387 450.5 Q351 489 292 489 Q260 489 233 479 Q206 469 186.5 446.5 Q167 424 155.5 387.5 Q144 351 144 297 L144 0 L108 0 L108 511 L144 511 L144 419 Z M264 -242 Q278 -222 287.5 -190.5 Q297 -159 297 -131 Q297 -125 296.5 -122 Q296 -119 296 -118 Q282 -118 273 -110 Q264 -102 264 -89 Q264 -75 272.5 -66.5 Q281 -58 293 -58 Q307 -58 316.5 -68 Q326 -78 326 -104 Q326 -125 321 -146.5 Q316 -168 308.5 -186.5 Q301 -205 291.5 -220.5 Q282 -236 273 -245 L264 -242 Z " />
<glyph glyph-name="Ncaron" unicode="&#x147;" horiz-adv-x="691" d="M541 0 L151 631 L151 0 L115 0 L115 700 L150 700 L540 69 L540 700 L576 700 L576 0 L541 0 Z M371 766 L339 766 L188 922 L225 922 L355 802 L485 922 L522 922 L371 766 Z " />
<glyph glyph-name="ncaron" unicode="&#x148;" horiz-adv-x="562" d="M144 419 Q154 447 171.5 467 Q189 487 209.5 499.5 Q230 512 252.5 517.5 Q275 523 295 523 Q376 523 417.5 471.5 Q459 420 459 312 L459 0 L423 0 L423 319 Q423 412 387 450.5 Q351 489 292 489 Q260 489 233 479 Q206 469 186.5 446.5 Q167 424 155.5 387.5 Q144 351 144 297 L144 0 L108 0 L108 511 L144 511 L144 419 Z M321 576 L289 576 L138 732 L175 732 L305 612 L435 732 L472 732 L321 576 Z " />
<glyph glyph-name="napostrophe" unicode="&#x149;" horiz-adv-x="738" d="M320 419 Q330 447 347.5 467 Q365 487 385.5 499.5 Q406 512 428.5 517.5 Q451 523 471 523 Q552 523 593.5 471.5 Q635 420 635 312 L635 0 L599 0 L599 319 Q599 412 563 450.5 Q527 489 468 489 Q436 489 409 479 Q382 469 362.5 446.5 Q343 424 331.5 387.5 Q320 351 320 297 L320 0 L284 0 L284 511 L320 511 L320 419 Z M77 528 Q91 548 100.5 579.5 Q110 611 110 639 Q110 645 109.5 648 Q109 651 109 652 Q95 652 86 660 Q77 668 77 681 Q77 695 85.5 703.5 Q94 712 106 712 Q120 712 129.5 702 Q139 692 139 666 Q139 645 134 623.5 Q129 602 121.5 583.5 Q114 565 104.5 549.5 Q95 534 86 525 L77 528 Z " />
<glyph glyph-name="Eng" unicode="&#x14a;" horiz-adv-x="691" d="M415 -213 Q479 -208 509.5 -178.5 Q540 -149 540 -82 L540 1 L151 631 L151 0 L115 0 L115 700 L150 700 L540 69 L540 700 L576 700 L576 -80 Q576 -127 564.5 -157 Q553 -187 533 -205.5 Q513 -224 487 -232.5 Q461 -241 433 -244 L415 -213 Z " />
<glyph glyph-name="eng" unicode="&#x14b;" horiz-adv-x="562" d="M298 -182 Q362 -177 392.5 -147.5 Q423 -118 423 -51 L423 319 Q423 412 387 450.5 Q351 489 292 489 Q260 489 233 479 Q206 469 186.5 446.5 Q167 424 155.5 387.5 Q144 351 144 297 L144 0 L108 0 L108 511 L144 511 L144 419 Q154 447 171.5 467 Q189 487 209.5 499.5 Q230 512 252.5 517.5 Q275 523 295 523 Q376 523 417.5 471.5 Q459 420 459 312 L459 -49 Q459 -96 447.5 -126 Q436 -156 416 -174.5 Q396 -193 370 -201.5 Q344 -210 316 -213 L298 -182 Z " />
<glyph glyph-name="Omacron" unicode="&#x14c;" horiz-adv-x="726" d="M363 24 Q428 24 473 53.5 Q518 83 545.5 130 Q573 177 585 235 Q597 293 597 350 Q597 412 585 471 Q573 530 545.5 575.5 Q518 621 473 648.5 Q428 676 363 676 Q298 676 253 646.5 Q208 617 180.5 570 Q153 523 141 465 Q129 407 129 350 Q129 288 141 229 Q153 170 180.5 124.5 Q208 79 253 51.5 Q298 24 363 24 Z M363 -12 Q288 -12 236 20 Q184 52 151.5 104 Q119 156 104.5 220.5 Q90 285 90 350 Q90 415 104.5 479.5 Q119 544 151.5 596 Q184 648 236 680 Q288 712 363 712 Q438 712 490 680 Q542 648 574.5 596 Q607 544 621.5 479.5 Q636 415 636 350 Q636 285 621.5 220.5 Q607 156 574.5 104 Q542 52 490 20 Q438 -12 363 -12 Z M199 813 L199 846 L529 846 L529 813 L199 813 Z " />
<glyph glyph-name="omacron" unicode="&#x14d;" horiz-adv-x="550" d="M275 24 Q353 24 395.5 85 Q438 146 438 256 Q438 365 396.5 426 Q355 487 275 487 Q195 487 153.5 427.5 Q112 368 112 255 Q112 146 153.5 85 Q195 24 275 24 Z M275 523 Q366 523 421.5 453.5 Q477 384 477 256 Q477 193 462.5 143 Q448 93 421.5 58.5 Q395 24 357.5 6 Q320 -12 275 -12 Q184 -12 128.5 57.5 Q73 127 73 255 Q73 318 87.5 367.5 Q102 417 128.5 451.5 Q155 486 192.5 504.5 Q230 523 275 523 Z M110 623 L110 656 L440 656 L440 623 L110 623 Z " />
<glyph glyph-name="Obreve" unicode="&#x14e;" horiz-adv-x="726" d="M363 24 Q428 24 473 53.5 Q518 83 545.5 130 Q573 177 585 235 Q597 293 597 350 Q597 412 585 471 Q573 530 545.5 575.5 Q518 621 473 648.5 Q428 676 363 676 Q298 676 253 646.5 Q208 617 180.5 570 Q153 523 141 465 Q129 407 129 350 Q129 288 141 229 Q153 170 180.5 124.5 Q208 79 253 51.5 Q298 24 363 24 Z M363 -12 Q288 -12 236 20 Q184 52 151.5 104 Q119 156 104.5 220.5 Q90 285 90 350 Q90 415 104.5 479.5 Q119 544 151.5 596 Q184 648 236 680 Q288 712 363 712 Q438 712 490 680 Q542 648 574.5 596 Q607 544 621.5 479.5 Q636 415 636 350 Q636 285 621.5 220.5 Q607 156 574.5 104 Q542 52 490 20 Q438 -12 363 -12 Z M363 771 Q319 771 287 783.5 Q255 796 234.5 818 Q214 840 204 869.5 Q194 899 194 932 L228 932 Q228 900 238.5 876 Q249 852 267.5 836 Q286 820 310.5 812 Q335 804 363 804 Q391 804 415.5 812 Q440 820 458.5 836 Q477 852 487.5 876 Q498 900 498 932 L532 932 Q532 899 522 869.5 Q512 840 491.5 818 Q471 796 439 783.5 Q407 771 363 771 Z " />
<glyph glyph-name="obreve" unicode="&#x14f;" horiz-adv-x="550" d="M275 24 Q353 24 395.5 85 Q438 146 438 256 Q438 365 396.5 426 Q355 487 275 487 Q195 487 153.5 427.5 Q112 368 112 255 Q112 146 153.5 85 Q195 24 275 24 Z M275 523 Q366 523 421.5 453.5 Q477 384 477 256 Q477 193 462.5 143 Q448 93 421.5 58.5 Q395 24 357.5 6 Q320 -12 275 -12 Q184 -12 128.5 57.5 Q73 127 73 255 Q73 318 87.5 367.5 Q102 417 128.5 451.5 Q155 486 192.5 504.5 Q230 523 275 523 Z M275 581 Q231 581 199 593.5 Q167 606 146.5 628 Q126 650 116 679.5 Q106 709 106 742 L140 742 Q140 710 150.5 686 Q161 662 179.5 646 Q198 630 222.5 622 Q247 614 275 614 Q303 614 327.5 622 Q352 630 370.5 646 Q389 662 399.5 686 Q410 710 410 742 L444 742 Q444 709 434 679.5 Q424 650 403.5 628 Q383 606 351 593.5 Q319 581 275 581 Z " />
<glyph glyph-name="Ohungarumlaut" unicode="&#x150;" horiz-adv-x="726" d="M363 24 Q428 24 473 53.5 Q518 83 545.5 130 Q573 177 585 235 Q597 293 597 350 Q597 412 585 471 Q573 530 545.5 575.5 Q518 621 473 648.5 Q428 676 363 676 Q298 676 253 646.5 Q208 617 180.5 570 Q153 523 141 465 Q129 407 129 350 Q129 288 141 229 Q153 170 180.5 124.5 Q208 79 253 51.5 Q298 24 363 24 Z M363 -12 Q288 -12 236 20 Q184 52 151.5 104 Q119 156 104.5 220.5 Q90 285 90 350 Q90 415 104.5 479.5 Q119 544 151.5 596 Q184 648 236 680 Q288 712 363 712 Q438 712 490 680 Q542 648 574.5 596 Q607 544 621.5 479.5 Q636 415 636 350 Q636 285 621.5 220.5 Q607 156 574.5 104 Q542 52 490 20 Q438 -12 363 -12 Z M246 766 L209 766 L360 922 L415 922 L246 766 Z M444 766 L407 766 L558 922 L613 922 L444 766 Z " />
<glyph glyph-name="ohungarumlaut" unicode="&#x151;" horiz-adv-x="550" d="M275 24 Q353 24 395.5 85 Q438 146 438 256 Q438 365 396.5 426 Q355 487 275 487 Q195 487 153.5 427.5 Q112 368 112 255 Q112 146 153.5 85 Q195 24 275 24 Z M275 523 Q366 523 421.5 453.5 Q477 384 477 256 Q477 193 462.5 143 Q448 93 421.5 58.5 Q395 24 357.5 6 Q320 -12 275 -12 Q184 -12 128.5 57.5 Q73 127 73 255 Q73 318 87.5 367.5 Q102 417 128.5 451.5 Q155 486 192.5 504.5 Q230 523 275 523 Z M157 576 L120 576 L271 732 L326 732 L157 576 Z M355 576 L318 576 L469 732 L524 732 L355 576 Z " />
<glyph glyph-name="Racute" unicode="&#x154;" horiz-adv-x="654" d="M556 517 Q556 482 545.5 449.5 Q535 417 512.5 391.5 Q490 366 455.5 349.5 Q421 333 373 329 L534 0 L494 0 L335 329 L151 329 L151 0 L115 0 L115 700 L355 700 Q412 700 450.5 684 Q489 668 512.5 642 Q536 616 546 583.5 Q556 551 556 517 Z M355 362 Q401 362 432.5 376 Q464 390 483 412 Q502 434 510 461.5 Q518 489 518 517 Q518 541 510.5 567.5 Q503 594 484.5 616 Q466 638 434.5 652.5 Q403 667 355 667 L151 667 L151 362 L355 362 Z M269 766 L232 766 L383 922 L438 922 L269 766 Z " />
<glyph glyph-name="racute" unicode="&#x155;" horiz-adv-x="390" d="M108 0 L108 511 L144 511 L144 402 Q168 465 208.5 494 Q249 523 294 523 Q319 523 336 516.5 Q353 510 362 502 L356 466 Q346 472 329 477.5 Q312 483 289 483 Q266 483 240.5 472.5 Q215 462 193.5 438.5 Q172 415 158 376.5 Q144 338 144 283 L144 0 L108 0 Z M184 576 L147 576 L298 732 L353 732 L184 576 Z " />
<glyph glyph-name="Rcommaaccent" unicode="&#x156;" horiz-adv-x="654" d="M556 517 Q556 482 545.5 449.5 Q535 417 512.5 391.5 Q490 366 455.5 349.5 Q421 333 373 329 L534 0 L494 0 L335 329 L151 329 L151 0 L115 0 L115 700 L355 700 Q412 700 450.5 684 Q489 668 512.5 642 Q536 616 546 583.5 Q556 551 556 517 Z M355 362 Q401 362 432.5 376 Q464 390 483 412 Q502 434 510 461.5 Q518 489 518 517 Q518 541 510.5 567.5 Q503 594 484.5 616 Q466 638 434.5 652.5 Q403 667 355 667 L151 667 L151 362 L355 362 Z M277 -242 Q291 -222 300.5 -190.5 Q310 -159 310 -131 Q310 -125 309.5 -122 Q309 -119 309 -118 Q295 -118 286 -110 Q277 -102 277 -89 Q277 -75 285.5 -66.5 Q294 -58 306 -58 Q320 -58 329.5 -68 Q339 -78 339 -104 Q339 -125 334 -146.5 Q329 -168 321.5 -186.5 Q314 -205 304.5 -220.5 Q295 -236 286 -245 L277 -242 Z " />
<glyph glyph-name="rcommaaccent" unicode="&#x157;" horiz-adv-x="390" d="M108 0 L108 511 L144 511 L144 402 Q168 465 208.5 494 Q249 523 294 523 Q319 523 336 516.5 Q353 510 362 502 L356 466 Q346 472 329 477.5 Q312 483 289 483 Q266 483 240.5 472.5 Q215 462 193.5 438.5 Q172 415 158 376.5 Q144 338 144 283 L144 0 L108 0 Z M96 -262 Q110 -242 119.5 -210.5 Q129 -179 129 -151 Q129 -145 128.5 -142 Q128 -139 128 -138 Q114 -138 105 -130 Q96 -122 96 -109 Q96 -95 104.5 -86.5 Q113 -78 125 -78 Q139 -78 148.5 -88 Q158 -98 158 -124 Q158 -145 153 -166.5 Q148 -188 140.5 -206.5 Q133 -225 123.5 -240.5 Q114 -256 105 -265 L96 -262 Z " />
<glyph glyph-name="Rcaron" unicode="&#x158;" horiz-adv-x="654" d="M556 517 Q556 482 545.5 449.5 Q535 417 512.5 391.5 Q490 366 455.5 349.5 Q421 333 373 329 L534 0 L494 0 L335 329 L151 329 L151 0 L115 0 L115 700 L355 700 Q412 700 450.5 684 Q489 668 512.5 642 Q536 616 546 583.5 Q556 551 556 517 Z M355 362 Q401 362 432.5 376 Q464 390 483 412 Q502 434 510 461.5 Q518 489 518 517 Q518 541 510.5 567.5 Q503 594 484.5 616 Q466 638 434.5 652.5 Q403 667 355 667 L151 667 L151 362 L355 362 Z M319 766 L287 766 L136 922 L173 922 L303 802 L433 922 L470 922 L319 766 Z " />
<glyph glyph-name="rcaron" unicode="&#x159;" horiz-adv-x="390" d="M108 0 L108 511 L144 511 L144 402 Q168 465 208.5 494 Q249 523 294 523 Q319 523 336 516.5 Q353 510 362 502 L356 466 Q346 472 329 477.5 Q312 483 289 483 Q266 483 240.5 472.5 Q215 462 193.5 438.5 Q172 415 158 376.5 Q144 338 144 283 L144 0 L108 0 Z M248 576 L216 576 L65 732 L102 732 L232 612 L362 732 L399 732 L248 576 Z " />
<glyph glyph-name="Sacute" unicode="&#x15a;" horiz-adv-x="600" d="M439 586 Q421 630 384 653.5 Q347 677 290 677 Q220 677 181 645 Q142 613 142 557 Q142 523 157 498.5 Q172 474 196 455 Q220 436 251 421.5 Q282 407 314 394 Q347 380 381 362 Q415 344 442.5 318 Q470 292 487.5 256.5 Q505 221 505 173 Q505 129 490 94.5 Q475 60 448 36.5 Q421 13 383.5 0.5 Q346 -12 301 -12 Q261 -12 226 0 Q191 12 163 32 Q135 52 114 78.5 Q93 105 81 135 L119 147 Q144 91 191.5 57 Q239 23 302 23 Q377 23 422 61 Q467 99 467 174 Q467 210 453 238.5 Q439 267 415.5 289.5 Q392 312 361.5 329 Q331 346 298 359 Q263 373 228.5 389.5 Q194 406 166 429.5 Q138 453 121 484 Q104 515 104 559 Q104 592 116.5 620 Q129 648 153 668.5 Q177 689 212 700.5 Q247 712 293 712 Q326 712 355 704 Q384 696 408 681 Q432 666 449 644.5 Q466 623 475 597 L439 586 Z M258 766 L221 766 L372 922 L427 922 L258 766 Z " />
<glyph glyph-name="sacute" unicode="&#x15b;" horiz-adv-x="467" d="M348 437 Q327 457 297.5 473 Q268 489 227 489 Q173 489 144 464 Q115 439 115 397 Q115 372 125 355 Q135 338 152.5 325 Q170 312 192.5 302 Q215 292 240 282 Q273 269 301 255.5 Q329 242 349.5 224 Q370 206 382 181 Q394 156 394 120 Q394 61 355 24.5 Q316 -12 241 -12 Q188 -12 148 10.5 Q108 33 80 65 L108 89 Q131 63 164.5 42.5 Q198 22 240 22 Q294 22 325.5 46 Q357 70 357 120 Q357 147 345 167 Q333 187 313.5 203 Q294 219 269 231 Q244 243 217 253 Q154 276 116 308 Q78 340 78 397 Q78 451 117.5 487 Q157 523 228 523 Q271 523 309.5 506 Q348 489 375 460 L348 437 Z M203 576 L166 576 L317 732 L372 732 L203 576 Z " />
<glyph glyph-name="Scircumflex" unicode="&#x15c;" horiz-adv-x="600" d="M439 586 Q421 630 384 653.5 Q347 677 290 677 Q220 677 181 645 Q142 613 142 557 Q142 523 157 498.5 Q172 474 196 455 Q220 436 251 421.5 Q282 407 314 394 Q347 380 381 362 Q415 344 442.5 318 Q470 292 487.5 256.5 Q505 221 505 173 Q505 129 490 94.5 Q475 60 448 36.5 Q421 13 383.5 0.5 Q346 -12 301 -12 Q261 -12 226 0 Q191 12 163 32 Q135 52 114 78.5 Q93 105 81 135 L119 147 Q144 91 191.5 57 Q239 23 302 23 Q377 23 422 61 Q467 99 467 174 Q467 210 453 238.5 Q439 267 415.5 289.5 Q392 312 361.5 329 Q331 346 298 359 Q263 373 228.5 389.5 Q194 406 166 429.5 Q138 453 121 484 Q104 515 104 559 Q104 592 116.5 620 Q129 648 153 668.5 Q177 689 212 700.5 Q247 712 293 712 Q326 712 355 704 Q384 696 408 681 Q432 666 449 644.5 Q466 623 475 597 L439 586 Z M127 766 L278 922 L310 922 L461 766 L424 766 L294 886 L164 766 L127 766 Z " />
<glyph glyph-name="scircumflex" unicode="&#x15d;" horiz-adv-x="467" d="M348 437 Q327 457 297.5 473 Q268 489 227 489 Q173 489 144 464 Q115 439 115 397 Q115 372 125 355 Q135 338 152.5 325 Q170 312 192.5 302 Q215 292 240 282 Q273 269 301 255.5 Q329 242 349.5 224 Q370 206 382 181 Q394 156 394 120 Q394 61 355 24.5 Q316 -12 241 -12 Q188 -12 148 10.5 Q108 33 80 65 L108 89 Q131 63 164.5 42.5 Q198 22 240 22 Q294 22 325.5 46 Q357 70 357 120 Q357 147 345 167 Q333 187 313.5 203 Q294 219 269 231 Q244 243 217 253 Q154 276 116 308 Q78 340 78 397 Q78 451 117.5 487 Q157 523 228 523 Q271 523 309.5 506 Q348 489 375 460 L348 437 Z M66 576 L217 732 L249 732 L400 576 L363 576 L233 696 L103 576 L66 576 Z " />
<glyph glyph-name="Scedilla" unicode="&#x15e;" horiz-adv-x="600" d="M288 -234 Q265 -234 247 -226.5 Q229 -219 217 -206 L242 -188 Q250 -194 260.5 -199.5 Q271 -205 287 -205 Q318 -205 334.5 -187.5 Q351 -170 351 -144 Q351 -118 333 -101 Q315 -84 286 -84 Q264 -84 248 -92 L238 -80 L287 -11 Q249 -9 216.5 3.5 Q184 16 158 35.5 Q132 55 112.5 80.5 Q93 106 81 135 L119 148 Q144 92 191.5 58 Q239 24 302 24 Q377 24 421.5 61.5 Q466 99 466 174 Q466 210 452 238.5 Q438 267 415 289.5 Q392 312 361.5 329 Q331 346 298 359 Q263 373 228.5 389.5 Q194 406 166 429.5 Q138 453 121 484 Q104 515 104 559 Q104 592 116.5 620 Q129 648 153 668.5 Q177 689 212 700.5 Q247 712 293 712 Q326 712 355 704 Q384 696 408 681 Q432 666 449 644.5 Q466 623 475 597 L439 585 Q421 629 384 652.5 Q347 676 290 676 Q220 676 181.5 644.5 Q143 613 143 557 Q143 523 157.5 498.5 Q172 474 196 455 Q220 436 251 421.5 Q282 407 314 394 Q347 380 381 362 Q415 344 442.5 318 Q470 292 487.5 256.5 Q505 221 505 173 Q505 130 491 96.5 Q477 63 451.5 40 Q426 17 391 4 Q356 -9 314 -11 L287 -59 Q312 -59 330.5 -66.5 Q349 -74 361 -86 Q373 -98 379 -113 Q385 -128 385 -143 Q385 -181 359.5 -207.5 Q334 -234 288 -234 Z " />
<glyph glyph-name="scedilla" unicode="&#x15f;" horiz-adv-x="467" d="M348 437 Q327 457 297.5 473 Q268 489 227 489 Q173 489 144 464 Q115 439 115 397 Q115 372 125 355 Q135 338 152.5 325 Q170 312 192.5 302 Q215 292 240 282 Q273 269 301 255.5 Q329 242 349.5 224 Q370 206 382 181 Q394 156 394 120 Q394 62 356 26 Q318 -10 246 -12 L219 -59 Q244 -59 262.5 -66.5 Q281 -74 293 -86 Q305 -98 311 -113 Q317 -128 317 -143 Q317 -181 291.5 -207.5 Q266 -234 220 -234 Q197 -234 179 -226.5 Q161 -219 149 -206 L174 -188 Q182 -194 192.5 -199.5 Q203 -205 219 -205 Q250 -205 266.5 -187.5 Q283 -170 283 -144 Q283 -118 265 -101 Q247 -84 218 -84 Q196 -84 180 -92 L170 -80 L220 -11 Q175 -6 140 15 Q105 36 80 65 L108 89 Q131 63 164.5 42.5 Q198 22 240 22 Q294 22 325.5 46 Q357 70 357 120 Q357 147 345 167 Q333 187 313.5 203 Q294 219 269 231 Q244 243 217 253 Q154 276 116 308 Q78 340 78 397 Q78 451 117.5 487 Q157 523 228 523 Q271 523 309.5 506 Q348 489 375 460 L348 437 Z " />
<glyph glyph-name="uni0162" unicode="&#x162;" horiz-adv-x="567" d="M262 -234 Q239 -234 221 -226.5 Q203 -219 191 -206 L216 -188 Q224 -194 234.5 -199.5 Q245 -205 261 -205 Q292 -205 308.5 -187.5 Q325 -170 325 -144 Q325 -118 307 -101 Q289 -84 260 -84 Q238 -84 222 -92 L212 -80 L270 0 L265 0 L265 667 L73 667 L73 700 L494 700 L494 667 L301 667 L301 0 L295 0 L261 -59 Q286 -59 304.5 -66.5 Q323 -74 335 -86 Q347 -98 353 -113 Q359 -128 359 -143 Q359 -181 333.5 -207.5 Q308 -234 262 -234 Z " />
<glyph glyph-name="uni0163" unicode="&#x163;" horiz-adv-x="371" d="M195 -234 Q172 -234 154 -226.5 Q136 -219 124 -206 L149 -188 Q157 -194 167.5 -199.5 Q178 -205 194 -205 Q225 -205 241.5 -187.5 Q258 -170 258 -144 Q258 -118 240 -101 Q222 -84 193 -84 Q171 -84 155 -92 L145 -80 L197 -8 Q162 2 148.5 32 Q135 62 135 104 L135 478 L48 478 L48 511 L135 511 L135 704 L171 722 L171 511 L301 511 L301 478 L171 478 L171 109 Q171 69 183 46 Q195 23 233 23 Q256 23 275.5 31 Q295 39 308 47 L304 9 Q288 -1 267.5 -6.5 Q247 -12 229 -12 L221 -12 L194 -59 Q219 -59 237.5 -66.5 Q256 -74 268 -86 Q280 -98 286 -113 Q292 -128 292 -143 Q292 -181 266.5 -207.5 Q241 -234 195 -234 Z " />
<glyph glyph-name="Tcaron" unicode="&#x164;" horiz-adv-x="567" d="M301 667 L301 0 L265 0 L265 667 L73 667 L73 700 L494 700 L494 667 L301 667 Z M299 766 L267 766 L116 922 L153 922 L283 802 L413 922 L450 922 L299 766 Z " />
<glyph glyph-name="tcaron" unicode="&#x165;" horiz-adv-x="371" d="M229 -12 Q176 -12 155.5 21 Q135 54 135 104 L135 478 L48 478 L48 511 L135 511 L135 704 L171 722 L171 511 L301 511 L301 478 L171 478 L171 109 Q171 69 183 46 Q195 23 233 23 Q256 23 275.5 31 Q295 39 308 47 L304 9 Q288 -1 267.5 -6.5 Q247 -12 229 -12 Z M323 840 L323 822 Q323 750 308 697.5 Q293 645 267 612 L257 620 Q271 649 279 705.5 Q287 762 287 840 L323 840 Z " />
<glyph glyph-name="Tbar" unicode="&#x166;" horiz-adv-x="567" d="M301 667 L301 333 L446 333 L446 300 L301 300 L301 0 L265 0 L265 300 L119 300 L119 333 L265 333 L265 667 L73 667 L73 700 L494 700 L494 667 L301 667 Z " />
<glyph glyph-name="tbar" unicode="&#x167;" horiz-adv-x="371" d="M171 253 L171 109 Q171 69 183 46 Q195 23 233 23 Q256 23 275.5 31 Q295 39 308 47 L304 9 Q288 -1 267.5 -6.5 Q247 -12 229 -12 Q176 -12 155.5 21 Q135 54 135 104 L135 253 L48 253 L48 286 L135 286 L135 478 L48 478 L48 511 L135 511 L135 704 L171 722 L171 511 L301 511 L301 478 L171 478 L171 286 L301 286 L301 253 L171 253 Z " />
<glyph glyph-name="Utilde" unicode="&#x168;" horiz-adv-x="668" d="M334 -12 Q282 -12 240.5 2.5 Q199 17 170.5 48.5 Q142 80 126.5 129.5 Q111 179 111 249 L111 700 L147 700 L147 251 Q147 182 162.5 137.5 Q178 93 203.5 67.5 Q229 42 263 32 Q297 22 334 22 Q371 22 405 32 Q439 42 464.5 67.5 Q490 93 505.5 137.5 Q521 182 521 251 L521 700 L557 700 L557 249 Q557 179 541.5 129.5 Q526 80 497.5 48.5 Q469 17 427.5 2.5 Q386 -12 334 -12 Z M414 792 Q389 792 368 804.5 Q347 817 327 832.5 Q307 848 288 860.5 Q269 873 248 873 Q199 873 196 796 L169 796 Q169 844 190.5 875 Q212 906 255 906 Q280 906 301 893.5 Q322 881 342 865.5 Q362 850 381 837.5 Q400 825 421 825 Q470 825 473 902 L500 902 Q500 854 478.5 823 Q457 792 414 792 Z " />
<glyph glyph-name="utilde" unicode="&#x169;" horiz-adv-x="562" d="M418 0 L418 86 Q405 58 387.5 39 Q370 20 350.5 9 Q331 -2 309.5 -7 Q288 -12 268 -12 Q187 -12 145 39.5 Q103 91 103 199 L103 511 L139 511 L139 191 Q139 98 175 59.5 Q211 21 270 21 Q301 21 328.5 31 Q356 41 375.5 64 Q395 87 406.5 123.5 Q418 160 418 214 L418 511 L454 511 L454 0 L418 0 Z M358 602 Q333 602 312 614.5 Q291 627 271 642.5 Q251 658 232 670.5 Q213 683 192 683 Q143 683 140 606 L113 606 Q113 654 134.5 685 Q156 716 199 716 Q224 716 245 703.5 Q266 691 286 675.5 Q306 660 325 647.5 Q344 635 365 635 Q414 635 417 712 L444 712 Q444 664 422.5 633 Q401 602 358 602 Z " />
<glyph glyph-name="Umacron" unicode="&#x16a;" horiz-adv-x="668" d="M334 -12 Q282 -12 240.5 2.5 Q199 17 170.5 48.5 Q142 80 126.5 129.5 Q111 179 111 249 L111 700 L147 700 L147 251 Q147 182 162.5 137.5 Q178 93 203.5 67.5 Q229 42 263 32 Q297 22 334 22 Q371 22 405 32 Q439 42 464.5 67.5 Q490 93 505.5 137.5 Q521 182 521 251 L521 700 L557 700 L557 249 Q557 179 541.5 129.5 Q526 80 497.5 48.5 Q469 17 427.5 2.5 Q386 -12 334 -12 Z M169 813 L169 846 L499 846 L499 813 L169 813 Z " />
<glyph glyph-name="umacron" unicode="&#x16b;" horiz-adv-x="562" d="M418 0 L418 86 Q405 58 387.5 39 Q370 20 350.5 9 Q331 -2 309.5 -7 Q288 -12 268 -12 Q187 -12 145 39.5 Q103 91 103 199 L103 511 L139 511 L139 191 Q139 98 175 59.5 Q211 21 270 21 Q301 21 328.5 31 Q356 41 375.5 64 Q395 87 406.5 123.5 Q418 160 418 214 L418 511 L454 511 L454 0 L418 0 Z M113 623 L113 656 L443 656 L443 623 L113 623 Z " />
<glyph glyph-name="Ubreve" unicode="&#x16c;" horiz-adv-x="668" d="M334 -12 Q282 -12 240.5 2.5 Q199 17 170.5 48.5 Q142 80 126.5 129.5 Q111 179 111 249 L111 700 L147 700 L147 251 Q147 182 162.5 137.5 Q178 93 203.5 67.5 Q229 42 263 32 Q297 22 334 22 Q371 22 405 32 Q439 42 464.5 67.5 Q490 93 505.5 137.5 Q521 182 521 251 L521 700 L557 700 L557 249 Q557 179 541.5 129.5 Q526 80 497.5 48.5 Q469 17 427.5 2.5 Q386 -12 334 -12 Z M334 771 Q290 771 258 783.5 Q226 796 205.5 818 Q185 840 175 869.5 Q165 899 165 932 L199 932 Q199 900 209.5 876 Q220 852 238.5 836 Q257 820 281.5 812 Q306 804 334 804 Q362 804 386.5 812 Q411 820 429.5 836 Q448 852 458.5 876 Q469 900 469 932 L503 932 Q503 899 493 869.5 Q483 840 462.5 818 Q442 796 410 783.5 Q378 771 334 771 Z " />
<glyph glyph-name="ubreve" unicode="&#x16d;" horiz-adv-x="562" d="M418 0 L418 86 Q405 58 387.5 39 Q370 20 350.5 9 Q331 -2 309.5 -7 Q288 -12 268 -12 Q187 -12 145 39.5 Q103 91 103 199 L103 511 L139 511 L139 191 Q139 98 175 59.5 Q211 21 270 21 Q301 21 328.5 31 Q356 41 375.5 64 Q395 87 406.5 123.5 Q418 160 418 214 L418 511 L454 511 L454 0 L418 0 Z M278 581 Q234 581 202 593.5 Q170 606 149.5 628 Q129 650 119 679.5 Q109 709 109 742 L143 742 Q143 710 153.5 686 Q164 662 182.5 646 Q201 630 225.5 622 Q250 614 278 614 Q306 614 330.5 622 Q355 630 373.5 646 Q392 662 402.5 686 Q413 710 413 742 L447 742 Q447 709 437 679.5 Q427 650 406.5 628 Q386 606 354 593.5 Q322 581 278 581 Z " />
<glyph glyph-name="Uring" unicode="&#x16e;" horiz-adv-x="668" d="M334 -12 Q282 -12 240.5 2.5 Q199 17 170.5 48.5 Q142 80 126.5 129.5 Q111 179 111 249 L111 700 L147 700 L147 251 Q147 182 162.5 137.5 Q178 93 203.5 67.5 Q229 42 263 32 Q297 22 334 22 Q371 22 405 32 Q439 42 464.5 67.5 Q490 93 505.5 137.5 Q521 182 521 251 L521 700 L557 700 L557 249 Q557 179 541.5 129.5 Q526 80 497.5 48.5 Q469 17 427.5 2.5 Q386 -12 334 -12 Z M334 730 Q310 730 289.5 739 Q269 748 253 763 Q237 778 228 798.5 Q219 819 219 842 Q219 865 228 885.5 Q237 906 253 921.5 Q269 937 289.5 946 Q310 955 334 955 Q358 955 378.5 946 Q399 937 415 921.5 Q431 906 440 885.5 Q449 865 449 842 Q449 819 440 798.5 Q431 778 415 763 Q399 748 378.5 739 Q358 730 334 730 Z M333 761 Q367 761 391 784 Q415 807 415 842 Q415 877 391 900.5 Q367 924 333 924 Q301 924 277 900.5 Q253 877 253 842 Q253 825 259.5 810 Q266 795 277 784 Q288 773 302.5 767 Q317 761 333 761 Z " />
<glyph glyph-name="uring" unicode="&#x16f;" horiz-adv-x="562" d="M418 0 L418 86 Q405 58 387.5 39 Q370 20 350.5 9 Q331 -2 309.5 -7 Q288 -12 268 -12 Q187 -12 145 39.5 Q103 91 103 199 L103 511 L139 511 L139 191 Q139 98 175 59.5 Q211 21 270 21 Q301 21 328.5 31 Q356 41 375.5 64 Q395 87 406.5 123.5 Q418 160 418 214 L418 511 L454 511 L454 0 L418 0 Z M278 540 Q254 540 233.5 549 Q213 558 197 573 Q181 588 172 608.5 Q163 629 163 652 Q163 675 172 695.5 Q181 716 197 731.5 Q213 747 233.5 756 Q254 765 278 765 Q302 765 322.5 756 Q343 747 359 731.5 Q375 716 384 695.5 Q393 675 393 652 Q393 629 384 608.5 Q375 588 359 573 Q343 558 322.5 549 Q302 540 278 540 Z M277 571 Q311 571 335 594 Q359 617 359 652 Q359 687 335 710.5 Q311 734 277 734 Q245 734 221 710.5 Q197 687 197 652 Q197 635 203.5 620 Q210 605 221 594 Q232 583 246.5 577 Q261 571 277 571 Z " />
<glyph glyph-name="Uhungarumlaut" unicode="&#x170;" horiz-adv-x="668" d="M334 -12 Q282 -12 240.5 2.5 Q199 17 170.5 48.5 Q142 80 126.5 129.5 Q111 179 111 249 L111 700 L147 700 L147 251 Q147 182 162.5 137.5 Q178 93 203.5 67.5 Q229 42 263 32 Q297 22 334 22 Q371 22 405 32 Q439 42 464.5 67.5 Q490 93 505.5 137.5 Q521 182 521 251 L521 700 L557 700 L557 249 Q557 179 541.5 129.5 Q526 80 497.5 48.5 Q469 17 427.5 2.5 Q386 -12 334 -12 Z M211 766 L174 766 L325 922 L380 922 L211 766 Z M409 766 L372 766 L523 922 L578 922 L409 766 Z " />
<glyph glyph-name="uhungarumlaut" unicode="&#x171;" horiz-adv-x="562" d="M418 0 L418 86 Q405 58 387.5 39 Q370 20 350.5 9 Q331 -2 309.5 -7 Q288 -12 268 -12 Q187 -12 145 39.5 Q103 91 103 199 L103 511 L139 511 L139 191 Q139 98 175 59.5 Q211 21 270 21 Q301 21 328.5 31 Q356 41 375.5 64 Q395 87 406.5 123.5 Q418 160 418 214 L418 511 L454 511 L454 0 L418 0 Z M162 576 L125 576 L276 732 L331 732 L162 576 Z M360 576 L323 576 L474 732 L529 732 L360 576 Z " />
<glyph glyph-name="Uogonek" unicode="&#x172;" horiz-adv-x="668" d="M358 -234 Q339 -234 321.5 -228.5 Q304 -223 291 -211 Q278 -199 270 -180.5 Q262 -162 262 -136 Q262 -99 285 -67 Q308 -35 349 -12 L334 -12 Q282 -12 240.5 2.5 Q199 17 170.5 48.5 Q142 80 126.5 129.5 Q111 179 111 249 L111 700 L147 700 L147 251 Q147 182 162.5 137.5 Q178 93 203.5 67.5 Q229 42 263 32 Q297 22 334 22 Q371 22 405 32 Q439 42 464.5 67.5 Q490 93 505.5 137.5 Q521 182 521 251 L521 700 L557 700 L557 249 Q557 190 546.5 146.5 Q536 103 516.5 72.5 Q497 42 468 22.5 Q439 3 403 -9 Q349 -26 322.5 -61 Q296 -96 296 -136 Q296 -174 315.5 -189.5 Q335 -205 358 -205 Q384 -205 399 -193.5 Q414 -182 422 -173 L446 -190 Q432 -207 411 -220.5 Q390 -234 358 -234 Z " />
<glyph glyph-name="uogonek" unicode="&#x173;" horiz-adv-x="562" d="M403 -234 Q384 -234 366.5 -228.5 Q349 -223 336 -211 Q323 -199 315 -180.5 Q307 -162 307 -136 Q307 -113 316 -92 Q325 -71 340.5 -54 Q356 -37 376 -23 Q396 -9 418 0 L418 86 Q405 58 387.5 39 Q370 20 350.5 9 Q331 -2 309.5 -7 Q288 -12 268 -12 Q187 -12 145 39.5 Q103 91 103 199 L103 511 L139 511 L139 191 Q139 98 175 59.5 Q211 21 270 21 Q301 21 328.5 31 Q356 41 375.5 64 Q395 87 406.5 123.5 Q418 160 418 214 L418 511 L454 511 L454 0 Q341 -50 341 -136 Q341 -174 360.5 -189.5 Q380 -205 403 -205 Q429 -205 444 -193.5 Q459 -182 467 -173 L491 -190 Q477 -207 456 -220.5 Q435 -234 403 -234 Z " />
<glyph glyph-name="Wcircumflex" unicode="&#x174;" horiz-adv-x="842" d="M774 700 L604 0 L574 0 L421 612 L268 0 L238 0 L68 700 L107 700 L254 90 L406 700 L436 700 L588 90 L735 700 L774 700 Z M261 766 L412 922 L444 922 L595 766 L558 766 L428 886 L298 766 L261 766 Z " />
<glyph glyph-name="wcircumflex" unicode="&#x175;" horiz-adv-x="708" d="M520 0 L494 0 L354 443 L214 0 L188 0 L58 511 L94 511 L204 68 L341 511 L367 511 L504 68 L614 511 L650 511 L520 0 Z M186 576 L337 732 L369 732 L520 576 L483 576 L353 696 L223 576 L186 576 Z " />
<glyph glyph-name="Ycircumflex" unicode="&#x176;" horiz-adv-x="610" d="M287 0 L287 277 L59 700 L98 700 L305 314 L512 700 L551 700 L323 277 L323 0 L287 0 Z M139 766 L290 922 L322 922 L473 766 L436 766 L306 886 L176 766 L139 766 Z " />
<glyph glyph-name="ycircumflex" unicode="&#x177;" horiz-adv-x="515" d="M237 12 L53 511 L89 511 L255 59 L421 511 L457 511 L197 -194 L161 -194 L237 12 Z M85 576 L236 732 L268 732 L419 576 L382 576 L252 696 L122 576 L85 576 Z " />
<glyph glyph-name="Zacute" unicode="&#x179;" horiz-adv-x="605" d="M72 0 L72 19 L485 667 L95 667 L95 700 L533 700 L533 679 L124 33 L533 33 L533 0 L72 0 Z M271 766 L234 766 L385 922 L440 922 L271 766 Z " />
<glyph glyph-name="zacute" unicode="&#x17a;" horiz-adv-x="505" d="M73 0 L73 22 L379 478 L93 478 L93 511 L427 511 L427 490 L120 33 L426 33 L426 0 L73 0 Z M211 576 L174 576 L325 732 L380 732 L211 576 Z " />
<glyph glyph-name="Zdotaccent" unicode="&#x17b;" horiz-adv-x="605" d="M72 0 L72 19 L485 667 L95 667 L95 700 L533 700 L533 679 L124 33 L533 33 L533 0 L72 0 Z M307 796 Q295 796 286.5 804.5 Q278 813 278 825 Q278 838 286.5 847 Q295 856 307 856 Q320 856 328 847 Q336 838 336 825 Q336 813 328 804.5 Q320 796 307 796 Z " />
<glyph glyph-name="zdotaccent" unicode="&#x17c;" horiz-adv-x="505" d="M73 0 L73 22 L379 478 L93 478 L93 511 L427 511 L427 490 L120 33 L426 33 L426 0 L73 0 Z M257 606 Q245 606 236.5 614.5 Q228 623 228 635 Q228 648 236.5 657 Q245 666 257 666 Q270 666 278 657 Q286 648 286 635 Q286 623 278 614.5 Q270 606 257 606 Z " />
<glyph glyph-name="longs" unicode="&#x17f;" horiz-adv-x="310" d="M108 0 L108 603 Q108 712 206 712 Q222 712 238 707.5 Q254 703 267 696 L267 664 Q253 670 239.5 674.5 Q226 679 206 679 Q171 679 157.5 660 Q144 641 144 599 L144 0 L108 0 Z " />
<glyph glyph-name="uni01CD" unicode="&#x1cd;" horiz-adv-x="668" d="M552 0 L482 197 L185 197 L118 0 L81 0 L321 700 L345 700 L587 0 L552 0 Z M473 227 L369 529 Q367 535 362.5 549 Q358 563 352.5 579.5 Q347 596 342 612.5 Q337 629 334 640 Q331 629 326 612 Q321 595 315 578 Q309 561 304 547.5 Q299 534 298 529 L194 227 L473 227 Z M347 766 L315 766 L164 922 L201 922 L331 802 L461 922 L498 922 L347 766 Z " />
<glyph glyph-name="uni01CE" unicode="&#x1ce;" horiz-adv-x="527" d="M403 0 L403 80 Q373 38 330.5 13 Q288 -12 241 -12 Q166 -12 122 30.5 Q78 73 78 154 Q78 196 92 226.5 Q106 257 129.5 277 Q153 297 185 306.5 Q217 316 253 316 Q294 316 331 303 Q368 290 403 267 L403 343 Q403 388 392.5 417 Q382 446 365 462 Q348 478 325 484 Q302 490 278 490 Q236 490 195 474.5 Q154 459 124 441 L113 472 Q142 489 185 506 Q228 523 281 523 Q308 523 336 516 Q364 509 387 491 Q410 473 424.5 441 Q439 409 439 358 L439 0 L403 0 Z M241 21 Q269 21 293 30 Q317 39 337 53.5 Q357 68 373.5 86 Q390 104 403 122 L403 233 Q374 253 335.5 268 Q297 283 253 283 Q227 283 202.5 275 Q178 267 159 251.5 Q140 236 128.5 211.5 Q117 187 117 154 Q117 94 150.5 57.5 Q184 21 241 21 Z M299 576 L267 576 L116 732 L153 732 L283 612 L413 732 L450 732 L299 576 Z " />
<glyph glyph-name="uni01CF" unicode="&#x1cf;" horiz-adv-x="266" d="M115 0 L115 700 L151 700 L151 0 L115 0 Z M149 766 L117 766 L-34 922 L3 922 L133 802 L263 922 L300 922 L149 766 Z " />
<glyph glyph-name="uni01D0" unicode="&#x1d0;" horiz-adv-x="258" d="M111 0 L111 511 L147 511 L147 0 L111 0 Z M145 576 L113 576 L-38 732 L-1 732 L129 612 L259 732 L296 732 L145 576 Z " />
<glyph glyph-name="uni01D1" unicode="&#x1d1;" horiz-adv-x="726" d="M363 24 Q428 24 473 53.5 Q518 83 545.5 130 Q573 177 585 235 Q597 293 597 350 Q597 412 585 471 Q573 530 545.5 575.5 Q518 621 473 648.5 Q428 676 363 676 Q298 676 253 646.5 Q208 617 180.5 570 Q153 523 141 465 Q129 407 129 350 Q129 288 141 229 Q153 170 180.5 124.5 Q208 79 253 51.5 Q298 24 363 24 Z M363 -12 Q288 -12 236 20 Q184 52 151.5 104 Q119 156 104.5 220.5 Q90 285 90 350 Q90 415 104.5 479.5 Q119 544 151.5 596 Q184 648 236 680 Q288 712 363 712 Q438 712 490 680 Q542 648 574.5 596 Q607 544 621.5 479.5 Q636 415 636 350 Q636 285 621.5 220.5 Q607 156 574.5 104 Q542 52 490 20 Q438 -12 363 -12 Z M379 766 L347 766 L196 922 L233 922 L363 802 L493 922 L530 922 L379 766 Z " />
<glyph glyph-name="uni01D2" unicode="&#x1d2;" horiz-adv-x="550" d="M275 24 Q353 24 395.5 85 Q438 146 438 256 Q438 365 396.5 426 Q355 487 275 487 Q195 487 153.5 427.5 Q112 368 112 255 Q112 146 153.5 85 Q195 24 275 24 Z M275 523 Q366 523 421.5 453.5 Q477 384 477 256 Q477 193 462.5 143 Q448 93 421.5 58.5 Q395 24 357.5 6 Q320 -12 275 -12 Q184 -12 128.5 57.5 Q73 127 73 255 Q73 318 87.5 367.5 Q102 417 128.5 451.5 Q155 486 192.5 504.5 Q230 523 275 523 Z M291 576 L259 576 L108 732 L145 732 L275 612 L405 732 L442 732 L291 576 Z " />
<glyph glyph-name="uni01D3" unicode="&#x1d3;" horiz-adv-x="668" d="M334 -12 Q282 -12 240.5 2.5 Q199 17 170.5 48.5 Q142 80 126.5 129.5 Q111 179 111 249 L111 700 L147 700 L147 251 Q147 182 162.5 137.5 Q178 93 203.5 67.5 Q229 42 263 32 Q297 22 334 22 Q371 22 405 32 Q439 42 464.5 67.5 Q490 93 505.5 137.5 Q521 182 521 251 L521 700 L557 700 L557 249 Q557 179 541.5 129.5 Q526 80 497.5 48.5 Q469 17 427.5 2.5 Q386 -12 334 -12 Z M350 766 L318 766 L167 922 L204 922 L334 802 L464 922 L501 922 L350 766 Z " />
<glyph glyph-name="uni01D4" unicode="&#x1d4;" horiz-adv-x="562" d="M418 0 L418 86 Q405 58 387.5 39 Q370 20 350.5 9 Q331 -2 309.5 -7 Q288 -12 268 -12 Q187 -12 145 39.5 Q103 91 103 199 L103 511 L139 511 L139 191 Q139 98 175 59.5 Q211 21 270 21 Q301 21 328.5 31 Q356 41 375.5 64 Q395 87 406.5 123.5 Q418 160 418 214 L418 511 L454 511 L454 0 L418 0 Z M294 576 L262 576 L111 732 L148 732 L278 612 L408 732 L445 732 L294 576 Z " />
<glyph glyph-name="AEacute" unicode="&#x1fc;" horiz-adv-x="859" d="M411 0 L411 197 L162 197 L49 0 L8 0 L412 700 L747 700 L747 667 L447 667 L447 379 L640 379 L640 346 L447 346 L447 33 L769 33 L769 0 L411 0 Z M411 227 L411 634 L178 227 L411 227 Z M510 766 L473 766 L624 922 L679 922 L510 766 Z " />
<glyph glyph-name="aeacute" unicode="&#x1fd;" horiz-adv-x="856" d="M442 245 Q446 129 490 76.5 Q534 24 611 24 Q640 24 671.5 34 Q703 44 731 67 L752 41 Q725 18 687.5 3 Q650 -12 608 -12 Q544 -12 498.5 19.5 Q453 51 429 109 Q387 42 336 15 Q285 -12 241 -12 Q166 -12 122 30.5 Q78 73 78 154 Q78 196 92 226.5 Q106 257 129.5 277 Q153 297 185 306.5 Q217 316 253 316 Q294 316 331 303 Q368 290 403 267 L403 343 Q403 388 392.5 417 Q382 446 365 462 Q348 478 325 484 Q302 490 278 490 Q236 490 195 474.5 Q154 459 124 441 L113 472 Q142 489 185 506 Q228 523 281 523 Q304 523 328.5 518 Q353 513 375 499.5 Q397 486 412.5 461.5 Q428 437 433 399 Q456 462 503 492.5 Q550 523 608 523 Q649 523 683 507.5 Q717 492 741.5 459.5 Q766 427 779.5 376.5 Q793 326 793 256 L793 245 L442 245 Z M241 21 Q298 21 342 57 Q386 93 416 145 Q406 180 403 229 L403 233 Q374 253 335.5 268 Q297 283 253 283 Q227 283 202.5 275 Q178 267 159 251.5 Q140 236 128.5 211.5 Q117 187 117 154 Q117 94 150.5 57.5 Q184 21 241 21 Z M608 490 Q574 490 545 478 Q516 466 494 440.5 Q472 415 458.5 375 Q445 335 442 278 L755 278 Q755 344 740.5 385 Q726 426 704 449.5 Q682 473 656.5 481.5 Q631 490 608 490 Z M407 576 L370 576 L521 732 L576 732 L407 576 Z " />
<glyph glyph-name="Oslashacute" unicode="&#x1fe;" horiz-adv-x="726" d="M561 616 Q601 562 618.5 492 Q636 422 636 350 Q636 285 621.5 220.5 Q607 156 574.5 104 Q542 52 490 20 Q438 -12 363 -12 Q306 -12 263 6.5 Q220 25 188 57 L142 -12 L101 -12 L165 84 Q125 137 107.5 207.5 Q90 278 90 350 Q90 415 104.5 479.5 Q119 544 151.5 596 Q184 648 236 680 Q288 712 363 712 Q420 712 462.5 693.5 Q505 675 537 643 L584 712 L625 712 L561 616 Z M363 24 Q428 24 473 53.5 Q518 83 545.5 130 Q573 177 585.5 235 Q598 293 598 350 Q598 416 584.5 477 Q571 538 540 584 L208 87 Q235 58 273.5 41 Q312 24 363 24 Z M128 350 Q128 284 141 223 Q154 162 186 115 L517 612 Q490 641 452 658.5 Q414 676 363 676 Q298 676 253 646.5 Q208 617 180 570 Q152 523 140 465 Q128 407 128 350 Z M343 766 L306 766 L457 922 L512 922 L343 766 Z " />
<glyph glyph-name="oslashacute" unicode="&#x1ff;" horiz-adv-x="550" d="M427 445 Q451 411 464 363.5 Q477 316 477 256 Q477 193 462.5 143 Q448 93 421.5 58.5 Q395 24 357.5 6 Q320 -12 275 -12 Q197 -12 145 38 L110 -12 L68 -12 L122 66 Q99 100 86 147.5 Q73 195 73 255 Q73 318 87.5 367.5 Q102 417 128.5 451.5 Q155 486 192.5 504.5 Q230 523 275 523 Q352 523 405 472 L440 523 L482 523 L427 445 Z M112 255 Q112 156 145 99 L384 442 Q342 487 275 487 Q195 487 153.5 427.5 Q112 368 112 255 Z M275 24 Q353 24 395.5 85 Q438 146 438 256 Q438 304 430 343.5 Q422 383 405 412 L167 69 Q207 24 275 24 Z M261 576 L224 576 L375 732 L430 732 L261 576 Z " />
<glyph glyph-name="uni0218" unicode="&#x218;" horiz-adv-x="600" d="M439 586 Q421 630 384 653.5 Q347 677 290 677 Q220 677 181 645 Q142 613 142 557 Q142 523 157 498.5 Q172 474 196 455 Q220 436 251 421.5 Q282 407 314 394 Q347 380 381 362 Q415 344 442.5 318 Q470 292 487.5 256.5 Q505 221 505 173 Q505 129 490 94.5 Q475 60 448 36.5 Q421 13 383.5 0.5 Q346 -12 301 -12 Q261 -12 226 0 Q191 12 163 32 Q135 52 114 78.5 Q93 105 81 135 L119 147 Q144 91 191.5 57 Q239 23 302 23 Q377 23 422 61 Q467 99 467 174 Q467 210 453 238.5 Q439 267 415.5 289.5 Q392 312 361.5 329 Q331 346 298 359 Q263 373 228.5 389.5 Q194 406 166 429.5 Q138 453 121 484 Q104 515 104 559 Q104 592 116.5 620 Q129 648 153 668.5 Q177 689 212 700.5 Q247 712 293 712 Q326 712 355 704 Q384 696 408 681 Q432 666 449 644.5 Q466 623 475 597 L439 586 Z M269 -242 Q283 -222 292.5 -190.5 Q302 -159 302 -131 Q302 -125 301.5 -122 Q301 -119 301 -118 Q287 -118 278 -110 Q269 -102 269 -89 Q269 -75 277.5 -66.5 Q286 -58 298 -58 Q312 -58 321.5 -68 Q331 -78 331 -104 Q331 -125 326 -146.5 Q321 -168 313.5 -186.5 Q306 -205 296.5 -220.5 Q287 -236 278 -245 L269 -242 Z " />
<glyph glyph-name="uni0219" unicode="&#x219;" horiz-adv-x="467" d="M348 437 Q327 457 297.5 473 Q268 489 227 489 Q173 489 144 464 Q115 439 115 397 Q115 372 125 355 Q135 338 152.5 325 Q170 312 192.5 302 Q215 292 240 282 Q273 269 301 255.5 Q329 242 349.5 224 Q370 206 382 181 Q394 156 394 120 Q394 61 355 24.5 Q316 -12 241 -12 Q188 -12 148 10.5 Q108 33 80 65 L108 89 Q131 63 164.5 42.5 Q198 22 240 22 Q294 22 325.5 46 Q357 70 357 120 Q357 147 345 167 Q333 187 313.5 203 Q294 219 269 231 Q244 243 217 253 Q154 276 116 308 Q78 340 78 397 Q78 451 117.5 487 Q157 523 228 523 Q271 523 309.5 506 Q348 489 375 460 L348 437 Z M209 -242 Q223 -222 232.5 -190.5 Q242 -159 242 -131 Q242 -125 241.5 -122 Q241 -119 241 -118 Q227 -118 218 -110 Q209 -102 209 -89 Q209 -75 217.5 -66.5 Q226 -58 238 -58 Q252 -58 261.5 -68 Q271 -78 271 -104 Q271 -125 266 -146.5 Q261 -168 253.5 -186.5 Q246 -205 236.5 -220.5 Q227 -236 218 -245 L209 -242 Z " />
<glyph glyph-name="uni021A" unicode="&#x21a;" horiz-adv-x="567" d="M301 667 L301 0 L265 0 L265 667 L73 667 L73 700 L494 700 L494 667 L301 667 Z M255 -242 Q269 -222 278.5 -190.5 Q288 -159 288 -131 Q288 -125 287.5 -122 Q287 -119 287 -118 Q273 -118 264 -110 Q255 -102 255 -89 Q255 -75 263.5 -66.5 Q272 -58 284 -58 Q298 -58 307.5 -68 Q317 -78 317 -104 Q317 -125 312 -146.5 Q307 -168 299.5 -186.5 Q292 -205 282.5 -220.5 Q273 -236 264 -245 L255 -242 Z " />
<glyph glyph-name="uni021B" unicode="&#x21b;" horiz-adv-x="371" d="M229 -12 Q176 -12 155.5 21 Q135 54 135 104 L135 478 L48 478 L48 511 L135 511 L135 704 L171 722 L171 511 L301 511 L301 478 L171 478 L171 109 Q171 69 183 46 Q195 23 233 23 Q256 23 275.5 31 Q295 39 308 47 L304 9 Q288 -1 267.5 -6.5 Q247 -12 229 -12 Z M185 -242 Q199 -222 208.5 -190.5 Q218 -159 218 -131 Q218 -125 217.5 -122 Q217 -119 217 -118 Q203 -118 194 -110 Q185 -102 185 -89 Q185 -75 193.5 -66.5 Q202 -58 214 -58 Q228 -58 237.5 -68 Q247 -78 247 -104 Q247 -125 242 -146.5 Q237 -168 229.5 -186.5 Q222 -205 212.5 -220.5 Q203 -236 194 -245 L185 -242 Z " />
<glyph glyph-name="dotlessj" unicode="&#x237;" horiz-adv-x="264" d="M148 -49 Q148 -96 136.5 -126 Q125 -156 105 -174.5 Q85 -193 59 -201.5 Q33 -210 5 -213 L-13 -182 Q51 -177 81.5 -147.5 Q112 -118 112 -51 L112 511 L148 511 L148 -49 Z " />
<glyph glyph-name="firsttonechinese" unicode="&#x2c9;" horiz-adv-x="341" d="M7 623 L7 656 L337 656 L337 623 L7 623 Z " />
<glyph glyph-name="uni03BC" unicode="&#x3bc;" horiz-adv-x="562" d="M418 0 L418 86 Q398 40 359.5 14 Q321 -12 268 -12 Q225 -12 192 3 Q159 18 139 50 L139 -181 L103 -200 L103 511 L139 511 L139 191 Q139 138 150.5 105 Q162 72 180.5 53.5 Q199 35 222.5 28 Q246 21 270 21 Q301 21 328 31 Q355 41 375 63.5 Q395 86 406.5 123 Q418 160 418 214 L418 511 L454 511 L454 0 L418 0 Z " />
<glyph glyph-name="Wgrave" unicode="&#x1e80;" horiz-adv-x="842" d="M774 700 L604 0 L574 0 L421 612 L268 0 L238 0 L68 700 L107 700 L254 90 L406 700 L436 700 L588 90 L735 700 L774 700 Z M443 766 L274 922 L329 922 L480 766 L443 766 Z " />
<glyph glyph-name="wgrave" unicode="&#x1e81;" horiz-adv-x="708" d="M520 0 L494 0 L354 443 L214 0 L188 0 L58 511 L94 511 L204 68 L341 511 L367 511 L504 68 L614 511 L650 511 L520 0 Z M368 576 L199 732 L254 732 L405 576 L368 576 Z " />
<glyph glyph-name="Wacute" unicode="&#x1e82;" horiz-adv-x="842" d="M774 700 L604 0 L574 0 L421 612 L268 0 L238 0 L68 700 L107 700 L254 90 L406 700 L436 700 L588 90 L735 700 L774 700 Z M412 766 L375 766 L526 922 L581 922 L412 766 Z " />
<glyph glyph-name="wacute" unicode="&#x1e83;" horiz-adv-x="708" d="M520 0 L494 0 L354 443 L214 0 L188 0 L58 511 L94 511 L204 68 L341 511 L367 511 L504 68 L614 511 L650 511 L520 0 Z M337 576 L300 576 L451 732 L506 732 L337 576 Z " />
<glyph glyph-name="Wdieresis" unicode="&#x1e84;" horiz-adv-x="842" d="M774 700 L604 0 L574 0 L421 612 L268 0 L238 0 L68 700 L107 700 L254 90 L406 700 L436 700 L588 90 L735 700 L774 700 Z M345 796 Q333 796 324.5 804.5 Q316 813 316 825 Q316 838 324.5 847 Q333 856 345 856 Q358 856 366 847 Q374 838 374 825 Q374 813 366 804.5 Q358 796 345 796 Z M511 796 Q499 796 490.5 804.5 Q482 813 482 825 Q482 838 490.5 847 Q499 856 511 856 Q524 856 532 847 Q540 838 540 825 Q540 813 532 804.5 Q524 796 511 796 Z " />
<glyph glyph-name="wdieresis" unicode="&#x1e85;" horiz-adv-x="708" d="M520 0 L494 0 L354 443 L214 0 L188 0 L58 511 L94 511 L204 68 L341 511 L367 511 L504 68 L614 511 L650 511 L520 0 Z M270 606 Q258 606 249.5 614.5 Q241 623 241 635 Q241 648 249.5 657 Q258 666 270 666 Q283 666 291 657 Q299 648 299 635 Q299 623 291 614.5 Q283 606 270 606 Z M436 606 Q424 606 415.5 614.5 Q407 623 407 635 Q407 648 415.5 657 Q424 666 436 666 Q449 666 457 657 Q465 648 465 635 Q465 623 457 614.5 Q449 606 436 606 Z " />
<glyph glyph-name="Ygrave" unicode="&#x1ef2;" horiz-adv-x="610" d="M287 0 L287 277 L59 700 L98 700 L305 314 L512 700 L551 700 L323 277 L323 0 L287 0 Z M325 766 L156 922 L211 922 L362 766 L325 766 Z " />
<glyph glyph-name="ygrave" unicode="&#x1ef3;" horiz-adv-x="515" d="M237 12 L53 511 L89 511 L255 59 L421 511 L457 511 L197 -194 L161 -194 L237 12 Z M272 576 L103 732 L158 732 L309 576 L272 576 Z " />
<glyph glyph-name="afii00208" unicode="&#x2015;" horiz-adv-x="611" d="M13 269 L13 305 L598 305 L598 269 L13 269 Z " />
<glyph glyph-name="quotereversed" unicode="&#x201b;" horiz-adv-x="212" d="M126 525 Q117 534 107.5 549.5 Q98 565 90.5 583.5 Q83 602 78 623.5 Q73 645 73 666 Q73 692 82.5 702 Q92 712 106 712 Q118 712 126.5 703.5 Q135 695 135 681 Q135 668 126 660 Q117 652 103 652 Q103 649 102.5 646 Q102 643 102 639 Q102 611 111.5 579.5 Q121 548 135 528 L126 525 Z " />
<glyph glyph-name="minute" unicode="&#x2032;" horiz-adv-x="201" d="M88 730 L133 730 L104 425 L68 425 L88 730 Z " />
<glyph glyph-name="second" unicode="&#x2033;" horiz-adv-x="366" d="M88 730 L133 730 L104 425 L68 425 L88 730 Z M253 730 L298 730 L269 425 L233 425 L253 730 Z " />
<glyph glyph-name="nsuperior" unicode="&#x207f;" horiz-adv-x="465" d="M339 283 L339 518 Q339 564 332.5 595 Q326 626 313.5 644.5 Q301 663 282.5 671 Q264 679 240 679 Q194 679 163 641.5 Q132 604 132 522 L132 283 L95 283 L95 702 L132 702 L132 630 Q147 668 176.5 690 Q206 712 244 712 Q275 712 299.5 702 Q324 692 340.5 669 Q357 646 366 609.5 Q375 573 375 519 L375 283 L339 283 Z " />
<glyph glyph-name="afii08941" unicode="&#x20a4;" horiz-adv-x="595" d="M248 251 Q246 182 218 128 Q190 74 142 33 L542 33 L542 0 L108 0 L108 40 Q165 89 186.5 140.5 Q208 192 210 251 L108 251 L108 284 L208 284 Q206 308 199.5 330 Q193 352 185 374 L108 374 L108 407 L172 407 Q161 436 152.5 465 Q144 494 144 526 Q144 562 156.5 595.5 Q169 629 194.5 655 Q220 681 258.5 696.5 Q297 712 350 712 Q405 712 449.5 697.5 Q494 683 526 658 L511 625 Q488 645 449 661 Q410 677 350 677 Q305 677 273.5 663.5 Q242 650 221.5 629 Q201 608 191.5 581 Q182 554 182 527 Q182 495 191 466 Q200 437 212 407 L402 407 L402 374 L225 374 Q233 353 238.5 330.5 Q244 308 246 284 L402 284 L402 251 L248 251 Z " />
<glyph glyph-name="afii61248" unicode="&#x2105;" horiz-adv-x="963" d="M223 272 Q149 272 105.5 329 Q62 386 62 492 Q62 596 105.5 654 Q149 712 223 712 Q269 712 303.5 689.5 Q338 667 358 625 L322 611 Q290 675 223 675 Q167 675 134 627 Q101 579 101 492 Q101 404 134 356.5 Q167 309 223 309 Q293 309 325 380 L362 366 Q342 320 306.5 296 Q271 272 223 272 Z M725 -12 Q645 -12 597.5 45 Q550 102 550 208 Q550 312 597.5 370 Q645 428 725 428 Q806 428 853.5 370 Q901 312 901 208 Q901 102 853.5 45 Q806 -12 725 -12 Z M725 25 Q788 25 825 72.5 Q862 120 862 208 Q862 295 825 343 Q788 391 725 391 Q663 391 626 343 Q589 295 589 208 Q589 120 626 72.5 Q663 25 725 25 Z M206 -12 L684 712 L727 712 L249 -12 L206 -12 Z " />
<glyph glyph-name="afii61289" unicode="&#x2113;" horiz-adv-x="459" d="M258 -12 Q220 -12 195.5 10 Q171 32 171 91 L171 276 Q165 272 154 266 Q143 260 132.5 255 Q122 250 113.5 246 Q105 242 103 241 L93 264 Q113 273 131.5 283 Q150 293 171 308 L171 532 Q171 583 179 617.5 Q187 652 201 673 Q215 694 234.5 703 Q254 712 277 712 Q297 712 315 703.5 Q333 695 347 678 Q361 661 369.5 635 Q378 609 378 574 Q378 520 360.5 476.5 Q343 433 317 399 Q291 365 261.5 339.5 Q232 314 207 295 L207 96 Q207 51 222 36 Q237 21 260 21 Q283 21 304.5 32 Q326 43 340 57 L351 32 Q334 15 310 1.5 Q286 -12 258 -12 Z M277 679 Q260 679 247 672 Q234 665 225 647.5 Q216 630 211.5 600 Q207 570 207 523 L207 331 Q283 390 312.5 447.5 Q342 505 342 570 Q342 592 337.5 611.5 Q333 631 325 646 Q317 661 305 670 Q293 679 277 679 Z " />
<glyph glyph-name="afii61352" unicode="&#x2116;" horiz-adv-x="1156" d="M715 140 L715 176 L1046 176 L1046 140 L715 140 Z M541 0 L151 631 L151 0 L115 0 L115 700 L150 700 L540 69 L540 700 L576 700 L576 0 L541 0 Z M880 272 Q800 272 752.5 329 Q705 386 705 492 Q705 596 752.5 654 Q800 712 880 712 Q961 712 1008.5 654 Q1056 596 1056 492 Q1056 386 1008.5 329 Q961 272 880 272 Z M880 309 Q943 309 980 356.5 Q1017 404 1017 492 Q1017 579 980 627 Q943 675 880 675 Q818 675 781 627 Q744 579 744 492 Q744 404 781 356.5 Q818 309 880 309 Z " />
<glyph glyph-name="Ohm" unicode="&#x2126;" horiz-adv-x="744" d="M441 0 L441 42 Q484 76 515.5 118 Q547 160 567 205 Q587 250 597 297 Q607 344 607 390 Q607 440 595 491 Q583 542 555 583 Q527 624 482 650 Q437 676 371 676 Q306 676 261 650 Q216 624 188 583 Q160 542 147.5 491 Q135 440 135 390 Q135 344 144.5 297 Q154 250 174 205 Q194 160 225.5 118 Q257 76 301 42 L301 0 L88 0 L88 36 L264 36 Q187 93 141.5 183.5 Q96 274 96 390 Q96 446 110.5 503.5 Q125 561 157.5 607.5 Q190 654 242.5 683 Q295 712 371 712 Q448 712 500.5 683 Q553 654 585.5 607.5 Q618 561 632 503.5 Q646 446 646 390 Q646 274 600 183.5 Q554 93 478 36 L654 36 L654 0 L441 0 Z " />
<glyph glyph-name="estimated" unicode="&#x212e;" horiz-adv-x="816" d="M413 -12 Q342 -12 279.5 13.5 Q217 39 170 86 Q123 133 95.5 200 Q68 267 68 350 Q68 442 97 510.5 Q126 579 174.5 624.5 Q223 670 286 692.5 Q349 715 416 715 Q480 715 538.5 692 Q597 669 642 623 Q687 577 715.5 509 Q744 441 748 350 L213 350 L213 99 Q253 61 306.5 42.5 Q360 24 413 24 Q461 24 499.5 34.5 Q538 45 569.5 65 Q601 85 626.5 112.5 Q652 140 675 175 L706 156 Q680 118 651.5 87 Q623 56 587.5 34 Q552 12 509.5 0 Q467 -12 413 -12 Z M608 604 Q576 635 527 657 Q478 679 416 679 Q355 679 301 659.5 Q247 640 213 608 L213 386 L608 386 L608 604 Z " />
<glyph glyph-name="onethird" unicode="&#x2153;" horiz-adv-x="724" d="M30 -12 L508 712 L551 712 L73 -12 L30 -12 Z M97 283 L97 617 L41 617 L41 639 Q79 641 92.5 657 Q106 673 111 705 L135 705 L135 283 L97 283 Z M430 94 Q446 61 470 42.5 Q494 24 536 24 Q579 24 606.5 46 Q634 68 634 109 Q634 147 611.5 172.5 Q589 198 546 198 L515 198 L515 234 L536 234 Q573 234 595 259.5 Q617 285 617 317 Q617 349 597.5 371 Q578 393 538 393 Q503 393 480.5 375.5 Q458 358 444 329 L410 343 Q427 383 460 406 Q493 429 538 429 Q589 429 622 400 Q655 371 655 317 Q655 287 639 259 Q623 231 592 219 Q628 211 650 182.5 Q672 154 672 109 Q672 81 661 58.5 Q650 36 631.5 20.5 Q613 5 588.5 -3.5 Q564 -12 536 -12 Q482 -12 448 13.5 Q414 39 395 81 L430 94 Z " />
<glyph glyph-name="twothirds" unicode="&#x2154;" horiz-adv-x="881" d="M187 -12 L665 712 L708 712 L230 -12 L187 -12 Z M52 614 Q63 654 96 683 Q129 712 182 712 Q238 712 273 680 Q308 648 308 591 Q308 536 281.5 503.5 Q255 471 202 440 Q151 411 127 383.5 Q103 356 95 323 L306 323 L306 283 L52 283 Q52 320 63.5 348.5 Q75 377 93 399.5 Q111 422 135 439.5 Q159 457 185 473 Q227 498 248.5 523.5 Q270 549 270 591 Q270 606 265 621 Q260 636 249.5 648 Q239 660 222 668 Q205 676 182 676 Q139 676 117 655 Q95 634 85 601 L52 614 Z M587 94 Q603 61 627 42.5 Q651 24 693 24 Q736 24 763.5 46 Q791 68 791 109 Q791 147 768.5 172.5 Q746 198 703 198 L672 198 L672 234 L693 234 Q730 234 752 259.5 Q774 285 774 317 Q774 349 754.5 371 Q735 393 695 393 Q660 393 637.5 375.5 Q615 358 601 329 L567 343 Q584 383 617 406 Q650 429 695 429 Q746 429 779 400 Q812 371 812 317 Q812 287 796 259 Q780 231 749 219 Q785 211 807 182.5 Q829 154 829 109 Q829 81 818 58.5 Q807 36 788.5 20.5 Q770 5 745.5 -3.5 Q721 -12 693 -12 Q639 -12 605 13.5 Q571 39 552 81 L587 94 Z " />
<glyph glyph-name="oneeighth" unicode="&#x215b;" horiz-adv-x="716" d="M30 -12 L508 712 L551 712 L73 -12 L30 -12 Z M97 283 L97 617 L41 617 L41 639 Q79 641 92.5 657 Q106 673 111 705 L135 705 L135 283 L97 283 Z M524 -12 Q466 -12 430 23.5 Q394 59 394 114 Q394 161 416.5 190 Q439 219 472 231 Q445 242 429 266.5 Q413 291 413 320 Q413 368 444.5 398.5 Q476 429 524 429 Q572 429 603.5 398.5 Q635 368 635 320 Q635 291 619 266.5 Q603 242 576 231 Q609 219 631.5 190 Q654 161 654 114 Q654 59 618 23.5 Q582 -12 524 -12 Z M524 23 Q562 23 589 47 Q616 71 616 119 Q616 156 591 184 Q566 212 524 212 Q482 212 457 184 Q432 156 432 119 Q432 71 459 47 Q486 23 524 23 Z M524 246 Q559 246 579 266.5 Q599 287 599 319 Q599 353 579 373.5 Q559 394 524 394 Q489 394 469 373.5 Q449 353 449 319 Q449 287 469 266.5 Q489 246 524 246 Z " />
<glyph glyph-name="threeeighths" unicode="&#x215c;" horiz-adv-x="861" d="M173 -12 L651 712 L694 712 L216 -12 L173 -12 Z M79 377 Q95 344 119 325.5 Q143 307 185 307 Q228 307 255.5 329 Q283 351 283 392 Q283 430 260.5 455.5 Q238 481 195 481 L164 481 L164 517 L185 517 Q222 517 244 542.5 Q266 568 266 600 Q266 632 246.5 654 Q227 676 187 676 Q152 676 129.5 658.5 Q107 641 93 612 L59 626 Q76 666 109 689 Q142 712 187 712 Q238 712 271 683 Q304 654 304 600 Q304 570 288 542 Q272 514 241 502 Q277 494 299 465.5 Q321 437 321 392 Q321 364 310 341.5 Q299 319 280.5 303.5 Q262 288 237.5 279.5 Q213 271 185 271 Q131 271 97 296.5 Q63 322 44 364 L79 377 Z M668 -12 Q610 -12 574 23.5 Q538 59 538 114 Q538 161 560.5 190 Q583 219 616 231 Q589 242 573 266.5 Q557 291 557 320 Q557 368 588.5 398.5 Q620 429 668 429 Q716 429 747.5 398.5 Q779 368 779 320 Q779 291 763 266.5 Q747 242 720 231 Q753 219 775.5 190 Q798 161 798 114 Q798 59 762 23.5 Q726 -12 668 -12 Z M668 23 Q706 23 733 47 Q760 71 760 119 Q760 156 735 184 Q710 212 668 212 Q626 212 601 184 Q576 156 576 119 Q576 71 603 47 Q630 23 668 23 Z M668 246 Q703 246 723 266.5 Q743 287 743 319 Q743 353 723 373.5 Q703 394 668 394 Q633 394 613 373.5 Q593 353 593 319 Q593 287 613 266.5 Q633 246 668 246 Z " />
<glyph glyph-name="fiveeighths" unicode="&#x215d;" horiz-adv-x="844" d="M157 -12 L635 712 L678 712 L200 -12 L157 -12 Z M68 346 Q86 330 112 318 Q138 306 165 306 Q218 306 245.5 336.5 Q273 367 273 412 Q273 455 249.5 484.5 Q226 514 181 514 Q143 514 119.5 500 Q96 486 82 471 L55 479 L89 700 L281 700 L281 662 L116 662 L94 517 Q115 534 138 541.5 Q161 549 183 549 Q241 549 276 511.5 Q311 474 311 412 Q311 382 300.5 356 Q290 330 271 311 Q252 292 225 281.5 Q198 271 165 271 Q124 271 92.5 286 Q61 301 45 317 L68 346 Z M651 -12 Q593 -12 557 23.5 Q521 59 521 114 Q521 161 543.5 190 Q566 219 599 231 Q572 242 556 266.5 Q540 291 540 320 Q540 368 571.5 398.5 Q603 429 651 429 Q699 429 730.5 398.5 Q762 368 762 320 Q762 291 746 266.5 Q730 242 703 231 Q736 219 758.5 190 Q781 161 781 114 Q781 59 745 23.5 Q709 -12 651 -12 Z M651 23 Q689 23 716 47 Q743 71 743 119 Q743 156 718 184 Q693 212 651 212 Q609 212 584 184 Q559 156 559 119 Q559 71 586 47 Q613 23 651 23 Z M651 246 Q686 246 706 266.5 Q726 287 726 319 Q726 353 706 373.5 Q686 394 651 394 Q616 394 596 373.5 Q576 353 576 319 Q576 287 596 266.5 Q616 246 651 246 Z " />
<glyph glyph-name="seveneighths" unicode="&#x215e;" horiz-adv-x="753" d="M65 -12 L543 712 L586 712 L108 -12 L65 -12 Z M112 283 Q113 346 123.5 400 Q134 454 152 500.5 Q170 547 194.5 587.5 Q219 628 247 664 L32 664 L32 700 L282 700 L282 655 Q244 612 219.5 563.5 Q195 515 180 466.5 Q165 418 158.5 370.5 Q152 323 151 283 L112 283 Z M561 -12 Q503 -12 467 23.5 Q431 59 431 114 Q431 161 453.5 190 Q476 219 509 231 Q482 242 466 266.5 Q450 291 450 320 Q450 368 481.5 398.5 Q513 429 561 429 Q609 429 640.5 398.5 Q672 368 672 320 Q672 291 656 266.5 Q640 242 613 231 Q646 219 668.5 190 Q691 161 691 114 Q691 59 655 23.5 Q619 -12 561 -12 Z M561 23 Q599 23 626 47 Q653 71 653 119 Q653 156 628 184 Q603 212 561 212 Q519 212 494 184 Q469 156 469 119 Q469 71 496 47 Q523 23 561 23 Z M561 246 Q596 246 616 266.5 Q636 287 636 319 Q636 353 616 373.5 Q596 394 561 394 Q526 394 506 373.5 Q486 353 486 319 Q486 287 506 266.5 Q526 246 561 246 Z " />
<glyph glyph-name="divisionslash" unicode="&#x2215;" horiz-adv-x="331" d="M-95 -12 L383 712 L426 712 L-52 -12 L-95 -12 Z " />
<glyph glyph-name="bulletoperator" unicode="&#x2219;" horiz-adv-x="212" d="M106 320 Q94 320 85.5 328.5 Q77 337 77 349 Q77 362 85.5 371 Q94 380 106 380 Q119 380 127 371 Q135 362 135 349 Q135 337 127 328.5 Q119 320 106 320 Z " />
<glyph glyph-name="dottedcircle" unicode="&#x25cc;" horiz-adv-x="680" d="M73 359 Q73 373 82 381.5 Q91 390 105 390 Q119 390 127 381.5 Q135 373 135 359 Q135 345 127 337 Q119 329 105 329 Q91 329 82 337 Q73 345 73 359 Z M545 359 Q545 373 553 381.5 Q561 390 575 390 Q588 390 597.5 381.5 Q607 373 607 359 Q607 345 597.5 337 Q588 329 575 329 Q561 329 553 337 Q545 345 545 359 Z M310 124 Q310 138 318 146.5 Q326 155 340 155 Q354 155 362 146.5 Q370 138 370 124 Q370 110 362 101.5 Q354 93 340 93 Q326 93 318 101.5 Q310 110 310 124 Z M310 594 Q310 608 318 617 Q326 626 340 626 Q354 626 362 617 Q370 608 370 594 Q370 580 362 572 Q354 564 340 564 Q326 564 318 572 Q310 580 310 594 Z M476 526 Q476 540 484 548 Q492 556 506 556 Q520 556 528.5 548 Q537 540 537 526 Q537 512 528.5 503.5 Q520 495 506 495 Q492 495 484 503.5 Q476 512 476 526 Z M143 526 Q143 540 151.5 548 Q160 556 174 556 Q188 556 196 548 Q204 540 204 526 Q204 512 196 503.5 Q188 495 174 495 Q160 495 151.5 503.5 Q143 512 143 526 Z M476 193 Q476 207 484 215.5 Q492 224 506 224 Q520 224 528.5 215.5 Q537 207 537 193 Q537 179 528.5 171 Q520 163 506 163 Q492 163 484 171 Q476 179 476 193 Z M143 193 Q143 207 151.5 215.5 Q160 224 174 224 Q188 224 196 215.5 Q204 207 204 193 Q204 179 196 171 Q188 163 174 163 Q160 163 151.5 171 Q143 179 143 193 Z M92 269 Q92 283 100.5 291.5 Q109 300 123 300 Q136 300 144.5 291.5 Q153 283 153 269 Q153 255 144.5 246.5 Q136 238 123 238 Q109 238 100.5 247 Q92 256 92 269 Z M527 449 Q527 462 535.5 471.5 Q544 481 557 481 Q571 481 579.5 471.5 Q588 462 588 449 Q588 436 579.5 427.5 Q571 419 557 419 Q544 419 535.5 427.5 Q527 436 527 449 Z M400 142 Q400 156 408.5 164.5 Q417 173 430 173 Q444 173 452.5 164.5 Q461 156 461 142 Q461 128 452.5 119.5 Q444 111 430 111 Q417 111 408.5 119.5 Q400 128 400 142 Z M219 576 Q219 590 227.5 599 Q236 608 250 608 Q263 608 271.5 599 Q280 590 280 576 Q280 563 271.5 554.5 Q263 546 250 546 Q236 546 227.5 554.5 Q219 563 219 576 Z M399 576 Q399 590 408 598.5 Q417 607 429 607 Q443 607 452 598.5 Q461 590 461 576 Q461 563 452 554.5 Q443 546 429 546 Q415 546 407 554.5 Q399 563 399 576 Z M92 449 Q92 463 100.5 471.5 Q109 480 123 480 Q137 480 145.5 471.5 Q154 463 154 449 Q154 436 144.5 427 Q135 418 123 418 Q109 418 100.5 427 Q92 436 92 449 Z M526 270 Q526 283 535 291.5 Q544 300 557 300 Q571 300 579.5 291.5 Q588 283 588 270 Q588 256 579.5 247.5 Q571 239 557 239 Q543 239 534.5 247.5 Q526 256 526 270 Z M219 143 Q219 156 228 164.5 Q237 173 251 173 Q264 173 272.5 164.5 Q281 156 281 143 Q281 129 271.5 120 Q262 111 251 111 Q237 111 228 120 Q219 129 219 143 Z " />
<glyph glyph-name="zero.denominator" unicode="&#xe10a;" horiz-adv-x="395" d="M197 -7 Q158 -7 132.5 12.5 Q107 32 91.5 63.5 Q76 95 70 134 Q64 173 64 211 Q64 247 70 285.5 Q76 324 91 356 Q106 388 132 408.5 Q158 429 197 429 Q236 429 262 409.5 Q288 390 303.5 358.5 Q319 327 325 288 Q331 249 331 211 Q331 175 325 136 Q319 97 304 65.5 Q289 34 263 13.5 Q237 -7 197 -7 Z M197 29 Q227 29 245.5 47 Q264 65 274.5 92 Q285 119 289 151 Q293 183 293 211 Q293 242 289 274.5 Q285 307 274.5 333 Q264 359 245 376 Q226 393 197 393 Q167 393 148.5 375 Q130 357 119.5 330 Q109 303 105.5 271 Q102 239 102 211 Q102 179 106 147 Q110 115 120.5 88.5 Q131 62 149.5 45.5 Q168 29 197 29 Z " />
<glyph glyph-name="one.denominator" unicode="&#xe10b;" horiz-adv-x="204" d="M87 0 L87 334 L31 334 L31 356 Q69 358 82.5 374 Q96 390 101 422 L125 422 L125 0 L87 0 Z " />
<glyph glyph-name="two.denominator" unicode="&#xe10c;" horiz-adv-x="373" d="M52 331 Q63 371 96 400 Q129 429 182 429 Q238 429 273 397 Q308 365 308 308 Q308 253 281.5 220.5 Q255 188 202 157 Q151 128 127 100.5 Q103 73 95 40 L306 40 L306 0 L52 0 Q52 37 63.5 65.5 Q75 94 93 116.5 Q111 139 135 156.5 Q159 174 185 190 Q227 215 248.5 240.5 Q270 266 270 308 Q270 323 265 338 Q260 353 249.5 365 Q239 377 222 385 Q205 393 182 393 Q139 393 117 372 Q95 351 85 318 L52 331 Z " />
<glyph glyph-name="three.denominator" unicode="&#xe10d;" horiz-adv-x="386" d="M80 94 Q96 61 120 42.5 Q144 24 186 24 Q229 24 256.5 46 Q284 68 284 109 Q284 147 261.5 172.5 Q239 198 196 198 L165 198 L165 234 L186 234 Q223 234 245 259.5 Q267 285 267 317 Q267 349 247.5 371 Q228 393 188 393 Q153 393 130.5 375.5 Q108 358 94 329 L60 343 Q77 383 110 406 Q143 429 188 429 Q239 429 272 400 Q305 371 305 317 Q305 287 289 259 Q273 231 242 219 Q278 211 300 182.5 Q322 154 322 109 Q322 81 311 58.5 Q300 36 281.5 20.5 Q263 5 238.5 -3.5 Q214 -12 186 -12 Q132 -12 98 13.5 Q64 39 45 81 L80 94 Z " />
<glyph glyph-name="four.denominator" unicode="&#xe10e;" horiz-adv-x="389" d="M245 0 L245 117 L33 117 L33 137 L252 423 L283 423 L283 153 L339 153 L339 117 L283 117 L283 0 L245 0 Z M245 153 L245 360 L86 153 L245 153 Z " />
<glyph glyph-name="five.denominator" unicode="&#xe10f;" horiz-adv-x="374" d="M77 63 Q95 47 121 35 Q147 23 174 23 Q227 23 254.5 53.5 Q282 84 282 129 Q282 172 258.5 201.5 Q235 231 190 231 Q152 231 128.5 217 Q105 203 91 188 L64 196 L98 417 L290 417 L290 379 L125 379 L103 234 Q124 251 147 258.5 Q170 266 192 266 Q250 266 285 228.5 Q320 191 320 129 Q320 99 309.5 73 Q299 47 280 28 Q261 9 234 -1.5 Q207 -12 174 -12 Q133 -12 101.5 3 Q70 18 54 34 L77 63 Z " />
</font>
</svg>
