<?xml version="1.0" encoding="UTF-8"?>
<svg xmlns="http://www.w3.org/2000/svg" xmlns:xlink="http://www.w3.org/1999/xlink" version="1.2" >
<font id="Overpass-Italic">
<font-face  font-family="Overpass" units-per-em="1000" ascent="750" descent="-250" font-style="italic" font-weight="400" font-stretch="normal" slope="-10" cap-height="700" x-height="511" underline-position="-123" underline-thickness="20" />
<missing-glyph  horiz-adv-x="221" d="" />
<glyph glyph-name="eth" unicode="&#xf0;" horiz-adv-x="522" d="M330 606 Q286 629 230 632 L245 712 Q287 710 327 700 Q367 690 400 670 L466 731 L508 680 L451 628 Q492 584 514.5 515.5 Q537 447 537 355 Q537 273 519 205.5 Q501 138 466 89.5 Q431 41 380 14.5 Q329 -12 263 -12 Q219 -12 184.5 2.5 Q150 17 126 43.5 Q102 70 89 106.5 Q76 143 76 187 Q76 244 96 293.5 Q116 343 150 379 Q184 415 230 435.5 Q276 456 328 456 Q374 456 401.5 438.5 Q429 421 443 397 Q441 444 428 489.5 Q415 535 384 566 L312 500 L271 551 L330 606 Z M276 82 Q304 82 330.5 94.5 Q357 107 377.5 129 Q398 151 410.5 181.5 Q423 212 423 247 Q423 298 397 330 Q371 362 324 362 Q295 362 268.5 349.5 Q242 337 221.5 315 Q201 293 189 262 Q177 231 177 195 Q177 143 203 112.5 Q229 82 276 82 Z " />
<glyph glyph-name="Lslash" unicode="&#x141;" horiz-adv-x="531" d="M83 0 L125 240 L48 187 L70 301 L145 352 L206 700 L308 700 L262 436 L396 529 L374 415 L242 323 L202 97 L529 97 L512 0 L83 0 Z " />
<glyph glyph-name="lslash" unicode="&#x142;" horiz-adv-x="249" d="M65 289 L132 336 L194 685 L300 722 L245 413 L312 459 L295 365 L228 318 L172 0 L73 0 L115 241 L48 195 L65 289 Z " />
<glyph glyph-name="Scaron" unicode="&#x160;" horiz-adv-x="575" d="M493 544 Q482 574 455 596 Q428 618 380 618 Q324 618 293 591.5 Q262 565 262 526 Q262 495 283.5 475.5 Q305 456 338 439.5 Q371 423 408.5 406 Q446 389 479 363.5 Q512 338 533.5 301 Q555 264 555 208 Q555 156 536 115 Q517 74 483.5 46 Q450 18 403 3 Q356 -12 300 -12 Q255 -12 219 1 Q183 14 155 36.5 Q127 59 108.5 89.5 Q90 120 80 155 L175 190 Q192 140 225 112 Q258 84 313 84 Q374 84 411 113.5 Q448 143 448 199 Q448 236 426.5 259.5 Q405 283 373 301 Q341 319 303 336 Q265 353 233 376.5 Q201 400 179.5 434 Q158 468 158 520 Q158 561 174 596 Q190 631 219.5 657 Q249 683 291.5 697.5 Q334 712 387 712 Q432 712 466 700.5 Q500 689 524.5 670 Q549 651 564 626.5 Q579 602 585 577 L493 544 Z M463 766 L365 766 L257 922 L345 922 L427 837 L537 922 L626 922 L463 766 Z " />
<glyph glyph-name="scaron" unicode="&#x161;" horiz-adv-x="445" d="M391 388 Q377 405 353 421.5 Q329 438 289 438 Q254 438 230.5 421.5 Q207 405 207 377 Q207 358 223.5 344 Q240 330 265 318 Q290 306 319.5 292 Q349 278 374 259 Q399 240 415.5 212.5 Q432 185 432 146 Q432 73 378.5 30.5 Q325 -12 234 -12 Q173 -12 125.5 13.5 Q78 39 55 79 L128 136 Q143 114 171.5 94 Q200 74 242 74 Q278 74 305.5 90.5 Q333 107 333 140 Q333 162 316.5 177 Q300 192 275.5 205.5 Q251 219 222 232.5 Q193 246 168.5 264.5 Q144 283 127.5 308.5 Q111 334 111 371 Q111 407 125 435 Q139 463 164 482.5 Q189 502 223 512.5 Q257 523 297 523 Q357 523 400 499 Q443 475 464 443 L391 388 Z M367 576 L269 576 L161 732 L249 732 L331 647 L441 732 L530 732 L367 576 Z " />
<glyph glyph-name="Yacute" unicode="&#xdd;" horiz-adv-x="623" d="M259 0 L309 281 L151 700 L257 700 L373 377 L604 700 L717 700 L410 276 L361 0 L259 0 Z M470 766 L375 766 L539 922 L670 922 L470 766 Z " />
<glyph glyph-name="yacute" unicode="&#xfd;" horiz-adv-x="504" d="M199 -194 L93 -194 L203 13 L109 511 L209 511 L266 178 Q268 165 270 153 Q272 141 273 136 Q275 142 281.5 154.5 Q288 167 294 178 L471 511 L578 511 L199 -194 Z M384 576 L289 576 L453 732 L584 732 L384 576 Z " />
<glyph glyph-name="Thorn" unicode="&#xde;" horiz-adv-x="604" d="M83 0 L206 700 L308 700 L286 569 L452 569 Q506 569 542 552.5 Q578 536 600 509.5 Q622 483 631.5 450.5 Q641 418 641 386 Q641 341 625.5 297.5 Q610 254 578 219.5 Q546 185 497.5 163.5 Q449 142 384 142 L210 142 L185 0 L83 0 Z M401 238 Q438 238 464.5 251 Q491 264 507 284 Q523 304 530.5 327.5 Q538 351 538 372 Q538 390 533.5 408.5 Q529 427 518 441 Q507 455 488.5 464 Q470 473 442 473 L269 473 L227 238 L401 238 Z " />
<glyph glyph-name="thorn" unicode="&#xfe;" horiz-adv-x="534" d="M291 -12 Q246 -12 220 3.5 Q194 19 177 44 L141 -163 L36 -202 L191 678 L296 717 L251 467 Q276 490 306.5 506.5 Q337 523 382 523 Q418 523 448 508 Q478 493 499.5 466 Q521 439 532.5 400.5 Q544 362 544 314 Q544 236 523.5 175.5 Q503 115 468 73.5 Q433 32 387.5 10 Q342 -12 291 -12 Z M290 82 Q326 82 354.5 98 Q383 114 403.5 143 Q424 172 434.5 212.5 Q445 253 445 302 Q445 359 421 394 Q397 429 349 429 Q317 429 285 412 Q253 395 233 366 L194 142 Q208 118 230 100 Q252 82 290 82 Z " />
<glyph glyph-name="Zcaron" unicode="&#x17d;" horiz-adv-x="610" d="M53 0 L66 76 L525 605 L181 605 L197 700 L676 700 L662 623 L205 95 L570 95 L553 0 L53 0 Z M508 766 L410 766 L302 922 L390 922 L472 837 L582 922 L671 922 L508 766 Z " />
<glyph glyph-name="zcaron" unicode="&#x17e;" horiz-adv-x="482" d="M51 0 L64 72 L369 421 L144 421 L160 511 L517 511 L505 440 L198 89 L442 89 L426 0 L51 0 Z M407 576 L309 576 L201 732 L289 732 L371 647 L481 732 L570 732 L407 576 Z " />
<glyph glyph-name="onehalf" unicode="&#xbd;" horiz-adv-x="726" d="M8 -12 L595 712 L690 712 L103 -12 L8 -12 Z M112 283 L168 600 L121 600 L132 663 Q161 663 178 674 Q195 685 206 705 L267 705 L193 283 L112 283 Z M451 316 Q473 366 513 397.5 Q553 429 611 429 Q668 429 699.5 398.5 Q731 368 731 320 Q731 288 722 264.5 Q713 241 695 222 Q677 203 651.5 187 Q626 171 593 153 Q559 134 538 116.5 Q517 99 504 77 L688 77 L674 0 L394 0 Q402 44 418.5 78 Q435 112 458.5 138 Q482 164 511.5 185 Q541 206 575 225 Q606 243 625.5 261.5 Q645 280 645 310 Q645 326 634 339.5 Q623 353 597 353 Q569 353 550.5 338 Q532 323 519 294 L451 316 Z " />
<glyph glyph-name="onequarter" unicode="&#xbc;" horiz-adv-x="681" d="M8 -12 L595 712 L690 712 L103 -12 L8 -12 Z M112 283 L168 600 L121 600 L132 663 Q161 663 178 674 Q195 685 206 705 L267 705 L193 283 L112 283 Z M514 0 L530 94 L331 94 L340 145 L596 422 L666 422 L621 167 L673 167 L660 94 L608 94 L592 0 L514 0 Z M543 167 L569 311 L439 167 L543 167 Z " />
<glyph glyph-name="onesuperior" unicode="&#xb9;" horiz-adv-x="189" d="M135 444 L191 761 L144 761 L155 824 Q184 824 201.5 835 Q219 846 230 866 L291 866 L216 444 L135 444 Z " />
<glyph glyph-name="threequarters" unicode="&#xbe;" horiz-adv-x="812" d="M138 -12 L725 712 L820 712 L233 -12 L138 -12 Z M133 614 Q158 658 200 685 Q242 712 290 712 Q341 712 369 684.5 Q397 657 397 615 Q397 577 376 547.5 Q355 518 326 504 Q350 495 364 473.5 Q378 452 378 423 Q378 390 366 362.5 Q354 335 332 315 Q310 295 279 284 Q248 273 211 273 Q155 273 123 303.5 Q91 334 82 386 L161 411 Q172 347 225 347 Q257 347 275.5 366.5 Q294 386 294 415 Q294 434 282 448.5 Q270 463 244 463 L209 463 L222 534 L250 534 Q282 534 297 553.5 Q312 573 312 596 Q312 613 301.5 625.5 Q291 638 270 638 Q247 638 229 624 Q211 610 198 588 L133 614 Z M644 0 L660 94 L461 94 L470 145 L726 422 L796 422 L751 167 L803 167 L790 94 L738 94 L722 0 L644 0 Z M673 167 L699 311 L569 167 L673 167 Z " />
<glyph glyph-name="threesuperior" unicode="&#xb3;" horiz-adv-x="332" d="M190 573 Q201 509 255 509 Q287 509 305 527.5 Q323 546 323 573 Q323 594 310.5 609 Q298 624 274 624 L238 624 L251 695 L279 695 Q311 695 325.5 715 Q340 735 340 757 Q340 774 329.5 786.5 Q319 799 298 799 Q277 799 258.5 785 Q240 771 227 749 L162 775 Q187 819 227.5 846 Q268 873 318 873 Q367 873 396.5 845.5 Q426 818 426 776 Q426 738 405 708.5 Q384 679 355 665 Q377 657 392 634 Q407 611 407 579 Q407 547 395 521 Q383 495 362 475.5 Q341 456 312 445.5 Q283 435 248 435 Q187 435 154 466 Q121 497 112 548 L190 573 Z " />
<glyph glyph-name="twosuperior" unicode="&#xb2;" horiz-adv-x="340" d="M101 444 Q108 486 122.5 517 Q137 548 158.5 574 Q180 600 210.5 622.5 Q241 645 282 669 Q313 688 332.5 706.5 Q352 725 352 753 Q352 770 341 783.5 Q330 797 304 797 Q251 797 227 738 L158 760 Q180 810 220 841.5 Q260 873 318 873 Q376 873 407.5 840 Q439 807 439 760 Q439 734 432 713.5 Q425 693 410 675 Q395 657 370 639 Q345 621 309 600 Q276 580 253 561.5 Q230 543 217 521 L395 521 L381 444 L101 444 Z " />
<glyph glyph-name="brokenbar" unicode="&#xa6;" horiz-adv-x="259" d="M149 381 L209 720 L304 720 L244 381 L149 381 Z M61 -120 L120 218 L166 218 L216 218 L156 -120 L61 -120 Z " />
<glyph glyph-name="minus" unicode="&#x2212;" horiz-adv-x="605" d="M135 391 L585 391 L585 294 L135 294 L135 391 Z " />
<glyph glyph-name="multiply" unicode="&#xd7;" horiz-adv-x="605" d="M362 272 L205 113 L132 186 L291 344 L133 501 L203 570 L360 413 L517 571 L590 499 L431 342 L589 184 L519 114 L362 272 Z " />
<glyph glyph-name="space" unicode="&#x20;" horiz-adv-x="221" d="" />
<glyph glyph-name="exclam" unicode="&#x21;" horiz-adv-x="259" d="M143 193 L168 490 L208 712 L304 712 L265 490 L184 193 L143 193 Z M129 -13 Q102 -13 85.5 5 Q69 23 69 48 Q69 65 75.5 80.5 Q82 96 93.5 107.5 Q105 119 119.5 125.5 Q134 132 150 132 Q179 132 195.5 114 Q212 96 212 71 Q212 36 188 11.5 Q164 -13 129 -13 Z " />
<glyph glyph-name="quotedbl" unicode="&#x22;" horiz-adv-x="385" d="M166 700 L283 700 L213 421 L136 421 L166 700 Z M348 700 L465 700 L396 421 L354 421 L318 421 L348 700 Z " />
<glyph glyph-name="numbersign" unicode="&#x23;" horiz-adv-x="650" d="M122 0 L184 190 L73 190 L103 277 L211 277 L264 437 L157 437 L184 523 L291 523 L353 700 L435 700 L378 523 L503 523 L561 700 L648 700 L591 523 L702 523 L674 437 L565 437 L512 277 L619 277 L591 190 L484 190 L423 0 L335 0 L397 190 L271 190 L209 0 L122 0 Z M298 277 L424 277 L477 437 L351 437 L298 277 Z " />
<glyph glyph-name="dollar" unicode="&#x24;" horiz-adv-x="558" d="M481 545 Q473 574 448.5 595 Q424 616 377 616 Q325 616 295 591.5 Q265 567 265 529 Q265 499 285.5 479 Q306 459 336.5 442.5 Q367 426 403 409 Q439 392 469.5 367.5 Q500 343 520.5 307.5 Q541 272 541 218 Q541 173 526.5 134 Q512 95 485 65.5 Q458 36 418.5 16.5 Q379 -3 329 -10 L314 -95 L213 -95 L228 -6 Q160 9 123 54.5 Q86 100 77 154 L170 188 Q182 141 213.5 112.5 Q245 84 299 84 Q362 84 399 115 Q436 146 436 202 Q436 239 415.5 262.5 Q395 286 364.5 304 Q334 322 298 338.5 Q262 355 231.5 378 Q201 401 180.5 433.5 Q160 466 160 517 Q160 549 172.5 581 Q185 613 210 639.5 Q235 666 271 685 Q307 704 354 710 L368 787 L464 787 L450 705 Q509 691 539.5 654.5 Q570 618 576 576 L481 545 Z " />
<glyph glyph-name="percent" unicode="&#x25;" horiz-adv-x="817" d="M265 351 Q229 351 204 364.5 Q179 378 163 399 Q147 420 139.5 446 Q132 472 132 498 Q132 533 143.5 570.5 Q155 608 178.5 639.5 Q202 671 237 691.5 Q272 712 320 712 Q356 712 381 698.5 Q406 685 421.5 664 Q437 643 444.5 616.5 Q452 590 452 564 Q452 525 440 487 Q428 449 404 418.5 Q380 388 345 369.5 Q310 351 265 351 Z M275 432 Q297 432 314 442.5 Q331 453 343 471 Q355 489 361 511.5 Q367 534 367 558 Q367 590 352.5 610.5 Q338 631 309 631 Q287 631 270 620 Q253 609 241.5 591.5 Q230 574 224 551.5 Q218 529 218 505 Q218 476 231 454 Q244 432 275 432 Z M227 -12 L127 -12 L713 712 L814 712 L227 -12 Z M623 -12 Q587 -12 562 1.5 Q537 15 521 36 Q505 57 497.5 83 Q490 109 490 135 Q490 170 501.5 207.5 Q513 245 536 276.5 Q559 308 594.5 328.5 Q630 349 678 349 Q714 349 739 335.5 Q764 322 779.5 301 Q795 280 802.5 254 Q810 228 810 202 Q810 163 798 124.5 Q786 86 762.5 56 Q739 26 704 7 Q669 -12 623 -12 Z M633 69 Q655 69 672 79.5 Q689 90 701 107.5 Q713 125 719 147.5 Q725 170 725 194 Q725 226 710.5 247 Q696 268 667 268 Q644 268 627 257 Q610 246 598.5 228.5 Q587 211 581 188.5 Q575 166 575 142 Q575 113 588.5 91 Q602 69 633 69 Z " />
<glyph glyph-name="ampersand" unicode="&#x26;" horiz-adv-x="644" d="M508 0 L459 78 Q410 33 354 10.5 Q298 -12 238 -12 Q199 -12 168 0 Q137 12 116 33.5 Q95 55 83.5 84.5 Q72 114 72 150 Q72 196 86.5 232 Q101 268 126.5 297.5 Q152 327 187 350.5 Q222 374 264 395 Q240 435 228.5 468 Q217 501 217 534 Q217 576 233 609 Q249 642 275 665 Q301 688 335 700 Q369 712 405 712 Q472 712 510 674.5 Q548 637 548 577 Q548 544 536.5 515.5 Q525 487 504.5 463 Q484 439 456 417.5 Q428 396 394 377 L479 241 Q493 267 502.5 291.5 Q512 316 517 334 L610 334 Q600 292 581.5 246.5 Q563 201 532 158 L630 0 L508 0 Z M268 82 Q304 82 343.5 100 Q383 118 415 150 L305 327 Q239 290 205.5 255 Q172 220 172 173 Q172 131 197.5 106.5 Q223 82 268 82 Z M310 548 Q310 526 322 500 Q334 474 354 442 Q402 469 428.5 499 Q455 529 455 567 Q455 597 437 614 Q419 631 393 631 Q358 631 334 608 Q310 585 310 548 Z " />
<glyph glyph-name="quotesingle" unicode="&#x27;" horiz-adv-x="203" d="M166 700 L283 700 L213 421 L136 421 L166 700 Z " />
<glyph glyph-name="parenleft" unicode="&#x28;" horiz-adv-x="327" d="M162 -130 Q150 -109 139.5 -78.5 Q129 -48 120.5 -11 Q112 26 107 68 Q102 110 102 155 Q102 258 121.5 343.5 Q141 429 172 498 Q203 567 241 620 Q279 673 317 712 L415 712 Q394 690 357.5 642.5 Q321 595 286 525 Q251 455 225 364 Q199 273 199 163 Q199 112 205 64.5 Q211 17 220 -21.5 Q229 -60 238.5 -88.5 Q248 -117 255 -130 L162 -130 Z " />
<glyph glyph-name="parenright" unicode="&#x29;" horiz-adv-x="327" d="M262 712 Q275 690 286.5 658.5 Q298 627 306.5 589 Q315 551 320 507.5 Q325 464 325 419 Q325 317 306.5 233 Q288 149 258 81.5 Q228 14 191 -38.5 Q154 -91 117 -130 L20 -130 Q40 -108 75 -61.5 Q110 -15 144 53 Q178 121 203 211 Q228 301 228 410 Q228 462 221.5 510.5 Q215 559 206 599.5 Q197 640 186.5 669 Q176 698 169 712 L262 712 Z " />
<glyph glyph-name="asterisk" unicode="&#x2a;" horiz-adv-x="506" d="M343 386 L331 449 L300 386 L218 289 L151 348 L232 439 L290 478 L235 481 L134 519 L173 605 L272 569 L317 534 L312 596 L333 714 L426 714 L405 598 L376 534 L433 572 L539 605 L556 517 L445 481 L382 478 L423 440 L477 342 L396 288 L343 386 Z " />
<glyph glyph-name="plus" unicode="&#x2b;" horiz-adv-x="605" d="M410 294 L410 108 L309 108 L309 294 L131 294 L131 391 L309 391 L309 578 L410 578 L410 391 L589 391 L589 294 L410 294 Z " />
<glyph glyph-name="comma" unicode="&#x2c;" horiz-adv-x="212" d="M24 -118 Q31 -112 42 -101.5 Q53 -91 63.5 -77 Q74 -63 83.5 -46.5 Q93 -30 98 -13 Q75 -10 60.5 6 Q46 22 46 45 Q46 84 70.5 107.5 Q95 131 126 131 Q154 131 172.5 113 Q191 95 191 60 Q191 29 180 0 Q169 -29 150 -55.5 Q131 -82 106.5 -103.5 Q82 -125 55 -141 L24 -118 Z " />
<glyph glyph-name="hyphen" unicode="&#x2d;" horiz-adv-x="377" d="M116 248 L133 345 L366 345 L349 248 L116 248 Z " />
<glyph glyph-name="period" unicode="&#x2e;" horiz-adv-x="209" d="M105 -13 Q77 -13 61 5 Q45 23 45 48 Q45 65 51.5 80.5 Q58 96 69 107.5 Q80 119 94.5 125.5 Q109 132 125 132 Q154 132 170.5 114 Q187 96 187 71 Q187 36 163 11.5 Q139 -13 105 -13 Z " />
<glyph glyph-name="slash" unicode="&#x2f;" horiz-adv-x="469" d="M-37 -130 L489 712 L587 712 L61 -130 L-37 -130 Z " />
<glyph glyph-name="zero" unicode="0" horiz-adv-x="602" d="M309 -13 Q256 -13 218.5 9 Q181 31 157.5 68 Q134 105 123.5 152 Q113 199 113 250 Q113 326 129.5 407.5 Q146 489 182 557 Q218 625 275.5 669 Q333 713 416 713 Q473 713 510.5 689 Q548 665 570.5 627.5 Q593 590 602.5 543.5 Q612 497 612 452 Q612 404 605.5 350.5 Q599 297 584 245.5 Q569 194 545.5 147 Q522 100 488.5 64.5 Q455 29 410.5 8 Q366 -13 309 -13 Z M319 83 Q357 83 386.5 102.5 Q416 122 437 154 Q458 186 472.5 225.5 Q487 265 496 305 Q505 345 508.5 381 Q512 417 512 442 Q512 474 507 505.5 Q502 537 489.5 561.5 Q477 586 456.5 601.5 Q436 617 405 617 Q366 617 337 596.5 Q308 576 286.5 544 Q265 512 251 471.5 Q237 431 228.5 391 Q220 351 216.5 315.5 Q213 280 213 257 Q213 225 218 193.5 Q223 162 235.5 137.5 Q248 113 268.5 98 Q289 83 319 83 Z " />
<glyph glyph-name="one" unicode="1" horiz-adv-x="346" d="M137 0 L233 545 L125 545 L138 619 Q187 619 225.5 636 Q264 653 286 700 L361 700 L238 0 L137 0 Z " />
<glyph glyph-name="two" unicode="2" horiz-adv-x="570" d="M58 0 Q69 74 95.5 127.5 Q122 181 158.5 221 Q195 261 239 291.5 Q283 322 328 349 Q359 368 389.5 386 Q420 404 444.5 425 Q469 446 484 471 Q499 496 499 528 Q499 567 472.5 593 Q446 619 395 619 Q342 619 305.5 593.5 Q269 568 248 520 L167 562 Q199 628 260 670 Q321 712 405 712 Q450 712 486 698 Q522 684 548 660 Q574 636 588 603.5 Q602 571 602 534 Q602 482 583 443.5 Q564 405 532 374.5 Q500 344 457.5 317.5 Q415 291 367 263 Q337 246 310 227.5 Q283 209 260.5 188.5 Q238 168 221.5 145.5 Q205 123 197 98 L528 98 L511 0 L58 0 Z " />
<glyph glyph-name="three" unicode="3" horiz-adv-x="560" d="M300 -12 Q248 -12 208.5 2 Q169 16 140.5 39 Q112 62 94.5 91.5 Q77 121 69 152 L163 187 Q179 133 214 107.5 Q249 82 300 82 Q328 82 353 91 Q378 100 397.5 117 Q417 134 428.5 159 Q440 184 440 217 Q440 261 413 289 Q386 317 330 317 L273 317 L289 411 L341 411 Q369 411 392.5 420 Q416 429 433.5 444.5 Q451 460 461 482 Q471 504 471 530 Q471 568 445.5 593 Q420 618 376 618 Q330 618 297.5 595.5 Q265 573 245 531 L159 565 Q173 596 194.5 622.5 Q216 649 244.5 669 Q273 689 308.5 700.5 Q344 712 385 712 Q427 712 462 700 Q497 688 521.5 666 Q546 644 560 614 Q574 584 574 547 Q574 484 541.5 437.5 Q509 391 451 365 Q496 347 519.5 304.5 Q543 262 543 214 Q543 162 524 120.5 Q505 79 472 49.5 Q439 20 395 4 Q351 -12 300 -12 Z " />
<glyph glyph-name="four" unicode="4" horiz-adv-x="583" d="M356 0 L385 164 L48 164 L60 234 L484 700 L581 700 L503 258 L594 258 L577 164 L487 164 L458 0 L356 0 Z M402 258 L451 539 L198 258 L402 258 Z " />
<glyph glyph-name="five" unicode="5" horiz-adv-x="580" d="M155 166 Q165 151 178 136.5 Q191 122 209 110 Q227 98 250.5 90.5 Q274 83 306 83 Q340 83 370 93.5 Q400 104 422.5 124.5 Q445 145 458 174 Q471 203 471 240 Q471 266 463.5 289 Q456 312 441.5 328.5 Q427 345 405 354.5 Q383 364 353 364 Q308 364 276 346.5 Q244 329 221 303 L138 342 L236 700 L600 700 L584 603 L307 603 L252 420 Q273 435 304.5 446.5 Q336 458 379 458 Q423 458 459 443.5 Q495 429 520.5 402 Q546 375 560 336.5 Q574 298 574 250 Q574 190 554 142 Q534 94 497.5 59.5 Q461 25 409.5 6.5 Q358 -12 295 -12 Q253 -12 216.5 -1 Q180 10 151 28 Q122 46 101.5 69.5 Q81 93 71 118 L155 166 Z " />
<glyph glyph-name="six" unicode="6" horiz-adv-x="564" d="M297 -12 Q244 -12 204 5 Q164 22 137.5 52 Q111 82 97.5 122 Q84 162 84 209 Q84 290 116 373 Q148 456 208 526.5 Q268 597 354 647.5 Q440 698 547 713 L531 618 Q435 596 355.5 537 Q276 478 234 389 Q257 410 292.5 424.5 Q328 439 372 439 Q414 439 448 425 Q482 411 506 386 Q530 361 543.5 326.5 Q557 292 557 251 Q557 191 536.5 142 Q516 93 481 59 Q446 25 398.5 6.5 Q351 -12 297 -12 Z M302 82 Q335 82 363 93 Q391 104 412 123.5 Q433 143 445 170.5 Q457 198 457 232 Q457 282 426.5 313 Q396 344 344 344 Q312 344 284 333 Q256 322 235 302.5 Q214 283 202 255 Q190 227 190 193 Q190 144 219 113 Q248 82 302 82 Z " />
<glyph glyph-name="seven" unicode="7" horiz-adv-x="487" d="M151 0 Q181 166 249 315.5 Q317 465 442 605 L131 605 L147 700 L579 700 L565 617 Q491 544 437.5 461.5 Q384 379 347 297.5 Q310 216 288.5 139 Q267 62 257 0 L151 0 Z " />
<glyph glyph-name="eight" unicode="8" horiz-adv-x="577" d="M305 -12 Q255 -12 215 3.5 Q175 19 147 45.5 Q119 72 104 107.5 Q89 143 89 184 Q89 265 134.5 320 Q180 375 257 393 Q244 399 230 409.5 Q216 420 204 435.5 Q192 451 184.5 471.5 Q177 492 177 518 Q177 557 192.5 592.5 Q208 628 237.5 654.5 Q267 681 308.5 696.5 Q350 712 401 712 Q446 712 481.5 699 Q517 686 541.5 663.5 Q566 641 579 610 Q592 579 592 544 Q592 512 582 485.5 Q572 459 554.5 438 Q537 417 514 402.5 Q491 388 465 380 Q508 364 537 323 Q566 282 566 226 Q566 177 548 134 Q530 91 496.5 58.5 Q463 26 414.5 7 Q366 -12 305 -12 Z M313 80 Q344 80 371.5 90 Q399 100 418.5 118.5 Q438 137 449.5 163.5 Q461 190 461 224 Q461 246 453.5 266.5 Q446 287 431 302.5 Q416 318 393.5 327 Q371 336 341 336 Q308 336 281 325 Q254 314 234.5 295 Q215 276 204 250 Q193 224 193 193 Q193 142 225 111 Q257 80 313 80 Z M374 425 Q398 425 419 432.5 Q440 440 456 454 Q472 468 481 488 Q490 508 490 533 Q490 569 465.5 595 Q441 621 394 621 Q371 621 350 613.5 Q329 606 313 591.5 Q297 577 288 557 Q279 537 279 513 Q279 479 303 452 Q327 425 374 425 Z " />
<glyph glyph-name="nine" unicode="9" horiz-adv-x="564" d="M168 84 Q213 92 256.5 111 Q300 130 338.5 159.5 Q377 189 407.5 229 Q438 269 457 318 Q434 294 396 279 Q358 264 311 264 Q271 264 236.5 277 Q202 290 176.5 315 Q151 340 136.5 375 Q122 410 122 454 Q122 512 143.5 559.5 Q165 607 201.5 641 Q238 675 286.5 693.5 Q335 712 390 712 Q441 712 479.5 695.5 Q518 679 544.5 649.5 Q571 620 584.5 578.5 Q598 537 598 487 Q598 407 570 324 Q542 241 486.5 170 Q431 99 347 49.5 Q263 0 152 -12 L168 84 Z M334 356 Q370 356 399 368 Q428 380 449 400.5 Q470 421 481.5 448.5 Q493 476 493 507 Q493 554 465.5 585.5 Q438 617 382 617 Q349 617 320.5 605 Q292 593 271 572.5 Q250 552 237.5 524.5 Q225 497 225 465 Q225 415 255 385.5 Q285 356 334 356 Z " />
<glyph glyph-name="colon" unicode="&#x3a;" horiz-adv-x="209" d="M105 -13 Q77 -13 61 5 Q45 23 45 48 Q45 65 51.5 80.5 Q58 96 69 107.5 Q80 119 94.5 125.5 Q109 132 125 132 Q154 132 170.5 114 Q187 96 187 71 Q187 36 163 11.5 Q139 -13 105 -13 Z M166 339 Q139 339 122.5 357 Q106 375 106 400 Q106 417 112.5 432.5 Q119 448 130.5 459.5 Q142 471 156.5 477.5 Q171 484 187 484 Q216 484 232.5 466 Q249 448 249 423 Q249 388 225 363.5 Q201 339 166 339 Z " />
<glyph glyph-name="semicolon" unicode="&#x3b;" horiz-adv-x="209" d="M166 339 Q139 339 122.5 357 Q106 375 106 400 Q106 417 112.5 432.5 Q119 448 130.5 459.5 Q142 471 156.5 477.5 Q171 484 187 484 Q216 484 232.5 466 Q249 448 249 423 Q249 388 225 363.5 Q201 339 166 339 Z M22 -118 Q29 -112 39.5 -101 Q50 -90 60 -76 Q70 -62 79 -46 Q88 -30 93 -13 Q72 -9 58 6.5 Q44 22 44 45 Q44 84 68.5 107.5 Q93 131 124 131 Q152 131 170.5 113 Q189 95 189 60 Q189 29 178 0 Q167 -29 148 -55.5 Q129 -82 104.5 -103.5 Q80 -125 53 -141 L22 -118 Z " />
<glyph glyph-name="less" unicode="&#x3c;" horiz-adv-x="605" d="M595 109 L137 299 L137 385 L595 576 L595 475 L267 343 L595 210 L595 109 Z " />
<glyph glyph-name="equal" unicode="&#x3d;" horiz-adv-x="605" d="M131 199 L131 295 L589 295 L589 250 L589 199 L131 199 Z M131 389 L131 486 L589 486 L589 389 L131 389 Z " />
<glyph glyph-name="greater" unicode="&#x3e;" horiz-adv-x="605" d="M587 299 L129 109 L129 210 L457 343 L129 475 L129 576 L587 385 L587 299 Z " />
<glyph glyph-name="question" unicode="&#x3f;" horiz-adv-x="480" d="M216 189 L220 212 Q230 261 250 295.5 Q270 330 295 354.5 Q320 379 346 398 Q372 417 393.5 436.5 Q415 456 428.5 478.5 Q442 501 442 534 Q442 567 420 592 Q398 617 350 617 Q291 617 251 580.5 Q211 544 200 478 L103 478 Q113 532 137 575.5 Q161 619 196 649.5 Q231 680 274.5 696 Q318 712 367 712 Q409 712 442 699 Q475 686 497 663.5 Q519 641 530.5 611 Q542 581 542 547 Q542 499 527.5 467 Q513 435 490.5 410.5 Q468 386 440.5 366.5 Q413 347 388 326 Q363 305 343.5 278 Q324 251 317 212 L313 189 L216 189 Z M231 -13 Q203 -13 186.5 5 Q170 23 170 48 Q170 65 176.5 80.5 Q183 96 194.5 107.5 Q206 119 220.5 125.5 Q235 132 251 132 Q280 132 296.5 114 Q313 96 313 71 Q313 36 289 11.5 Q265 -13 231 -13 Z " />
<glyph glyph-name="at" unicode="&#x40;" horiz-adv-x="771" d="M394 -12 Q325 -12 270 8 Q215 28 176.5 65.5 Q138 103 117 157 Q96 211 96 278 Q96 367 129.5 446 Q163 525 221 584.5 Q279 644 357 678.5 Q435 713 524 713 Q590 713 641.5 693.5 Q693 674 729 640 Q765 606 784 560 Q803 514 803 460 Q803 396 784 341 Q765 286 733.5 245.5 Q702 205 661 182 Q620 159 575 159 Q542 159 521.5 175 Q501 191 499 223 Q475 190 442.5 172 Q410 154 378 154 Q326 154 295.5 192 Q265 230 265 293 Q265 341 282 384 Q299 427 328 460 Q357 493 396 512.5 Q435 532 479 532 Q515 532 537.5 513 Q560 494 564 462 L583 519 L663 519 L592 314 Q584 294 579.5 279.5 Q575 265 575 256 Q575 245 581 238 Q587 231 599 231 Q622 231 645 249 Q668 267 686 297 Q704 327 715 367 Q726 407 726 451 Q726 491 712 524.5 Q698 558 671 582 Q644 606 605 619 Q566 632 517 632 Q442 632 380.5 605 Q319 578 274.5 531 Q230 484 205.5 421.5 Q181 359 181 287 Q181 240 195 200 Q209 160 237 131 Q265 102 306.5 85 Q348 68 404 68 Q437 68 473.5 72.5 Q510 77 542 85 L506 0 Q483 -5 454.5 -8.5 Q426 -12 394 -12 Z M405 234 Q430 234 452.5 247 Q475 260 491.5 281.5 Q508 303 517.5 330 Q527 357 527 384 Q527 416 513 434.5 Q499 453 472 453 Q446 453 424 440 Q402 427 385.5 406 Q369 385 359.5 358 Q350 331 350 303 Q350 272 364.5 253 Q379 234 405 234 Z " />
<glyph glyph-name="A" unicode="A" horiz-adv-x="659" d="M519 0 L492 163 L231 163 L146 0 L37 0 L405 700 L499 700 L623 0 L519 0 Z M437 493 Q435 504 432 523.5 Q429 543 428 552 Q424 543 415.5 524.5 Q407 506 401 494 L278 255 L477 255 L437 493 Z " />
<glyph glyph-name="B" unicode="B" horiz-adv-x="635" d="M205 700 L463 700 Q515 700 550.5 686.5 Q586 673 608 650.5 Q630 628 639.5 599.5 Q649 571 649 542 Q649 506 638.5 477 Q628 448 610 425.5 Q592 403 569.5 387.5 Q547 372 523 363 Q571 348 597.5 307.5 Q624 267 624 215 Q624 174 610.5 135.5 Q597 97 566 67 Q535 37 486 18.5 Q437 0 366 0 L82 0 L205 700 Z M369 94 Q411 94 439.5 105 Q468 116 485.5 133.5 Q503 151 510.5 172.5 Q518 194 518 216 Q518 237 512 255 Q506 273 492.5 286.5 Q479 300 456 308 Q433 316 399 316 L241 316 L201 94 L369 94 Z M397 409 Q473 409 510.5 442 Q548 475 548 522 Q548 537 544 552 Q540 567 529 578.5 Q518 590 499.5 597.5 Q481 605 452 605 L291 605 L257 409 L397 409 Z " />
<glyph glyph-name="C" unicode="C" horiz-adv-x="613" d="M351 -12 Q289 -12 243.5 12 Q198 36 168.5 76.5 Q139 117 125 170 Q111 223 111 280 Q111 363 134.5 440.5 Q158 518 202.5 578 Q247 638 311.5 674.5 Q376 711 457 711 Q502 711 536.5 699 Q571 687 596.5 668 Q622 649 638.5 624.5 Q655 600 664 576 L575 534 Q556 570 525.5 592.5 Q495 615 450 615 Q393 615 349 584.5 Q305 554 275.5 507 Q246 460 231 401.5 Q216 343 216 288 Q216 251 224 214.5 Q232 178 249 149.5 Q266 121 293 103.5 Q320 86 358 86 Q413 86 450 112.5 Q487 139 511 175 L599 135 Q557 68 497 28 Q437 -12 351 -12 Z " />
<glyph glyph-name="D" unicode="D" horiz-adv-x="661" d="M205 700 L402 700 Q474 700 525.5 674 Q577 648 609.5 605 Q642 562 657 507 Q672 452 672 394 Q672 329 653 259 Q634 189 590 131.5 Q546 74 474 37 Q402 0 297 0 L82 0 L205 700 Z M304 95 Q375 95 424.5 123 Q474 151 505 194 Q536 237 550 289.5 Q564 342 564 391 Q564 433 554.5 472 Q545 511 524.5 540 Q504 569 472 586.5 Q440 604 395 604 L290 604 L200 95 L304 95 Z " />
<glyph glyph-name="E" unicode="E" horiz-adv-x="575" d="M82 0 L205 700 L627 700 L611 604 L292 604 L258 409 L458 409 L440 314 L241 314 L203 95 L542 95 L525 0 L82 0 Z " />
<glyph glyph-name="F" unicode="F" horiz-adv-x="538" d="M82 0 L205 700 L628 700 L612 604 L292 604 L258 411 L466 411 L448 312 L241 312 L186 0 L82 0 Z " />
<glyph glyph-name="G" unicode="G" horiz-adv-x="652" d="M356 -12 Q291 -12 244.5 12.5 Q198 37 168.5 77.5 Q139 118 125 171 Q111 224 111 281 Q111 363 133 440.5 Q155 518 198.5 578.5 Q242 639 307 675.5 Q372 712 457 712 Q503 712 538.5 699.5 Q574 687 599.5 667.5 Q625 648 642 624.5 Q659 601 669 579 L578 530 Q569 547 557.5 562.5 Q546 578 529.5 589.5 Q513 601 492.5 608 Q472 615 445 615 Q388 615 345 585.5 Q302 556 272.5 509 Q243 462 228 403.5 Q213 345 213 286 Q213 245 221.5 208.5 Q230 172 248 144.5 Q266 117 294 100.5 Q322 84 361 84 Q426 84 468.5 123 Q511 162 525 227 L530 254 L408 254 L425 345 L656 345 L646 291 Q632 208 604.5 150 Q577 92 539 56 Q501 20 454 4 Q407 -12 356 -12 Z " />
<glyph glyph-name="H" unicode="H" horiz-adv-x="673" d="M82 0 L205 700 L309 700 L258 410 L560 410 L611 700 L715 700 L592 0 L488 0 L543 313 L241 313 L186 0 L82 0 Z " />
<glyph glyph-name="I" unicode="I" horiz-adv-x="268" d="M82 0 L205 700 L309 700 L186 0 L82 0 Z " />
<glyph glyph-name="J" unicode="J" horiz-adv-x="522" d="M244 -12 Q166 -12 115 26 Q64 64 46 125 L135 164 Q149 129 173 107 Q197 85 242 85 Q294 85 327.5 118 Q361 151 375 228 L458 700 L562 700 L476 211 Q463 138 436.5 94 Q410 50 377 26.5 Q344 3 309 -4.5 Q274 -12 244 -12 Z " />
<glyph glyph-name="K" unicode="K" horiz-adv-x="645" d="M495 0 L369 365 L223 211 L186 0 L82 0 L205 700 L309 700 L251 369 L564 700 L687 700 L446 446 L604 0 L495 0 Z " />
<glyph glyph-name="L" unicode="L" horiz-adv-x="531" d="M82 0 L205 700 L309 700 L203 97 L529 97 L512 0 L82 0 Z " />
<glyph glyph-name="M" unicode="M" horiz-adv-x="767" d="M583 0 L657 420 Q659 431 662 446 Q665 461 667 468 Q662 456 654.5 443.5 Q647 431 642 422 L378 -12 L274 420 Q272 429 269.5 440.5 Q267 452 265 465 Q264 455 262 441.5 Q260 428 258 419 L185 0 L82 0 L205 700 L307 700 L404 274 Q409 257 411 243 Q413 229 415 217 Q420 229 427 241 Q434 253 442 266 L708 700 L809 700 L686 0 L583 0 Z " />
<glyph glyph-name="N" unicode="N" horiz-adv-x="676" d="M499 0 L298 453 Q296 457 292 466.5 Q288 476 284.5 485.5 Q281 495 277.5 503.5 Q274 512 273 515 Q273 512 272 504 Q271 496 269.5 486 Q268 476 266.5 466.5 Q265 457 264 452 L184 0 L82 0 L205 700 L301 700 L508 229 Q511 222 517.5 205.5 Q524 189 526 182 Q527 189 529 204.5 Q531 220 533 228 L616 700 L718 700 L595 0 L499 0 Z " />
<glyph glyph-name="O" unicode="O" horiz-adv-x="689" d="M361 84 Q419 84 463.5 113.5 Q508 143 538 190.5 Q568 238 583.5 298.5 Q599 359 599 421 Q599 457 591 491.5 Q583 526 565 553.5 Q547 581 518.5 598 Q490 615 450 615 Q391 615 346.5 584.5 Q302 554 272.5 506 Q243 458 228 398.5 Q213 339 213 281 Q213 243 221 208 Q229 173 247 145 Q265 117 293 100.5 Q321 84 361 84 Z M361 -12 Q293 -12 245.5 12.5 Q198 37 168 78 Q138 119 124.5 171.5 Q111 224 111 281 Q111 359 132.5 436.5 Q154 514 197.5 575 Q241 636 305 674 Q369 712 455 712 Q520 712 566.5 687 Q613 662 643 621 Q673 580 687 528 Q701 476 701 421 Q701 341 679 263.5 Q657 186 614 124.5 Q571 63 507.5 25.5 Q444 -12 361 -12 Z " />
<glyph glyph-name="P" unicode="P" horiz-adv-x="604" d="M82 0 L205 700 L473 700 Q525 700 561.5 683.5 Q598 667 621 640.5 Q644 614 654 581 Q664 548 664 515 Q664 470 648.5 426.5 Q633 383 602 349 Q571 315 523 294.5 Q475 274 411 274 L234 274 L186 0 L82 0 Z M422 368 Q460 368 486.5 381 Q513 394 529.5 414 Q546 434 553.5 458.5 Q561 483 561 506 Q561 523 556.5 541 Q552 559 541 573.5 Q530 588 511 597 Q492 606 464 606 L292 606 L250 368 L422 368 Z " />
<glyph glyph-name="Q" unicode="Q" horiz-adv-x="689" d="M361 -12 Q293 -12 245.5 12.5 Q198 37 168 78 Q138 119 124.5 171.5 Q111 224 111 281 Q111 359 132.5 436.5 Q154 514 197.5 575 Q241 636 305 674 Q369 712 455 712 Q520 712 566.5 687 Q613 662 643 621 Q673 580 687 528 Q701 476 701 421 Q701 368 691 315 Q681 262 661.5 213.5 Q642 165 613.5 123.5 Q585 82 547 52 L587 -32 L503 -75 L464 7 Q441 -2 415.5 -7 Q390 -12 361 -12 Z M361 84 Q378 84 393 87.5 Q408 91 422 97 L384 177 L469 219 L503 146 Q527 170 545 201.5 Q563 233 575 269 Q587 305 593 343.5 Q599 382 599 421 Q599 457 591 491.5 Q583 526 565 553.5 Q547 581 518.5 598 Q490 615 450 615 Q391 615 346.5 584.5 Q302 554 272.5 506 Q243 458 228 398.5 Q213 339 213 281 Q213 243 221 208 Q229 173 247 145 Q265 117 293 100.5 Q321 84 361 84 Z " />
<glyph glyph-name="R" unicode="R" horiz-adv-x="639" d="M671 508 Q671 475 661 441 Q651 407 629.5 377.5 Q608 348 572.5 325.5 Q537 303 486 294 L576 0 L467 0 L379 288 L236 288 L186 0 L82 0 L205 700 L469 700 Q526 700 565 682.5 Q604 665 627.5 637.5 Q651 610 661 576 Q671 542 671 508 Z M429 383 Q471 383 497.5 394.5 Q524 406 540 424 Q556 442 562 463.5 Q568 485 568 505 Q568 524 562.5 541.5 Q557 559 544.5 573 Q532 587 511.5 595.5 Q491 604 461 604 L292 604 L253 383 L429 383 Z " />
<glyph glyph-name="S" unicode="S" horiz-adv-x="575" d="M493 544 Q482 574 455 596 Q428 618 380 618 Q324 618 293 591.5 Q262 565 262 526 Q262 495 283.5 475.5 Q305 456 338 439.5 Q371 423 408.5 406 Q446 389 479 363.5 Q512 338 533.5 301 Q555 264 555 208 Q555 156 536 115 Q517 74 483.5 46 Q450 18 403 3 Q356 -12 300 -12 Q255 -12 219 1 Q183 14 155 36.5 Q127 59 108.5 89.5 Q90 120 80 155 L175 190 Q192 140 225 112 Q258 84 313 84 Q374 84 411 113.5 Q448 143 448 199 Q448 236 426.5 259.5 Q405 283 373 301 Q341 319 303 336 Q265 353 233 376.5 Q201 400 179.5 434 Q158 468 158 520 Q158 561 174 596 Q190 631 219.5 657 Q249 683 291.5 697.5 Q334 712 387 712 Q432 712 466 700.5 Q500 689 524.5 670 Q549 651 564 626.5 Q579 602 585 577 L493 544 Z " />
<glyph glyph-name="T" unicode="T" horiz-adv-x="561" d="M439 603 L332 0 L229 0 L336 603 L150 603 L166 700 L641 700 L625 603 L439 603 Z " />
<glyph glyph-name="U" unicode="U" horiz-adv-x="664" d="M345 -12 Q298 -12 257 0.5 Q216 13 186 39 Q156 65 138.5 105 Q121 145 121 200 Q121 217 122.5 238 Q124 259 130 291 L202 700 L305 700 L231 276 Q227 253 225.5 237.5 Q224 222 224 208 Q224 172 234.5 148.5 Q245 125 262.5 110.5 Q280 96 303 90.5 Q326 85 351 85 Q382 85 410.5 93 Q439 101 462.5 121 Q486 141 504 176 Q522 211 531 264 L608 700 L710 700 L633 258 Q619 181 593.5 129 Q568 77 531 45.5 Q494 14 447 1 Q400 -12 345 -12 Z " />
<glyph glyph-name="V" unicode="V" horiz-adv-x="631" d="M367 0 L272 0 L161 700 L267 700 L337 222 Q339 205 341 184 Q343 163 343 153 Q346 164 353 181.5 Q360 199 369 216 L606 700 L718 700 L367 0 Z " />
<glyph glyph-name="W" unicode="W" horiz-adv-x="801" d="M887 700 L625 0 L532 0 L490 451 Q488 467 487.5 482 Q487 497 487 504 Q485 499 480 484.5 Q475 470 467 453 L264 0 L171 0 L161 700 L263 700 L264 252 Q264 239 263.5 223 Q263 207 263 202 Q265 207 271 222 Q277 237 283 252 L476 700 L561 700 L598 249 Q599 238 599.5 222 Q600 206 600 201 Q602 206 606.5 220 Q611 234 616 247 L779 700 L887 700 Z " />
<glyph glyph-name="X" unicode="X" horiz-adv-x="597" d="M451 0 L348 265 L156 0 L34 0 L306 369 L174 700 L284 700 L375 461 L549 700 L670 700 L417 358 L560 0 L451 0 Z " />
<glyph glyph-name="Y" unicode="Y" horiz-adv-x="623" d="M259 0 L309 281 L151 700 L257 700 L373 377 L604 700 L717 700 L410 276 L361 0 L259 0 Z " />
<glyph glyph-name="Z" unicode="Z" horiz-adv-x="610" d="M53 0 L66 76 L525 605 L181 605 L197 700 L676 700 L662 623 L205 95 L570 95 L553 0 L53 0 Z " />
<glyph glyph-name="bracketleft" unicode="&#x5b;" horiz-adv-x="354" d="M72 -130 L221 712 L442 712 L425 618 L301 618 L186 -36 L310 -36 L293 -130 L72 -130 Z " />
<glyph glyph-name="backslash" unicode="&#x5c;" horiz-adv-x="469" d="M340 -130 L112 712 L207 712 L436 -130 L340 -130 Z " />
<glyph glyph-name="bracketright" unicode="&#x5d;" horiz-adv-x="354" d="M15 -130 L32 -36 L156 -36 L271 618 L147 618 L164 712 L386 712 L237 -130 L15 -130 Z " />
<glyph glyph-name="asciicircum" unicode="&#x5e;" horiz-adv-x="605" d="M498 351 L387 584 L231 351 L132 351 L353 712 L437 712 L597 351 L498 351 Z " />
<glyph glyph-name="underscore" unicode="&#x5f;" horiz-adv-x="480" d="M-36 -177 L-21 -89 L469 -89 L454 -177 L-36 -177 Z " />
<glyph glyph-name="grave" unicode="&#x60;" horiz-adv-x="374" d="M309 576 L163 732 L295 732 L404 576 L309 576 Z " />
<glyph glyph-name="a" unicode="a" horiz-adv-x="509" d="M352 0 L359 41 Q337 21 300.5 4.5 Q264 -12 218 -12 Q150 -12 107.5 27.5 Q65 67 65 136 Q65 184 82.5 220 Q100 256 130 280 Q160 304 200 316 Q240 328 284 328 Q323 328 353 317.5 Q383 307 403 294 L409 326 Q414 351 414 364 Q414 404 390 419.5 Q366 435 334 435 Q292 435 249 419 Q206 403 173 382 L159 465 Q195 487 242.5 505 Q290 523 347 523 Q372 523 400.5 516.5 Q429 510 453.5 493 Q478 476 494 447.5 Q510 419 510 376 Q510 365 508.5 351 Q507 337 504 322 L448 0 L352 0 Z M242 75 Q284 75 318 93 Q352 111 375 134 L389 211 Q372 221 345 231.5 Q318 242 282 242 Q259 242 237.5 236.5 Q216 231 199 219.5 Q182 208 172 189.5 Q162 171 162 145 Q162 115 182.5 95 Q203 75 242 75 Z " />
<glyph glyph-name="b" unicode="b" horiz-adv-x="531" d="M296 -12 Q253 -12 221.5 5.5 Q190 23 176 45 L168 0 L71 0 L191 685 L297 722 L253 472 Q273 492 304.5 507.5 Q336 523 377 523 Q413 523 443.5 508.5 Q474 494 496.5 466.5 Q519 439 531.5 400 Q544 361 544 312 Q544 234 524 174 Q504 114 470.5 72.5 Q437 31 392 9.5 Q347 -12 296 -12 Z M289 82 Q326 82 355 99.5 Q384 117 403.5 147 Q423 177 433.5 217.5 Q444 258 444 304 Q444 363 418.5 396 Q393 429 346 429 Q312 429 282 411.5 Q252 394 235 371 L194 139 Q207 115 230.5 98.5 Q254 82 289 82 Z " />
<glyph glyph-name="c" unicode="c" horiz-adv-x="480" d="M263 -12 Q220 -12 186 4 Q152 20 128.5 48.5 Q105 77 92.5 117 Q80 157 80 205 Q80 274 98.5 332 Q117 390 150.5 432.5 Q184 475 231.5 499 Q279 523 337 523 Q403 523 448 488.5 Q493 454 507 394 L411 361 Q404 390 384 409.5 Q364 429 326 429 Q291 429 264 411 Q237 393 218.5 362.5 Q200 332 190.5 292.5 Q181 253 181 210 Q181 153 203 117.5 Q225 82 270 82 Q304 82 332.5 99.5 Q361 117 380 158 L466 127 Q439 61 386 24.5 Q333 -12 263 -12 Z " />
<glyph glyph-name="d" unicode="d" horiz-adv-x="532" d="M246 -12 Q207 -12 176 3.5 Q145 19 124 47.5 Q103 76 91.5 115.5 Q80 155 80 204 Q80 278 100 337 Q120 396 155 437.5 Q190 479 236.5 501 Q283 523 336 523 Q381 523 407.5 506.5 Q434 490 447 473 L485 685 L591 722 L464 0 L366 0 L373 44 Q350 17 318 2.5 Q286 -12 246 -12 Z M276 82 Q314 82 343.5 101.5 Q373 121 390 142 L430 371 Q421 391 399 410 Q377 429 338 429 Q300 429 271 412.5 Q242 396 222 366.5 Q202 337 191.5 297 Q181 257 181 211 Q181 184 186.5 160 Q192 136 203.5 119 Q215 102 233 92 Q251 82 276 82 Z " />
<glyph glyph-name="e" unicode="e" horiz-adv-x="508" d="M271 -12 Q226 -12 189.5 3.5 Q153 19 127.5 47 Q102 75 88.5 115 Q75 155 75 204 Q75 268 94 326 Q113 384 148 427.5 Q183 471 232.5 497 Q282 523 344 523 Q429 523 477.5 474 Q526 425 526 326 Q526 295 520.5 268 Q515 241 507 216 L177 216 L177 204 Q177 144 206 110.5 Q235 77 283 77 Q312 77 342.5 89 Q373 101 400 124 L448 56 Q413 24 369.5 6 Q326 -12 271 -12 Z M334 434 Q305 434 281.5 424 Q258 414 240 396 Q222 378 209.5 354 Q197 330 191 302 L427 302 Q430 325 429 339 Q427 366 419 384 Q411 402 398 413.5 Q385 425 368.5 429.5 Q352 434 334 434 Z " />
<glyph glyph-name="f" unicode="f" horiz-adv-x="315" d="M267 422 L192 0 L93 0 L168 422 L92 422 L108 511 L183 511 L198 596 Q204 630 218 653 Q232 676 250 689 Q268 702 289.5 707.5 Q311 713 332 713 Q359 713 381.5 705.5 Q404 698 424 687 L409 604 Q389 614 373.5 618 Q358 622 342 622 Q319 622 308.5 608.5 Q298 595 294 575 L282 511 L390 511 L375 422 L267 422 Z " />
<glyph glyph-name="g" unicode="g" horiz-adv-x="532" d="M157 -125 Q210 -122 247 -112 Q284 -102 308 -86.5 Q332 -71 345 -50 Q358 -29 363 -4 L371 43 Q352 20 321.5 4 Q291 -12 246 -12 Q207 -12 176.5 3.5 Q146 19 124.5 47 Q103 75 91.5 113.5 Q80 152 80 198 Q80 270 99 330 Q118 390 152 433 Q186 476 231.5 499.5 Q277 523 331 523 Q364 523 395 509 Q426 495 446 468 L454 511 L554 511 L464 10 Q453 -53 429 -94 Q405 -135 369.5 -159 Q334 -183 289 -193.5 Q244 -204 190 -207 L157 -125 Z M276 82 Q312 82 341.5 100.5 Q371 119 389 145 L429 369 Q420 391 395.5 410 Q371 429 333 429 Q296 429 267.5 411.5 Q239 394 219.5 364 Q200 334 190 294 Q180 254 180 210 Q180 153 205 117.5 Q230 82 276 82 Z " />
<glyph glyph-name="h" unicode="h" horiz-adv-x="538" d="M372 0 L425 297 Q427 308 428.5 321 Q430 334 430 345 Q430 390 408.5 410 Q387 430 351 430 Q330 430 310 423.5 Q290 417 272.5 402 Q255 387 242 363 Q229 339 223 304 L170 0 L71 0 L191 685 L297 722 L250 456 Q275 486 308.5 504.5 Q342 523 383 523 Q458 523 494 481.5 Q530 440 530 368 Q530 351 527.5 329.5 Q525 308 521 287 L470 0 L372 0 Z " />
<glyph glyph-name="i" unicode="i" horiz-adv-x="241" d="M71 0 L161 511 L260 511 L170 0 L71 0 Z M226 594 Q203 594 189 608.5 Q175 623 175 644 Q175 674 196 694.5 Q217 715 242 715 Q266 715 280 700.5 Q294 686 294 665 Q294 635 273 614.5 Q252 594 226 594 Z " />
<glyph glyph-name="j" unicode="j" horiz-adv-x="245" d="M-75 -136 Q-39 -131 -14 -122.5 Q11 -114 27.5 -101 Q44 -88 53.5 -69.5 Q63 -51 67 -25 L162 511 L261 511 L167 -22 Q159 -69 143 -103 Q127 -137 102 -160 Q77 -183 41.5 -197 Q6 -211 -42 -219 L-75 -136 Z M226 594 Q203 594 189.5 608.5 Q176 623 176 644 Q176 674 197 694.5 Q218 715 243 715 Q267 715 281 700.5 Q295 686 295 665 Q295 635 273.5 614.5 Q252 594 226 594 Z " />
<glyph glyph-name="k" unicode="k" horiz-adv-x="503" d="M366 361 L484 0 L377 0 L287 291 L208 219 L170 0 L71 0 L191 685 L297 722 L231 348 L410 511 L534 511 L366 361 Z " />
<glyph glyph-name="l" unicode="l" horiz-adv-x="249" d="M73 0 L194 685 L300 722 L172 0 L73 0 Z " />
<glyph glyph-name="m" unicode="m" horiz-adv-x="817" d="M645 0 L700 310 Q703 329 703 346 Q703 392 681 411 Q659 430 631 430 Q614 430 595.5 423 Q577 416 560.5 401.5 Q544 387 531.5 364.5 Q519 342 514 311 L459 0 L358 0 L412 310 Q416 327 416 346 Q416 392 394 411 Q372 430 343 430 Q326 430 307.5 423 Q289 416 272.5 401.5 Q256 387 243 364.5 Q230 342 225 311 L170 0 L71 0 L161 511 L258 511 L250 462 Q276 491 311.5 507 Q347 523 385 523 Q426 523 456.5 502 Q487 481 501 446 Q564 523 661 523 Q688 523 714.5 514 Q741 505 762 487 Q783 469 796 441 Q809 413 809 374 Q809 363 808 352.5 Q807 342 805 330 L746 0 L645 0 Z " />
<glyph glyph-name="n" unicode="n" horiz-adv-x="538" d="M372 0 L424 295 Q429 320 429 343 Q429 385 409 407.5 Q389 430 350 430 Q329 430 308.5 421.5 Q288 413 270.5 396.5 Q253 380 240.5 356.5 Q228 333 223 302 L170 0 L71 0 L161 511 L260 511 L251 457 Q275 487 309.5 505 Q344 523 382 523 Q455 523 492.5 479.5 Q530 436 530 361 Q530 327 522 287 L471 0 L372 0 Z " />
<glyph glyph-name="o" unicode="o" horiz-adv-x="522" d="M271 -12 Q221 -12 185 4 Q149 20 125.5 48.5 Q102 77 90.5 117 Q79 157 79 204 Q79 265 97 323 Q115 381 148.5 425 Q182 469 231.5 496 Q281 523 344 523 Q391 523 426.5 506 Q462 489 485.5 460 Q509 431 520.5 392 Q532 353 532 310 Q532 247 514.5 189 Q497 131 463.5 86 Q430 41 381.5 14.5 Q333 -12 271 -12 Z M276 82 Q313 82 342.5 100.5 Q372 119 392 150 Q412 181 422.5 219.5 Q433 258 433 299 Q433 326 427.5 349.5 Q422 373 410 391 Q398 409 379 419 Q360 429 334 429 Q297 429 268 410 Q239 391 219 360.5 Q199 330 188.5 291.5 Q178 253 178 213 Q178 156 201.5 119 Q225 82 276 82 Z " />
<glyph glyph-name="p" unicode="p" horiz-adv-x="534" d="M300 -12 Q253 -12 223.5 5 Q194 22 177 45 L140 -165 L34 -202 L160 511 L259 511 L251 467 Q273 490 304.5 506.5 Q336 523 382 523 Q418 523 447.5 508 Q477 493 499 465.5 Q521 438 533 398.5 Q545 359 545 310 Q545 233 524.5 173 Q504 113 469.5 72 Q435 31 391 9.5 Q347 -12 300 -12 Z M295 82 Q329 82 356.5 98 Q384 114 403.5 142.5 Q423 171 434 211 Q445 251 445 299 Q445 358 421.5 393.5 Q398 429 350 429 Q314 429 282.5 411 Q251 393 233 366 L194 142 Q208 116 232 99 Q256 82 295 82 Z " />
<glyph glyph-name="q" unicode="q" horiz-adv-x="533" d="M242 -12 Q167 -12 123 44.5 Q79 101 79 199 Q79 273 99 333 Q119 393 153.5 435 Q188 477 233.5 500 Q279 523 331 523 Q380 523 408 504.5 Q436 486 447 466 L455 511 L554 511 L435 -164 L329 -200 L372 44 Q347 19 316 3.5 Q285 -12 242 -12 Z M275 82 Q294 82 311 88 Q328 94 343 103 Q358 112 369.5 122.5 Q381 133 390 143 L429 368 Q419 397 394.5 413 Q370 429 338 429 Q304 429 275 411.5 Q246 394 225 364 Q204 334 192 293.5 Q180 253 180 207 Q180 148 203.5 115 Q227 82 275 82 Z " />
<glyph glyph-name="r" unicode="r" horiz-adv-x="377" d="M69 0 L159 511 L258 511 L247 451 Q272 486 305 504.5 Q338 523 373 523 Q396 523 415 514.5 Q434 506 447 493 L417 399 Q405 409 387.5 417 Q370 425 347 425 Q331 425 312 418.5 Q293 412 274.5 396 Q256 380 241 353.5 Q226 327 219 287 L168 0 L69 0 Z " />
<glyph glyph-name="s" unicode="s" horiz-adv-x="445" d="M391 388 Q377 405 353 421.5 Q329 438 289 438 Q254 438 230.5 421.5 Q207 405 207 377 Q207 358 223.5 344 Q240 330 265 318 Q290 306 319.5 292 Q349 278 374 259 Q399 240 415.5 212.5 Q432 185 432 146 Q432 73 378.5 30.5 Q325 -12 234 -12 Q173 -12 125.5 13.5 Q78 39 55 79 L128 136 Q143 114 171.5 94 Q200 74 242 74 Q278 74 305.5 90.5 Q333 107 333 140 Q333 162 316.5 177 Q300 192 275.5 205.5 Q251 219 222 232.5 Q193 246 168.5 264.5 Q144 283 127.5 308.5 Q111 334 111 371 Q111 407 125 435 Q139 463 164 482.5 Q189 502 223 512.5 Q257 523 297 523 Q357 523 400 499 Q443 475 464 443 L391 388 Z " />
<glyph glyph-name="t" unicode="t" horiz-adv-x="351" d="M270 422 L222 152 Q220 139 218.5 130 Q217 121 217 113 Q217 96 225.5 86.5 Q234 77 256 77 Q278 77 296 83.5 Q314 90 333 100 L310 9 Q266 -12 210 -12 Q164 -12 139.5 14 Q115 40 115 82 Q115 93 116.5 107.5 Q118 122 121 137 L171 422 L89 422 L105 511 L186 511 L217 685 L322 722 L285 511 L401 511 L386 422 L270 422 Z " />
<glyph glyph-name="u" unicode="u" horiz-adv-x="538" d="M370 0 L379 48 Q328 -12 239 -12 Q208 -12 181.5 -2.5 Q155 7 135.5 26.5 Q116 46 105 76 Q94 106 94 146 Q94 160 96 175.5 Q98 191 100 208 L153 511 L253 511 L200 214 Q197 197 196 186 Q195 175 195 167 Q195 122 217 102 Q239 82 274 82 Q296 82 317.5 88 Q339 94 356.5 108.5 Q374 123 387 146 Q400 169 406 203 L460 511 L559 511 L469 0 L370 0 Z " />
<glyph glyph-name="v" unicode="v" horiz-adv-x="495" d="M299 0 L204 0 L113 511 L212 511 L265 185 Q267 173 269 157.5 Q271 142 271 136 Q274 142 281.5 157.5 Q289 173 295 185 L462 511 L565 511 L299 0 Z " />
<glyph glyph-name="w" unicode="w" horiz-adv-x="684" d="M536 0 L445 0 L410 298 Q408 311 407 329.5 Q406 348 406 356 Q404 352 401 344 Q398 336 394.5 327.5 Q391 319 387.5 310.5 Q384 302 382 297 L249 0 L159 0 L115 511 L210 511 L227 193 Q228 179 228 163.5 Q228 148 228 140 Q231 148 238 164.5 Q245 181 250 193 L388 511 L473 511 L503 193 Q505 178 505.5 161.5 Q506 145 506 140 Q509 148 514.5 163.5 Q520 179 526 193 L651 511 L749 511 L536 0 Z " />
<glyph glyph-name="x" unicode="x" horiz-adv-x="510" d="M245 266 L129 511 L237 511 L313 348 L446 511 L559 511 L355 261 L479 0 L372 0 L287 179 L141 0 L28 0 L245 266 Z " />
<glyph glyph-name="y" unicode="y" horiz-adv-x="504" d="M199 -194 L93 -194 L203 13 L109 511 L209 511 L266 178 Q268 165 270 153 Q272 141 273 136 Q275 142 281.5 154.5 Q288 167 294 178 L471 511 L578 511 L199 -194 Z " />
<glyph glyph-name="z" unicode="z" horiz-adv-x="482" d="M51 0 L64 72 L369 421 L144 421 L160 511 L517 511 L505 440 L198 89 L442 89 L426 0 L51 0 Z " />
<glyph glyph-name="braceleft" unicode="&#x7b;" horiz-adv-x="349" d="M292 -130 Q220 -124 174.5 -82 Q129 -40 129 46 Q129 75 135 110 L144 160 Q145 167 145.5 174 Q146 181 146 187 Q146 214 135 230.5 Q124 247 103 247 L86 247 L102 335 L118 335 Q144 335 163 359 Q182 383 189 422 L205 512 Q222 606 283.5 659 Q345 712 441 712 L425 622 Q373 620 341.5 588 Q310 556 299 497 L286 422 Q279 381 267 356 Q255 331 239 316.5 Q223 302 203 297 Q183 292 160 291 L159 287 Q193 284 217.5 262.5 Q242 241 242 189 Q242 178 240.5 167 Q239 156 237 142 L226 81 Q224 71 223 62.5 Q222 54 222 46 Q222 5 243 -17.5 Q264 -40 308 -42 L292 -130 Z " />
<glyph glyph-name="bar" unicode="&#x7c;" horiz-adv-x="259" d="M46 -205 L224 805 L321 805 L143 -205 L46 -205 Z " />
<glyph glyph-name="braceright" unicode="&#x7d;" horiz-adv-x="349" d="M26 -41 Q79 -39 110 -6.5 Q141 26 152 85 L164 154 Q177 227 208 259.5 Q239 292 294 292 L295 296 Q257 304 234 327.5 Q211 351 211 398 Q211 407 212 417.5 Q213 428 215 439 L225 497 Q227 507 228 516.5 Q229 526 229 534 Q229 620 143 624 L159 712 Q237 708 280.5 667 Q324 626 324 540 Q324 524 322 507 Q320 490 317 471 L309 424 Q307 415 306 406.5 Q305 398 305 384 Q305 361 316 347.5 Q327 334 349 334 L365 334 L349 247 L335 247 Q307 247 288.5 223 Q270 199 263 160 L246 67 Q229 -28 171 -79 Q113 -130 10 -130 L26 -41 Z " />
<glyph glyph-name="asciitilde" unicode="&#x7e;" horiz-adv-x="605" d="M454 265 Q424 265 398.5 274 Q373 283 350.5 294 Q328 305 307.5 314 Q287 323 266 323 Q239 323 222.5 307 Q206 291 201 265 L133 265 Q135 295 144 323 Q153 351 170 372.5 Q187 394 212 407 Q237 420 272 420 Q302 420 327.5 411 Q353 402 375.5 391 Q398 380 418.5 371 Q439 362 460 362 Q487 362 503.5 378 Q520 394 525 420 L593 420 Q591 390 582 362 Q573 334 556 312.5 Q539 291 513.5 278 Q488 265 454 265 Z " />
<glyph glyph-name="Adieresis" unicode="&#xc4;" horiz-adv-x="659" d="M519 0 L492 163 L231 163 L146 0 L37 0 L405 700 L499 700 L623 0 L519 0 Z M437 493 Q435 504 432 523.5 Q429 543 428 552 Q424 543 415.5 524.5 Q407 506 401 494 L278 255 L477 255 L437 493 Z M381 783 Q359 783 345.5 798 Q332 813 332 834 Q332 863 352.5 883 Q373 903 399 903 Q422 903 435.5 888.5 Q449 874 449 853 Q449 824 428.5 803.5 Q408 783 381 783 Z M553 783 Q530 783 516.5 798 Q503 813 503 834 Q503 863 524 883 Q545 903 571 903 Q594 903 607.5 888.5 Q621 874 621 853 Q621 824 600 803.5 Q579 783 553 783 Z " />
<glyph glyph-name="Aring" unicode="&#xc5;" horiz-adv-x="659" d="M519 0 L492 163 L231 163 L146 0 L37 0 L375 644 Q360 657 348.5 679 Q337 701 337 730 Q337 754 346.5 777.5 Q356 801 374 820 Q392 839 417 850.5 Q442 862 473 862 Q520 862 550.5 832 Q581 802 581 759 Q581 723 560.5 693 Q540 663 509 645 L623 0 L519 0 Z M438 488 Q436 501 433 519.5 Q430 538 428 551 Q423 539 413.5 520.5 Q404 502 397 488 L278 255 L477 255 L438 488 Z M452 692 Q473 692 489 708.5 Q505 725 505 749 Q505 767 495 779.5 Q485 792 465 792 Q443 792 427.5 776 Q412 760 412 738 Q412 718 422.5 705 Q433 692 452 692 Z " />
<glyph glyph-name="Ccedilla" unicode="&#xc7;" horiz-adv-x="613" d="M286 -239 Q251 -239 230 -229 Q209 -219 197 -202 L253 -166 Q260 -180 286 -180 Q310 -180 327 -166 Q344 -152 344 -130 Q344 -114 331 -103 Q318 -92 298 -92 Q275 -92 259 -101 L243 -77 L308 -9 Q257 -3 220 21.5 Q183 46 159 84 Q135 122 123 170.5 Q111 219 111 273 Q111 354 133 432.5 Q155 511 199 573 Q243 635 308 673 Q373 711 459 711 Q504 711 538 700.5 Q572 690 596.5 671.5 Q621 653 637.5 628.5 Q654 604 664 576 L570 532 Q563 548 552.5 563 Q542 578 528 589.5 Q514 601 494.5 608 Q475 615 450 615 Q391 615 347 583.5 Q303 552 274 503 Q245 454 230.5 395 Q216 336 216 282 Q216 243 224 207.5 Q232 172 249 145 Q266 118 292 102 Q318 86 354 86 Q408 86 446 110 Q484 134 510 174 L597 137 Q557 71 498.5 32.5 Q440 -6 363 -11 L334 -51 Q383 -51 404 -72.5 Q425 -94 425 -122 Q425 -147 414.5 -168.5 Q404 -190 385.5 -205.5 Q367 -221 341.5 -230 Q316 -239 286 -239 Z " />
<glyph glyph-name="Eacute" unicode="&#xc9;" horiz-adv-x="575" d="M82 0 L205 700 L627 700 L611 604 L292 604 L258 409 L458 409 L440 314 L241 314 L203 95 L542 95 L525 0 L82 0 Z M456 766 L361 766 L525 922 L656 922 L456 766 Z " />
<glyph glyph-name="Ntilde" unicode="&#xd1;" horiz-adv-x="676" d="M499 0 L298 453 Q296 457 292 466.5 Q288 476 284.5 485.5 Q281 495 277.5 503.5 Q274 512 273 515 Q273 512 272 504 Q271 496 269.5 486 Q268 476 266.5 466.5 Q265 457 264 452 L184 0 L82 0 L205 700 L301 700 L508 229 Q511 222 517.5 205.5 Q524 189 526 182 Q527 189 529 204.5 Q531 220 533 228 L616 700 L718 700 L595 0 L499 0 Z M550 782 Q524 782 504.5 789.5 Q485 797 467.5 806 Q450 815 434 822.5 Q418 830 400 830 Q382 830 367 819.5 Q352 809 347 786 L299 786 Q309 843 338 876.5 Q367 910 421 910 Q446 910 466 902.5 Q486 895 503 886 Q520 877 536 869.5 Q552 862 570 862 Q588 862 603 872.5 Q618 883 624 906 L671 906 Q661 849 632.5 815.5 Q604 782 550 782 Z " />
<glyph glyph-name="Odieresis" unicode="&#xd6;" horiz-adv-x="689" d="M361 84 Q419 84 463.5 113.5 Q508 143 538 190.5 Q568 238 583.5 298.5 Q599 359 599 421 Q599 457 591 491.5 Q583 526 565 553.5 Q547 581 518.5 598 Q490 615 450 615 Q391 615 346.5 584.5 Q302 554 272.5 506 Q243 458 228 398.5 Q213 339 213 281 Q213 243 221 208 Q229 173 247 145 Q265 117 293 100.5 Q321 84 361 84 Z M361 -12 Q293 -12 245.5 12.5 Q198 37 168 78 Q138 119 124.5 171.5 Q111 224 111 281 Q111 359 132.5 436.5 Q154 514 197.5 575 Q241 636 305 674 Q369 712 455 712 Q520 712 566.5 687 Q613 662 643 621 Q673 580 687 528 Q701 476 701 421 Q701 341 679 263.5 Q657 186 614 124.5 Q571 63 507.5 25.5 Q444 -12 361 -12 Z M402 783 Q380 783 366.5 798 Q353 813 353 834 Q353 863 373.5 883 Q394 903 420 903 Q443 903 456.5 888.5 Q470 874 470 853 Q470 824 449.5 803.5 Q429 783 402 783 Z M574 783 Q551 783 537.5 798 Q524 813 524 834 Q524 863 545 883 Q566 903 592 903 Q615 903 628.5 888.5 Q642 874 642 853 Q642 824 621 803.5 Q600 783 574 783 Z " />
<glyph glyph-name="Udieresis" unicode="&#xdc;" horiz-adv-x="664" d="M345 -12 Q298 -12 257 0.5 Q216 13 186 39 Q156 65 138.5 105 Q121 145 121 200 Q121 217 122.5 238 Q124 259 130 291 L202 700 L305 700 L231 276 Q227 253 225.5 237.5 Q224 222 224 208 Q224 172 234.5 148.5 Q245 125 262.5 110.5 Q280 96 303 90.5 Q326 85 351 85 Q382 85 410.5 93 Q439 101 462.5 121 Q486 141 504 176 Q522 211 531 264 L608 700 L710 700 L633 258 Q619 181 593.5 129 Q568 77 531 45.5 Q494 14 447 1 Q400 -12 345 -12 Z M381 783 Q359 783 345.5 798 Q332 813 332 834 Q332 863 352.5 883 Q373 903 399 903 Q422 903 435.5 888.5 Q449 874 449 853 Q449 824 428.5 803.5 Q408 783 381 783 Z M553 783 Q530 783 516.5 798 Q503 813 503 834 Q503 863 524 883 Q545 903 571 903 Q594 903 607.5 888.5 Q621 874 621 853 Q621 824 600 803.5 Q579 783 553 783 Z " />
<glyph glyph-name="aacute" unicode="&#xe1;" horiz-adv-x="509" d="M352 0 L359 41 Q337 21 300.5 4.5 Q264 -12 218 -12 Q150 -12 107.5 27.5 Q65 67 65 136 Q65 184 82.5 220 Q100 256 130 280 Q160 304 200 316 Q240 328 284 328 Q323 328 353 317.5 Q383 307 403 294 L409 326 Q414 351 414 364 Q414 404 390 419.5 Q366 435 334 435 Q292 435 249 419 Q206 403 173 382 L159 465 Q195 487 242.5 505 Q290 523 347 523 Q372 523 400.5 516.5 Q429 510 453.5 493 Q478 476 494 447.5 Q510 419 510 376 Q510 365 508.5 351 Q507 337 504 322 L448 0 L352 0 Z M242 75 Q284 75 318 93 Q352 111 375 134 L389 211 Q372 221 345 231.5 Q318 242 282 242 Q259 242 237.5 236.5 Q216 231 199 219.5 Q182 208 172 189.5 Q162 171 162 145 Q162 115 182.5 95 Q203 75 242 75 Z M391 576 L296 576 L460 732 L591 732 L391 576 Z " />
<glyph glyph-name="agrave" unicode="&#xe0;" horiz-adv-x="509" d="M352 0 L359 41 Q337 21 300.5 4.5 Q264 -12 218 -12 Q150 -12 107.5 27.5 Q65 67 65 136 Q65 184 82.5 220 Q100 256 130 280 Q160 304 200 316 Q240 328 284 328 Q323 328 353 317.5 Q383 307 403 294 L409 326 Q414 351 414 364 Q414 404 390 419.5 Q366 435 334 435 Q292 435 249 419 Q206 403 173 382 L159 465 Q195 487 242.5 505 Q290 523 347 523 Q372 523 400.5 516.5 Q429 510 453.5 493 Q478 476 494 447.5 Q510 419 510 376 Q510 365 508.5 351 Q507 337 504 322 L448 0 L352 0 Z M242 75 Q284 75 318 93 Q352 111 375 134 L389 211 Q372 221 345 231.5 Q318 242 282 242 Q259 242 237.5 236.5 Q216 231 199 219.5 Q182 208 172 189.5 Q162 171 162 145 Q162 115 182.5 95 Q203 75 242 75 Z M386 576 L240 732 L372 732 L481 576 L386 576 Z " />
<glyph glyph-name="acircumflex" unicode="&#xe2;" horiz-adv-x="509" d="M352 0 L359 41 Q337 21 300.5 4.5 Q264 -12 218 -12 Q150 -12 107.5 27.5 Q65 67 65 136 Q65 184 82.5 220 Q100 256 130 280 Q160 304 200 316 Q240 328 284 328 Q323 328 353 317.5 Q383 307 403 294 L409 326 Q414 351 414 364 Q414 404 390 419.5 Q366 435 334 435 Q292 435 249 419 Q206 403 173 382 L159 465 Q195 487 242.5 505 Q290 523 347 523 Q372 523 400.5 516.5 Q429 510 453.5 493 Q478 476 494 447.5 Q510 419 510 376 Q510 365 508.5 351 Q507 337 504 322 L448 0 L352 0 Z M242 75 Q284 75 318 93 Q352 111 375 134 L389 211 Q372 221 345 231.5 Q318 242 282 242 Q259 242 237.5 236.5 Q216 231 199 219.5 Q182 208 172 189.5 Q162 171 162 145 Q162 115 182.5 95 Q203 75 242 75 Z M458 576 L377 661 L266 576 L178 576 L340 732 L439 732 L547 576 L458 576 Z " />
<glyph glyph-name="adieresis" unicode="&#xe4;" horiz-adv-x="509" d="M352 0 L359 41 Q337 21 300.5 4.5 Q264 -12 218 -12 Q150 -12 107.5 27.5 Q65 67 65 136 Q65 184 82.5 220 Q100 256 130 280 Q160 304 200 316 Q240 328 284 328 Q323 328 353 317.5 Q383 307 403 294 L409 326 Q414 351 414 364 Q414 404 390 419.5 Q366 435 334 435 Q292 435 249 419 Q206 403 173 382 L159 465 Q195 487 242.5 505 Q290 523 347 523 Q372 523 400.5 516.5 Q429 510 453.5 493 Q478 476 494 447.5 Q510 419 510 376 Q510 365 508.5 351 Q507 337 504 322 L448 0 L352 0 Z M242 75 Q284 75 318 93 Q352 111 375 134 L389 211 Q372 221 345 231.5 Q318 242 282 242 Q259 242 237.5 236.5 Q216 231 199 219.5 Q182 208 172 189.5 Q162 171 162 145 Q162 115 182.5 95 Q203 75 242 75 Z M285 593 Q263 593 249.5 608 Q236 623 236 644 Q236 673 256.5 693 Q277 713 303 713 Q326 713 339.5 698.5 Q353 684 353 663 Q353 634 332.5 613.5 Q312 593 285 593 Z M457 593 Q434 593 420.5 608 Q407 623 407 644 Q407 673 428 693 Q449 713 475 713 Q498 713 511.5 698.5 Q525 684 525 663 Q525 634 504 613.5 Q483 593 457 593 Z " />
<glyph glyph-name="atilde" unicode="&#xe3;" horiz-adv-x="509" d="M352 0 L359 41 Q337 21 300.5 4.5 Q264 -12 218 -12 Q150 -12 107.5 27.5 Q65 67 65 136 Q65 184 82.5 220 Q100 256 130 280 Q160 304 200 316 Q240 328 284 328 Q323 328 353 317.5 Q383 307 403 294 L409 326 Q414 351 414 364 Q414 404 390 419.5 Q366 435 334 435 Q292 435 249 419 Q206 403 173 382 L159 465 Q195 487 242.5 505 Q290 523 347 523 Q372 523 400.5 516.5 Q429 510 453.5 493 Q478 476 494 447.5 Q510 419 510 376 Q510 365 508.5 351 Q507 337 504 322 L448 0 L352 0 Z M242 75 Q284 75 318 93 Q352 111 375 134 L389 211 Q372 221 345 231.5 Q318 242 282 242 Q259 242 237.5 236.5 Q216 231 199 219.5 Q182 208 172 189.5 Q162 171 162 145 Q162 115 182.5 95 Q203 75 242 75 Z M432 592 Q406 592 386.5 599.5 Q367 607 349.5 616 Q332 625 316 632.5 Q300 640 282 640 Q264 640 249 629.5 Q234 619 229 596 L181 596 Q191 653 220 686.5 Q249 720 303 720 Q328 720 348 712.5 Q368 705 385 696 Q402 687 418 679.5 Q434 672 452 672 Q470 672 485 682.5 Q500 693 506 716 L553 716 Q543 659 514.5 625.5 Q486 592 432 592 Z " />
<glyph glyph-name="aring" unicode="&#xe5;" horiz-adv-x="509" d="M352 0 L359 41 Q337 21 300.5 4.5 Q264 -12 218 -12 Q150 -12 107.5 27.5 Q65 67 65 136 Q65 184 82.5 220 Q100 256 130 280 Q160 304 200 316 Q240 328 284 328 Q323 328 353 317.5 Q383 307 403 294 L409 326 Q414 351 414 364 Q414 404 390 419.5 Q366 435 334 435 Q292 435 249 419 Q206 403 173 382 L159 465 Q195 487 242.5 505 Q290 523 347 523 Q372 523 400.5 516.5 Q429 510 453.5 493 Q478 476 494 447.5 Q510 419 510 376 Q510 365 508.5 351 Q507 337 504 322 L448 0 L352 0 Z M242 75 Q284 75 318 93 Q352 111 375 134 L389 211 Q372 221 345 231.5 Q318 242 282 242 Q259 242 237.5 236.5 Q216 231 199 219.5 Q182 208 172 189.5 Q162 171 162 145 Q162 115 182.5 95 Q203 75 242 75 Z M367 567 Q346 567 328 575 Q310 583 297 597.5 Q284 612 276.5 630.5 Q269 649 269 670 Q269 699 281 724 Q293 749 312.5 768 Q332 787 357.5 797.5 Q383 808 410 808 Q452 808 479.5 778.5 Q507 749 507 707 Q507 678 495 653 Q483 628 463.5 608.5 Q444 589 418.5 578 Q393 567 367 567 Z M379 638 Q402 638 418.5 655 Q435 672 435 698 Q435 716 424.5 727 Q414 738 397 738 Q376 738 359 722 Q342 706 342 680 Q342 662 352 650 Q362 638 379 638 Z " />
<glyph glyph-name="ccedilla" unicode="&#xe7;" horiz-adv-x="479" d="M199 -239 Q166 -239 144.5 -229 Q123 -219 111 -202 L167 -166 Q174 -180 201 -180 Q225 -180 242 -166 Q259 -152 259 -129 Q259 -114 245.5 -103 Q232 -92 212 -92 Q189 -92 173 -101 L158 -77 L223 -8 Q156 3 118 58 Q80 113 80 198 Q80 270 99 330 Q118 390 153 432.5 Q188 475 236 499 Q284 523 343 523 Q409 523 451.5 488 Q494 453 506 394 L410 361 Q404 390 385 409.5 Q366 429 328 429 Q291 429 263.5 411 Q236 393 217.5 362.5 Q199 332 189.5 292 Q180 252 180 208 Q180 151 202 116.5 Q224 82 268 82 Q306 82 334 102.5 Q362 123 379 158 L465 127 Q450 92 428.5 66.5 Q407 41 382 24.5 Q357 8 330 -0.5 Q303 -9 278 -11 L247 -51 Q297 -51 317.5 -72.5 Q338 -94 338 -122 Q338 -173 299.5 -206 Q261 -239 199 -239 Z " />
<glyph glyph-name="eacute" unicode="&#xe9;" horiz-adv-x="508" d="M271 -12 Q226 -12 189.5 3.5 Q153 19 127.5 47 Q102 75 88.5 115 Q75 155 75 204 Q75 268 94 326 Q113 384 148 427.5 Q183 471 232.5 497 Q282 523 344 523 Q429 523 477.5 474 Q526 425 526 326 Q526 295 520.5 268 Q515 241 507 216 L177 216 L177 204 Q177 144 206 110.5 Q235 77 283 77 Q312 77 342.5 89 Q373 101 400 124 L448 56 Q413 24 369.5 6 Q326 -12 271 -12 Z M334 434 Q305 434 281.5 424 Q258 414 240 396 Q222 378 209.5 354 Q197 330 191 302 L427 302 Q430 325 429 339 Q427 366 419 384 Q411 402 398 413.5 Q385 425 368.5 429.5 Q352 434 334 434 Z M382 576 L287 576 L451 732 L582 732 L382 576 Z " />
<glyph glyph-name="egrave" unicode="&#xe8;" horiz-adv-x="508" d="M271 -12 Q226 -12 189.5 3.5 Q153 19 127.5 47 Q102 75 88.5 115 Q75 155 75 204 Q75 268 94 326 Q113 384 148 427.5 Q183 471 232.5 497 Q282 523 344 523 Q429 523 477.5 474 Q526 425 526 326 Q526 295 520.5 268 Q515 241 507 216 L177 216 L177 204 Q177 144 206 110.5 Q235 77 283 77 Q312 77 342.5 89 Q373 101 400 124 L448 56 Q413 24 369.5 6 Q326 -12 271 -12 Z M334 434 Q305 434 281.5 424 Q258 414 240 396 Q222 378 209.5 354 Q197 330 191 302 L427 302 Q430 325 429 339 Q427 366 419 384 Q411 402 398 413.5 Q385 425 368.5 429.5 Q352 434 334 434 Z M357 576 L211 732 L343 732 L452 576 L357 576 Z " />
<glyph glyph-name="ecircumflex" unicode="&#xea;" horiz-adv-x="508" d="M271 -12 Q226 -12 189.5 3.5 Q153 19 127.5 47 Q102 75 88.5 115 Q75 155 75 204 Q75 268 94 326 Q113 384 148 427.5 Q183 471 232.5 497 Q282 523 344 523 Q429 523 477.5 474 Q526 425 526 326 Q526 295 520.5 268 Q515 241 507 216 L177 216 L177 204 Q177 144 206 110.5 Q235 77 283 77 Q312 77 342.5 89 Q373 101 400 124 L448 56 Q413 24 369.5 6 Q326 -12 271 -12 Z M334 434 Q305 434 281.5 424 Q258 414 240 396 Q222 378 209.5 354 Q197 330 191 302 L427 302 Q430 325 429 339 Q427 366 419 384 Q411 402 398 413.5 Q385 425 368.5 429.5 Q352 434 334 434 Z M463 576 L382 661 L271 576 L183 576 L345 732 L444 732 L552 576 L463 576 Z " />
<glyph glyph-name="edieresis" unicode="&#xeb;" horiz-adv-x="508" d="M271 -12 Q226 -12 189.5 3.5 Q153 19 127.5 47 Q102 75 88.5 115 Q75 155 75 204 Q75 268 94 326 Q113 384 148 427.5 Q183 471 232.5 497 Q282 523 344 523 Q429 523 477.5 474 Q526 425 526 326 Q526 295 520.5 268 Q515 241 507 216 L177 216 L177 204 Q177 144 206 110.5 Q235 77 283 77 Q312 77 342.5 89 Q373 101 400 124 L448 56 Q413 24 369.5 6 Q326 -12 271 -12 Z M334 434 Q305 434 281.5 424 Q258 414 240 396 Q222 378 209.5 354 Q197 330 191 302 L427 302 Q430 325 429 339 Q427 366 419 384 Q411 402 398 413.5 Q385 425 368.5 429.5 Q352 434 334 434 Z M281 593 Q259 593 245.5 608 Q232 623 232 644 Q232 673 252.5 693 Q273 713 299 713 Q322 713 335.5 698.5 Q349 684 349 663 Q349 634 328.5 613.5 Q308 593 281 593 Z M453 593 Q430 593 416.5 608 Q403 623 403 644 Q403 673 424 693 Q445 713 471 713 Q494 713 507.5 698.5 Q521 684 521 663 Q521 634 500 613.5 Q479 593 453 593 Z " />
<glyph glyph-name="iacute" unicode="&#xed;" horiz-adv-x="241" d="M230 576 L135 576 L299 732 L430 732 L230 576 Z M71 0 L161 511 L259 511 L169 0 L71 0 Z " />
<glyph glyph-name="igrave" unicode="&#xec;" horiz-adv-x="241" d="M205 576 L59 732 L191 732 L300 576 L205 576 Z M71 0 L161 511 L259 511 L169 0 L71 0 Z " />
<glyph glyph-name="icircumflex" unicode="&#xee;" horiz-adv-x="241" d="M71 0 L161 511 L259 511 L169 0 L71 0 Z M312 576 L231 661 L120 576 L32 576 L194 732 L293 732 L401 576 L312 576 Z " />
<glyph glyph-name="idieresis" unicode="&#xef;" horiz-adv-x="241" d="M135 593 Q113 593 99.5 608 Q86 623 86 644 Q86 673 106.5 693 Q127 713 153 713 Q176 713 189.5 698.5 Q203 684 203 663 Q203 634 182.5 613.5 Q162 593 135 593 Z M307 593 Q284 593 270.5 608 Q257 623 257 644 Q257 673 278 693 Q299 713 325 713 Q348 713 361.5 698.5 Q375 684 375 663 Q375 634 354 613.5 Q333 593 307 593 Z M71 0 L161 511 L259 511 L169 0 L71 0 Z " />
<glyph glyph-name="ntilde" unicode="&#xf1;" horiz-adv-x="538" d="M372 0 L424 295 Q429 320 429 343 Q429 385 409 407.5 Q389 430 350 430 Q329 430 308.5 421.5 Q288 413 270.5 396.5 Q253 380 240.5 356.5 Q228 333 223 302 L170 0 L71 0 L161 511 L260 511 L251 457 Q275 487 309.5 505 Q344 523 382 523 Q455 523 492.5 479.5 Q530 436 530 361 Q530 327 522 287 L471 0 L372 0 Z M448 592 Q422 592 402.5 599.5 Q383 607 365.5 616 Q348 625 332 632.5 Q316 640 298 640 Q280 640 265 629.5 Q250 619 245 596 L197 596 Q207 653 236 686.5 Q265 720 319 720 Q344 720 364 712.5 Q384 705 401 696 Q418 687 434 679.5 Q450 672 468 672 Q486 672 501 682.5 Q516 693 522 716 L569 716 Q559 659 530.5 625.5 Q502 592 448 592 Z " />
<glyph glyph-name="oacute" unicode="&#xf3;" horiz-adv-x="522" d="M271 -12 Q221 -12 185 4 Q149 20 125.5 48.5 Q102 77 90.5 117 Q79 157 79 204 Q79 265 97 323 Q115 381 148.5 425 Q182 469 231.5 496 Q281 523 344 523 Q391 523 426.5 506 Q462 489 485.5 460 Q509 431 520.5 392 Q532 353 532 310 Q532 247 514.5 189 Q497 131 463.5 86 Q430 41 381.5 14.5 Q333 -12 271 -12 Z M276 82 Q313 82 342.5 100.5 Q372 119 392 150 Q412 181 422.5 219.5 Q433 258 433 299 Q433 326 427.5 349.5 Q422 373 410 391 Q398 409 379 419 Q360 429 334 429 Q297 429 268 410 Q239 391 219 360.5 Q199 330 188.5 291.5 Q178 253 178 213 Q178 156 201.5 119 Q225 82 276 82 Z M388 576 L293 576 L457 732 L588 732 L388 576 Z " />
<glyph glyph-name="ograve" unicode="&#xf2;" horiz-adv-x="522" d="M271 -12 Q221 -12 185 4 Q149 20 125.5 48.5 Q102 77 90.5 117 Q79 157 79 204 Q79 265 97 323 Q115 381 148.5 425 Q182 469 231.5 496 Q281 523 344 523 Q391 523 426.5 506 Q462 489 485.5 460 Q509 431 520.5 392 Q532 353 532 310 Q532 247 514.5 189 Q497 131 463.5 86 Q430 41 381.5 14.5 Q333 -12 271 -12 Z M276 82 Q313 82 342.5 100.5 Q372 119 392 150 Q412 181 422.5 219.5 Q433 258 433 299 Q433 326 427.5 349.5 Q422 373 410 391 Q398 409 379 419 Q360 429 334 429 Q297 429 268 410 Q239 391 219 360.5 Q199 330 188.5 291.5 Q178 253 178 213 Q178 156 201.5 119 Q225 82 276 82 Z M354 576 L208 732 L340 732 L449 576 L354 576 Z " />
<glyph glyph-name="ocircumflex" unicode="&#xf4;" horiz-adv-x="522" d="M271 -12 Q221 -12 185 4 Q149 20 125.5 48.5 Q102 77 90.5 117 Q79 157 79 204 Q79 265 97 323 Q115 381 148.5 425 Q182 469 231.5 496 Q281 523 344 523 Q391 523 426.5 506 Q462 489 485.5 460 Q509 431 520.5 392 Q532 353 532 310 Q532 247 514.5 189 Q497 131 463.5 86 Q430 41 381.5 14.5 Q333 -12 271 -12 Z M276 82 Q313 82 342.5 100.5 Q372 119 392 150 Q412 181 422.5 219.5 Q433 258 433 299 Q433 326 427.5 349.5 Q422 373 410 391 Q398 409 379 419 Q360 429 334 429 Q297 429 268 410 Q239 391 219 360.5 Q199 330 188.5 291.5 Q178 253 178 213 Q178 156 201.5 119 Q225 82 276 82 Z M459 576 L378 661 L267 576 L179 576 L341 732 L440 732 L548 576 L459 576 Z " />
<glyph glyph-name="odieresis" unicode="&#xf6;" horiz-adv-x="522" d="M271 -12 Q221 -12 185 4 Q149 20 125.5 48.5 Q102 77 90.5 117 Q79 157 79 204 Q79 265 97 323 Q115 381 148.5 425 Q182 469 231.5 496 Q281 523 344 523 Q391 523 426.5 506 Q462 489 485.5 460 Q509 431 520.5 392 Q532 353 532 310 Q532 247 514.5 189 Q497 131 463.5 86 Q430 41 381.5 14.5 Q333 -12 271 -12 Z M276 82 Q313 82 342.5 100.5 Q372 119 392 150 Q412 181 422.5 219.5 Q433 258 433 299 Q433 326 427.5 349.5 Q422 373 410 391 Q398 409 379 419 Q360 429 334 429 Q297 429 268 410 Q239 391 219 360.5 Q199 330 188.5 291.5 Q178 253 178 213 Q178 156 201.5 119 Q225 82 276 82 Z M282 593 Q260 593 246.5 608 Q233 623 233 644 Q233 673 253.5 693 Q274 713 300 713 Q323 713 336.5 698.5 Q350 684 350 663 Q350 634 329.5 613.5 Q309 593 282 593 Z M454 593 Q431 593 417.5 608 Q404 623 404 644 Q404 673 425 693 Q446 713 472 713 Q495 713 508.5 698.5 Q522 684 522 663 Q522 634 501 613.5 Q480 593 454 593 Z " />
<glyph glyph-name="otilde" unicode="&#xf5;" horiz-adv-x="522" d="M271 -12 Q221 -12 185 4 Q149 20 125.5 48.5 Q102 77 90.5 117 Q79 157 79 204 Q79 265 97 323 Q115 381 148.5 425 Q182 469 231.5 496 Q281 523 344 523 Q391 523 426.5 506 Q462 489 485.5 460 Q509 431 520.5 392 Q532 353 532 310 Q532 247 514.5 189 Q497 131 463.5 86 Q430 41 381.5 14.5 Q333 -12 271 -12 Z M276 82 Q313 82 342.5 100.5 Q372 119 392 150 Q412 181 422.5 219.5 Q433 258 433 299 Q433 326 427.5 349.5 Q422 373 410 391 Q398 409 379 419 Q360 429 334 429 Q297 429 268 410 Q239 391 219 360.5 Q199 330 188.5 291.5 Q178 253 178 213 Q178 156 201.5 119 Q225 82 276 82 Z M441 592 Q415 592 395.5 599.5 Q376 607 358.5 616 Q341 625 325 632.5 Q309 640 291 640 Q273 640 258 629.5 Q243 619 238 596 L190 596 Q200 653 229 686.5 Q258 720 312 720 Q337 720 357 712.5 Q377 705 394 696 Q411 687 427 679.5 Q443 672 461 672 Q479 672 494 682.5 Q509 693 515 716 L562 716 Q552 659 523.5 625.5 Q495 592 441 592 Z " />
<glyph glyph-name="uacute" unicode="&#xfa;" horiz-adv-x="538" d="M370 0 L379 48 Q328 -12 239 -12 Q208 -12 181.5 -2.5 Q155 7 135.5 26.5 Q116 46 105 76 Q94 106 94 146 Q94 160 96 175.5 Q98 191 100 208 L153 511 L253 511 L200 214 Q197 197 196 186 Q195 175 195 167 Q195 122 217 102 Q239 82 274 82 Q296 82 317.5 88 Q339 94 356.5 108.5 Q374 123 387 146 Q400 169 406 203 L460 511 L559 511 L469 0 L370 0 Z M386 576 L291 576 L455 732 L586 732 L386 576 Z " />
<glyph glyph-name="ugrave" unicode="&#xf9;" horiz-adv-x="538" d="M370 0 L379 48 Q328 -12 239 -12 Q208 -12 181.5 -2.5 Q155 7 135.5 26.5 Q116 46 105 76 Q94 106 94 146 Q94 160 96 175.5 Q98 191 100 208 L153 511 L253 511 L200 214 Q197 197 196 186 Q195 175 195 167 Q195 122 217 102 Q239 82 274 82 Q296 82 317.5 88 Q339 94 356.5 108.5 Q374 123 387 146 Q400 169 406 203 L460 511 L559 511 L469 0 L370 0 Z M371 576 L225 732 L357 732 L466 576 L371 576 Z " />
<glyph glyph-name="ucircumflex" unicode="&#xfb;" horiz-adv-x="538" d="M370 0 L379 48 Q328 -12 239 -12 Q208 -12 181.5 -2.5 Q155 7 135.5 26.5 Q116 46 105 76 Q94 106 94 146 Q94 160 96 175.5 Q98 191 100 208 L153 511 L253 511 L200 214 Q197 197 196 186 Q195 175 195 167 Q195 122 217 102 Q239 82 274 82 Q296 82 317.5 88 Q339 94 356.5 108.5 Q374 123 387 146 Q400 169 406 203 L460 511 L559 511 L469 0 L370 0 Z M459 576 L378 661 L267 576 L179 576 L341 732 L440 732 L548 576 L459 576 Z " />
<glyph glyph-name="udieresis" unicode="&#xfc;" horiz-adv-x="538" d="M370 0 L379 48 Q328 -12 239 -12 Q208 -12 181.5 -2.5 Q155 7 135.5 26.5 Q116 46 105 76 Q94 106 94 146 Q94 160 96 175.5 Q98 191 100 208 L153 511 L253 511 L200 214 Q197 197 196 186 Q195 175 195 167 Q195 122 217 102 Q239 82 274 82 Q296 82 317.5 88 Q339 94 356.5 108.5 Q374 123 387 146 Q400 169 406 203 L460 511 L559 511 L469 0 L370 0 Z M281 593 Q259 593 245.5 608 Q232 623 232 644 Q232 673 252.5 693 Q273 713 299 713 Q322 713 335.5 698.5 Q349 684 349 663 Q349 634 328.5 613.5 Q308 593 281 593 Z M453 593 Q430 593 416.5 608 Q403 623 403 644 Q403 673 424 693 Q445 713 471 713 Q494 713 507.5 698.5 Q521 684 521 663 Q521 634 500 613.5 Q479 593 453 593 Z " />
<glyph glyph-name="dagger" unicode="&#x2020;" horiz-adv-x="535" d="M383 440 L375 336 L260 -141 L225 -141 L278 336 L305 440 L187 424 L136 424 L154 521 L205 521 L315 504 L322 587 L344 712 L441 712 L419 587 L395 504 L513 521 L564 521 L546 424 L495 424 L383 440 Z " />
<glyph glyph-name="degree" unicode="&#xb0;" horiz-adv-x="384" d="M291 539 Q309 539 325 546 Q341 553 353.5 566 Q366 579 373 596.5 Q380 614 380 634 Q380 665 362.5 684.5 Q345 704 315 704 Q297 704 281 697 Q265 690 252.5 677 Q240 664 232.5 647 Q225 630 225 609 Q225 579 243 559 Q261 539 291 539 Z M284 444 Q248 444 219.5 456 Q191 468 171 489.5 Q151 511 140 540.5 Q129 570 129 604 Q129 646 144.5 681.5 Q160 717 186.5 742.5 Q213 768 248 782.5 Q283 797 321 797 Q357 797 385.5 785 Q414 773 434.5 752 Q455 731 465.5 701.5 Q476 672 476 638 Q476 596 460.5 560.5 Q445 525 418.5 499 Q392 473 357 458.5 Q322 444 284 444 Z " />
<glyph glyph-name="cent" unicode="&#xa2;" horiz-adv-x="493" d="M201 -12 L219 91 Q162 109 132 163 Q102 217 102 295 Q102 356 116.5 408.5 Q131 461 158.5 502 Q186 543 224.5 571 Q263 599 311 610 L329 712 L423 712 L404 612 Q455 602 487 571 Q519 540 530 487 L432 454 Q426 483 407 501.5 Q388 520 353 520 Q317 520 289.5 503.5 Q262 487 242.5 458 Q223 429 213 389.5 Q203 350 203 304 Q203 249 225.5 214 Q248 179 294 179 Q325 179 353 197 Q381 215 398 254 L486 224 Q461 162 416.5 126.5 Q372 91 312 84 L295 -12 L201 -12 Z " />
<glyph glyph-name="sterling" unicode="&#xa3;" horiz-adv-x="563" d="M76 0 L94 101 Q119 112 139.5 133 Q160 154 174.5 179.5 Q189 205 197.5 232.5 Q206 260 209 284 L122 284 L138 373 L205 373 Q200 391 193.5 417 Q187 443 187 476 Q187 522 203 564.5 Q219 607 251 640 Q283 673 332.5 692.5 Q382 712 449 712 Q512 712 559 692 Q606 672 639 642 L586 550 Q577 559 563.5 570.5 Q550 582 531.5 592 Q513 602 488.5 609 Q464 616 433 616 Q395 616 368 605 Q341 594 323.5 575.5 Q306 557 297.5 533.5 Q289 510 289 485 Q289 456 298 427 Q307 398 310 373 L470 373 L454 284 L312 284 Q305 230 275.5 183 Q246 136 201 96 L551 96 L534 0 L76 0 Z " />
<glyph glyph-name="section" unicode="&#xa7;" horiz-adv-x="500" d="M460 567 Q448 583 424.5 598.5 Q401 614 356 614 Q311 614 284 596 Q257 578 257 546 Q257 531 266.5 519 Q276 507 292.5 496 Q309 485 331.5 474.5 Q354 464 379 453 Q403 442 426 430.5 Q449 419 466.5 402.5 Q484 386 494.5 364 Q505 342 505 312 Q505 266 487.5 233 Q470 200 428 177 Q467 138 467 72 Q467 30 451.5 -5.5 Q436 -41 407 -66.5 Q378 -92 336.5 -106 Q295 -120 242 -120 Q169 -120 117 -91 Q65 -62 42 -19 L126 39 Q132 30 142 19 Q152 8 167 -1.5 Q182 -11 202 -17.5 Q222 -24 248 -24 Q297 -24 329 -6.5 Q361 11 361 55 Q361 74 349 88.5 Q337 103 317.5 115.5 Q298 128 274 139 Q250 150 226 162 Q204 173 183 184.5 Q162 196 146 211 Q130 226 120.5 246 Q111 266 111 293 Q111 341 137.5 374 Q164 407 201 424 Q178 441 165.5 470 Q153 499 153 532 Q153 574 170 607.5 Q187 641 216.5 664.5 Q246 688 284.5 700 Q323 712 366 712 Q400 712 428.5 705 Q457 698 479 686 Q501 674 517 658.5 Q533 643 543 627 L460 567 Z M402 285 Q402 301 392.5 314 Q383 327 366.5 337.5 Q350 348 328.5 357.5 Q307 367 283 376 Q252 371 234 355 Q216 339 216 316 Q216 300 227.5 288 Q239 276 258.5 265.5 Q278 255 303.5 245 Q329 235 357 223 Q377 231 389.5 247 Q402 263 402 285 Z " />
<glyph glyph-name="bullet" unicode="&#x2022;" horiz-adv-x="387" d="M231 214 Q180 214 148.5 247.5 Q117 281 117 329 Q117 361 130 390 Q143 419 165 440.5 Q187 462 216.5 474.5 Q246 487 278 487 Q304 487 325.5 477.5 Q347 468 362 452.5 Q377 437 385.5 416 Q394 395 394 371 Q394 338 380.5 309.5 Q367 281 344.5 259.5 Q322 238 292.5 226 Q263 214 231 214 Z " />
<glyph glyph-name="paragraph" unicode="&#xb6;" horiz-adv-x="600" d="M407 -121 L534 602 L450 602 L316 -154 L211 -200 L295 276 Q243 277 206 293 Q169 309 146 334.5 Q123 360 112 392.5 Q101 425 101 458 Q101 497 114 539.5 Q127 582 157.5 618 Q188 654 237.5 677 Q287 700 359 700 L648 700 L512 -75 L407 -121 Z " />
<glyph glyph-name="germandbls" unicode="&#xdf;" horiz-adv-x="533" d="M146 477 Q157 542 182 587 Q207 632 240 659.5 Q273 687 310.5 699.5 Q348 712 386 712 Q424 712 455.5 701 Q487 690 509.5 669.5 Q532 649 544.5 620 Q557 591 557 555 Q557 501 526.5 453 Q496 405 436 383 Q484 366 510 326 Q536 286 536 230 Q536 176 516.5 131.5 Q497 87 464.5 55 Q432 23 388.5 5.5 Q345 -12 297 -12 Q265 -12 242.5 -6.5 Q220 -1 206 7 L262 82 Q280 75 304 75 Q327 75 350.5 84.5 Q374 94 393 113 Q412 132 424 160.5 Q436 189 436 226 Q436 247 430 267 Q424 287 410.5 302.5 Q397 318 375 327 Q353 336 322 336 L303 336 L318 423 L338 423 Q389 423 424 453 Q459 483 459 541 Q459 578 437.5 601 Q416 624 374 624 Q329 624 292.5 589.5 Q256 555 242 476 L131 -153 L26 -202 L146 477 Z " />
<glyph glyph-name="registered" unicode="&#xae;" horiz-adv-x="810" d="M463 -12 Q386 -12 320 15.5 Q254 43 205 92 Q156 141 128.5 207 Q101 273 101 350 Q101 427 128.5 493 Q156 559 205 608 Q254 657 320 684.5 Q386 712 463 712 Q540 712 606 684.5 Q672 657 721 608 Q770 559 797.5 493 Q825 427 825 350 Q825 273 797.5 207 Q770 141 721 92 Q672 43 606 15.5 Q540 -12 463 -12 Z M463 58 Q525 58 577.5 80.5 Q630 103 668 142 Q706 181 727.5 234.5 Q749 288 749 350 Q749 412 727.5 465.5 Q706 519 668 558 Q630 597 577.5 619 Q525 641 463 641 Q401 641 348 619 Q295 597 256.5 558 Q218 519 196.5 465.5 Q175 412 175 350 Q175 288 196.5 234.5 Q218 181 256.5 142 Q295 103 348 80.5 Q401 58 463 58 Z M315 138 L315 560 L502 560 Q538 560 562.5 548.5 Q587 537 601.5 518.5 Q616 500 622.5 477.5 Q629 455 629 433 Q629 392 605 356.5 Q581 321 534 309 L627 138 L534 138 L449 303 L397 303 L397 138 L315 138 Z M503 377 Q526 377 537.5 394 Q549 411 549 432 Q549 449 538.5 466.5 Q528 484 503 484 L397 484 L397 377 L503 377 Z " />
<glyph glyph-name="copyright" unicode="&#xa9;" horiz-adv-x="810" d="M623 247 Q582 135 467 135 Q420 135 386 151.5 Q352 168 329.5 197.5 Q307 227 296.5 266.5 Q286 306 286 352 Q286 395 297 434.5 Q308 474 331 504 Q354 534 388.5 552 Q423 570 471 570 Q527 570 564 543 Q601 516 621 469 L544 434 Q533 458 514.5 473.5 Q496 489 467 489 Q440 489 421.5 478 Q403 467 392 448 Q381 429 376.5 404.5 Q372 380 372 352 Q372 322 377 297 Q382 272 393.5 254 Q405 236 423.5 225.5 Q442 215 468 215 Q495 215 516.5 229 Q538 243 548 275 L623 247 Z M463 -12 Q386 -12 320 15.5 Q254 43 205 92 Q156 141 128.5 207 Q101 273 101 350 Q101 427 128.5 493 Q156 559 205 608 Q254 657 320 684.5 Q386 712 463 712 Q540 712 606 684.5 Q672 657 721 608 Q770 559 797.5 493 Q825 427 825 350 Q825 273 797.5 207 Q770 141 721 92 Q672 43 606 15.5 Q540 -12 463 -12 Z M463 58 Q525 58 577.5 80.5 Q630 103 668 142 Q706 181 727.5 234.5 Q749 288 749 350 Q749 412 727.5 465.5 Q706 519 668 558 Q630 597 577.5 619 Q525 641 463 641 Q401 641 348 619 Q295 597 256.5 558 Q218 519 196.5 465.5 Q175 412 175 350 Q175 288 196.5 234.5 Q218 181 256.5 142 Q295 103 348 80.5 Q401 58 463 58 Z " />
<glyph glyph-name="trademark" unicode="&#x2122;" horiz-adv-x="768" d="M255 629 L255 278 L178 278 L178 629 L68 629 L68 700 L364 700 L364 629 L255 629 Z M702 278 L702 535 L693 508 L589 266 L484 508 L474 538 L474 278 L397 278 L397 700 L479 700 L579 464 L588 439 L597 464 L697 700 L778 700 L778 278 L702 278 Z " />
<glyph glyph-name="acute" unicode="&#xb4;" horiz-adv-x="374" d="M323 576 L228 576 L392 732 L523 732 L323 576 Z " />
<glyph glyph-name="dieresis" unicode="&#xa8;" horiz-adv-x="374" d="M236 593 Q214 593 200.5 608 Q187 623 187 644 Q187 673 207.5 693 Q228 713 254 713 Q277 713 290.5 698.5 Q304 684 304 663 Q304 634 283.5 613.5 Q263 593 236 593 Z M408 593 Q385 593 371.5 608 Q358 623 358 644 Q358 673 379 693 Q400 713 426 713 Q449 713 462.5 698.5 Q476 684 476 663 Q476 634 455 613.5 Q434 593 408 593 Z " />
<glyph glyph-name="notequal" unicode="&#x2260;" horiz-adv-x="605" d="M347 198 L306 109 L199 109 L240 198 L134 198 L134 297 L287 297 L331 388 L134 388 L134 487 L377 487 L418 574 L524 574 L483 487 L591 487 L591 388 L437 388 L393 297 L591 297 L591 198 L347 198 Z " />
<glyph glyph-name="AE" unicode="&#xc6;" horiz-adv-x="837" d="M391 0 L420 163 L209 163 L91 0 L-23 0 L490 700 L889 700 L873 604 L599 604 L565 409 L725 409 L707 314 L548 314 L510 95 L804 95 L787 0 L391 0 Z M436 255 L489 555 Q482 543 472.5 528.5 Q463 514 453 500 L277 255 L436 255 Z " />
<glyph glyph-name="Oslash" unicode="&#xd8;" horiz-adv-x="689" d="M59 -12 L150 99 Q130 136 120.5 185 Q111 234 111 280 Q111 358 132 435 Q153 512 196 573.5 Q239 635 304.5 673.5 Q370 712 458 712 Q507 712 545 698 Q583 684 610 660 L653 712 L754 712 L661 599 Q681 563 691 514.5 Q701 466 701 421 Q701 341 679.5 263.5 Q658 186 615 125 Q572 64 507.5 26 Q443 -12 357 -12 Q306 -12 267.5 1.5 Q229 15 200 38 L159 -12 L59 -12 Z M213 282 Q213 261 215.5 235 Q218 209 225 190 L544 580 Q527 597 503.5 606 Q480 615 448 615 Q389 615 345 584.5 Q301 554 271.5 506 Q242 458 227.5 399 Q213 340 213 282 Z M362 84 Q420 84 464.5 113.5 Q509 143 539 190.5 Q569 238 584 297.5 Q599 357 599 418 Q599 439 595.5 464 Q592 489 586 508 L266 119 Q283 102 306.5 93 Q330 84 362 84 Z " />
<glyph glyph-name="infinity" unicode="&#x221e;" horiz-adv-x="959" d="M725 119 Q684 119 651.5 130 Q619 141 595 160.5 Q571 180 553.5 206.5 Q536 233 525 264 Q503 234 477 207.5 Q451 181 421 161.5 Q391 142 356.5 130.5 Q322 119 282 119 Q241 119 206 133.5 Q171 148 145.5 174 Q120 200 105.5 236.5 Q91 273 91 317 Q91 380 113 429.5 Q135 479 172 513 Q209 547 257 565 Q305 583 357 583 Q399 583 431.5 570.5 Q464 558 488 537.5 Q512 517 528.5 490.5 Q545 464 556 436 Q598 500 657.5 541.5 Q717 583 792 583 Q833 583 869.5 570 Q906 557 933 531.5 Q960 506 975.5 469 Q991 432 991 384 Q991 321 969 271.5 Q947 222 910.5 188.5 Q874 155 825.5 137 Q777 119 725 119 Z M733 213 Q765 213 794 224 Q823 235 845 255.5 Q867 276 880 305.5 Q893 335 893 371 Q893 426 861 457.5 Q829 489 778 489 Q749 489 722 477.5 Q695 466 670 446.5 Q645 427 623 402 Q601 377 582 350 Q592 323 605.5 298 Q619 273 637 254.5 Q655 236 679 224.5 Q703 213 733 213 Z M303 213 Q332 213 359 224.5 Q386 236 411 254.5 Q436 273 458 298 Q480 323 499 350 Q489 377 475.5 402 Q462 427 444 446.5 Q426 466 402.5 477.5 Q379 489 349 489 Q317 489 288 478 Q259 467 237 446 Q215 425 202 395 Q189 365 189 328 Q189 275 220.5 244 Q252 213 303 213 Z " />
<glyph glyph-name="plusminus" unicode="&#xb1;" horiz-adv-x="605" d="M412 355 L412 198 L311 198 L311 355 L133 355 L133 451 L311 451 L311 608 L412 608 L412 451 L591 451 L591 355 L412 355 Z M133 0 L133 96 L591 96 L591 0 L133 0 Z " />
<glyph glyph-name="lessequal" unicode="&#x2264;" horiz-adv-x="605" d="M591 174 L133 344 L133 431 L591 602 L591 499 L265 388 L591 276 L591 174 Z M133 0 L133 96 L591 96 L591 0 L133 0 Z " />
<glyph glyph-name="greaterequal" unicode="&#x2265;" horiz-adv-x="605" d="M131 174 L131 276 L457 388 L131 499 L131 602 L589 431 L589 344 L131 174 Z M131 0 L131 96 L589 96 L589 0 L131 0 Z " />
<glyph glyph-name="yen" unicode="&#xa5;" horiz-adv-x="545" d="M385 326 L516 326 L502 247 L364 247 L353 182 L490 182 L477 103 L339 103 L321 0 L224 0 L242 103 L99 103 L113 182 L256 182 L267 247 L124 247 L138 326 L274 326 L137 700 L244 700 L343 413 L544 700 L653 700 L385 326 Z " />
<glyph glyph-name="mu" unicode="&#xb5;" horiz-adv-x="543" d="M375 0 L384 53 Q360 20 327 4 Q294 -12 259 -12 Q232 -12 209 -1 Q186 10 175 32 L140 -165 L34 -202 L160 511 L258 511 L205 214 Q203 201 201.5 188.5 Q200 176 200 162 Q200 130 218 106 Q236 82 281 82 Q302 82 322.5 88.5 Q343 95 361 110 Q379 125 392 149.5 Q405 174 411 209 L465 511 L563 511 L473 0 L375 0 Z " />
<glyph glyph-name="partialdiff" unicode="&#x2202;" horiz-adv-x="557" d="M254 -12 Q207 -12 171 2.5 Q135 17 110 42.5 Q85 68 72.5 103 Q60 138 60 179 Q60 241 82 290 Q104 339 141 372.5 Q178 406 224.5 423.5 Q271 441 321 441 Q384 441 422 416 Q460 391 472 358 Q474 366 477 380.5 Q480 395 480 419 Q480 470 466 506.5 Q452 543 427 567 Q402 591 369 604 Q336 617 299 620 L337 712 Q462 692 520.5 618.5 Q579 545 579 414 Q579 366 570 316 Q561 266 543.5 218.5 Q526 171 499 129 Q472 87 436 56 Q400 25 354.5 6.5 Q309 -12 254 -12 Z M264 84 Q299 84 329 96.5 Q359 109 381.5 130 Q404 151 417 179 Q430 207 430 239 Q430 290 398.5 317.5 Q367 345 315 345 Q282 345 253.5 333 Q225 321 204 300 Q183 279 170.5 250 Q158 221 158 188 Q158 142 185.5 113 Q213 84 264 84 Z " />
<glyph glyph-name="summation" unicode="&#x2211;" horiz-adv-x="586" d="M18 -141 L34 -50 L332 289 L164 609 L180 699 L657 699 L640 603 L284 603 L452 288 L164 -44 L545 -44 L527 -141 L18 -141 Z " />
<glyph glyph-name="product" unicode="&#x220f;" horiz-adv-x="686" d="M477 -140 L608 602 L289 602 L158 -140 L60 -140 L208 700 L723 700 L575 -140 L477 -140 Z " />
<glyph glyph-name="pi" unicode="&#x3c0;" horiz-adv-x="631" d="M497 -12 Q452 -12 424.5 14.5 Q397 41 397 87 Q397 96 398 107.5 Q399 119 402 136 L449 406 L315 406 L308 365 Q296 297 281 238 Q266 179 243.5 129.5 Q221 80 188.5 41.5 Q156 3 108 -22 L37 45 Q62 58 86.5 77.5 Q111 97 133.5 128.5 Q156 160 175 207.5 Q194 255 206 325 L220 406 L131 406 L150 511 L680 511 L662 406 L547 406 L501 145 Q498 130 498 117 Q498 98 506 88 Q514 78 534 78 Q556 78 575 84.5 Q594 91 613 101 L586 9 Q541 -12 497 -12 Z " />
<glyph glyph-name="integral" unicode="&#x222b;" horiz-adv-x="402" d="M113 -140 Q85 -140 61 -134 Q37 -128 17 -117 L31 -38 Q51 -46 67 -49.5 Q83 -53 99 -53 Q125 -53 137 -39.5 Q149 -26 152 -6 L258 593 Q264 628 277 651 Q290 674 308 687.5 Q326 701 347 706.5 Q368 712 390 712 Q417 712 440.5 705 Q464 698 484 687 L470 608 Q450 616 434.5 620.5 Q419 625 403 625 Q377 625 365.5 611 Q354 597 350 577 L245 -22 Q239 -57 225.5 -79.5 Q212 -102 194.5 -115.5 Q177 -129 156 -134.5 Q135 -140 113 -140 Z " />
<glyph glyph-name="ordfeminine" unicode="&#xaa;" horiz-adv-x="419" d="M333 283 L339 313 Q322 298 293.5 285.5 Q265 273 230 273 Q205 273 182.5 281 Q160 289 143.5 304 Q127 319 117 341.5 Q107 364 107 393 Q107 435 123 465 Q139 495 164 515 Q189 535 220.5 544.5 Q252 554 283 554 Q309 554 335 547.5 Q361 541 378 532 L380 548 Q382 560 383 566 Q384 572 384 579 Q384 635 313 635 Q280 635 249 623.5 Q218 612 193 595 L182 668 Q210 687 250 699.5 Q290 712 337 712 Q359 712 382.5 706.5 Q406 701 425.5 687.5 Q445 674 457 651.5 Q469 629 469 595 Q469 585 467.5 574 Q466 563 463 546 L417 283 L333 283 Z M251 348 Q280 348 307 361 Q334 374 352 389 L364 458 Q349 466 326.5 472.5 Q304 479 282 479 Q265 479 248.5 474.5 Q232 470 219 461 Q206 452 198 437.5 Q190 423 190 403 Q190 379 206 363.5 Q222 348 251 348 Z " />
<glyph glyph-name="ordmasculine" unicode="&#xba;" horiz-adv-x="433" d="M267 272 Q197 272 155.5 318.5 Q114 365 114 446 Q114 506 130.5 555.5 Q147 605 177 639.5 Q207 674 248.5 693 Q290 712 340 712 Q411 712 452 665 Q493 618 493 537 Q493 477 477 428 Q461 379 431 344.5 Q401 310 359.5 291 Q318 272 267 272 Z M279 356 Q309 356 333 368.5 Q357 381 373 403.5 Q389 426 397.5 457 Q406 488 406 525 Q406 574 386 601 Q366 628 328 628 Q299 628 276 616 Q253 604 236 582 Q219 560 210 529 Q201 498 201 461 Q201 411 221.5 383.5 Q242 356 279 356 Z " />
<glyph glyph-name="ae" unicode="&#xe6;" horiz-adv-x="808" d="M571 -12 Q513 -12 470 13.5 Q427 39 407 86 Q361 32 310 10 Q259 -12 211 -12 Q180 -12 153.5 -2 Q127 8 107.5 26.5 Q88 45 76.5 72.5 Q65 100 65 136 Q65 186 83 222.5 Q101 259 131 282.5 Q161 306 200 317.5 Q239 329 281 329 Q311 329 341 320.5 Q371 312 394 298 L400 332 Q403 350 403 363 Q403 399 382.5 417 Q362 435 327 435 Q286 435 244.5 420 Q203 405 169 382 L156 465 Q191 487 238.5 505 Q286 523 341 523 Q386 523 421 502 Q456 481 473 447 Q505 485 550 504 Q595 523 645 523 Q730 523 778 474 Q826 425 826 328 Q826 293 820 265 Q814 237 807 216 L478 216 Q477 211 477 209 Q477 207 477 202 Q477 142 506 109.5 Q535 77 584 77 Q610 77 640.5 88 Q671 99 700 124 L748 56 Q713 24 669 6 Q625 -12 571 -12 Z M240 75 Q278 75 310 94 Q342 113 365 137 L378 212 Q361 224 335 233 Q309 242 280 242 Q256 242 234.5 236.5 Q213 231 196.5 219.5 Q180 208 170.5 189.5 Q161 171 161 145 Q161 115 181 95 Q201 75 240 75 Z M633 434 Q585 434 546 402.5 Q507 371 491 302 L727 302 Q730 321 730 340 Q727 388 700.5 411 Q674 434 633 434 Z " />
<glyph glyph-name="oslash" unicode="&#xf8;" horiz-adv-x="522" d="M500 437 Q532 382 532 310 Q532 247 514.5 189 Q497 131 463.5 86 Q430 41 381.5 14.5 Q333 -12 271 -12 Q235 -12 206.5 -3.5 Q178 5 156 21 L128 -12 L40 -12 L110 71 Q79 124 79 204 Q79 265 97 323 Q115 381 148.5 425 Q182 469 231.5 496 Q281 523 344 523 Q378 523 405.5 513.5 Q433 504 454 488 L483 523 L571 523 L500 437 Z M178 213 Q178 186 184 162 L390 409 Q367 429 334 429 Q297 429 268 410 Q239 391 219 360.5 Q199 330 188.5 291.5 Q178 253 178 213 Z M276 82 Q313 82 342.5 100.5 Q372 119 392 150 Q412 181 422.5 219.5 Q433 258 433 299 Q433 311 431.5 323.5 Q430 336 426 347 L222 101 Q243 82 276 82 Z " />
<glyph glyph-name="questiondown" unicode="&#xbf;" horiz-adv-x="480" d="M204 -200 Q162 -200 129.5 -187 Q97 -174 75 -151.5 Q53 -129 41.5 -99 Q30 -69 30 -35 Q30 12 44.5 44.5 Q59 77 81.5 101 Q104 125 131 144.5 Q158 164 183 185.5 Q208 207 227.5 234 Q247 261 255 300 L259 322 L356 322 L351 299 Q341 250 321 215.5 Q301 181 276 156.5 Q251 132 225 113 Q199 94 177.5 75 Q156 56 142.5 33 Q129 10 129 -22 Q129 -56 151.5 -80.5 Q174 -105 221 -105 Q280 -105 320 -69 Q360 -33 372 33 L468 33 Q459 -21 435 -64.5 Q411 -108 376 -138 Q341 -168 297 -184 Q253 -200 204 -200 Z M320 378 Q291 378 275 396 Q259 414 259 439 Q259 474 283 498.5 Q307 523 341 523 Q369 523 385 505 Q401 487 401 462 Q401 445 394.5 429.5 Q388 414 377 402.5 Q366 391 351 384.5 Q336 378 320 378 Z " />
<glyph glyph-name="exclamdown" unicode="&#xa1;" horiz-adv-x="259" d="M45 -200 L84 20 L164 317 L205 317 L180 20 L142 -200 L45 -200 Z M199 378 Q170 378 153.5 396 Q137 414 137 439 Q137 474 161 498.5 Q185 523 219 523 Q247 523 263.5 505 Q280 487 280 462 Q280 445 273.5 429.5 Q267 414 255.5 402.5 Q244 391 229.5 384.5 Q215 378 199 378 Z " />
<glyph glyph-name="logicalnot" unicode="&#xac;" horiz-adv-x="605" d="M487 168 L487 375 L130 375 L130 471 L588 471 L588 168 L487 168 Z " />
<glyph glyph-name="radical" unicode="&#x221a;" horiz-adv-x="531" d="M625 700 L298 0 L215 0 L103 340 L202 340 L268 135 L523 700 L625 700 Z " />
<glyph glyph-name="florin" unicode="&#x192;" horiz-adv-x="347" d="M137 511 L209 511 L224 593 Q230 628 244 651 Q258 674 276 687.5 Q294 701 315.5 706.5 Q337 712 358 712 Q387 712 408.5 705 Q430 698 449 687 L434 604 Q414 613 399 617.5 Q384 622 367 622 Q341 622 331 608.5 Q321 595 318 575 L306 511 L418 511 L402 421 L290 421 L213 -17 Q204 -70 184.5 -107 Q165 -144 137.5 -169 Q110 -194 75 -208 Q40 -222 0 -229 L-33 -150 Q40 -139 72 -112.5 Q104 -86 112 -40 L194 421 L121 421 L137 511 Z " />
<glyph glyph-name="approxequal" unicode="&#x2248;" horiz-adv-x="605" d="M463 367 Q431 367 403.5 376 Q376 385 351.5 396 Q327 407 304.5 416 Q282 425 260 425 Q231 425 215.5 409 Q200 393 198 367 L126 367 Q126 397 133.5 425 Q141 453 156.5 474.5 Q172 496 197.5 508.5 Q223 521 259 521 Q291 521 318.5 512 Q346 503 371 492 Q396 481 418 472 Q440 463 462 463 Q491 463 506.5 479 Q522 495 524 521 L596 521 Q596 491 588.5 463 Q581 435 565.5 413.5 Q550 392 524.5 379.5 Q499 367 463 367 Z M463 164 Q431 164 403.5 173 Q376 182 351.5 193.5 Q327 205 304.5 214 Q282 223 260 223 Q231 223 215.5 206.5 Q200 190 198 164 L126 164 Q126 195 133.5 223 Q141 251 156.5 272.5 Q172 294 197.5 307 Q223 320 259 320 Q291 320 318.5 311 Q346 302 371 290.5 Q396 279 418 270 Q440 261 462 261 Q491 261 506.5 277.5 Q522 294 524 320 L558 320 L596 320 Q596 289 588.5 261 Q581 233 565.5 211.5 Q550 190 524.5 177 Q499 164 463 164 Z " />
<glyph glyph-name="Delta" unicode="&#x2206;" horiz-adv-x="611" d="M24 0 L383 700 L471 700 L585 0 L24 0 Z M416 469 Q413 486 410 508.5 Q407 531 405 549 Q398 532 386.5 508.5 Q375 485 367 469 L179 96 L472 96 L416 469 Z " />
<glyph glyph-name="guillemotleft" unicode="&#xab;" horiz-adv-x="498" d="M175 0 L74 256 L265 511 L369 511 L177 251 L277 0 L175 0 Z M425 0 L378 0 L277 256 L468 511 L574 511 L381 251 L481 0 L425 0 Z " />
<glyph glyph-name="guillemotright" unicode="&#xbb;" horiz-adv-x="498" d="M215 0 L409 259 L311 511 L413 511 L514 256 L323 0 L215 0 Z M11 0 L205 259 L107 511 L209 511 L310 256 L119 0 L11 0 Z " />
<glyph glyph-name="ellipsis" unicode="&#x2026;" horiz-adv-x="881" d="M144 -12 Q121 -12 107 3 Q93 18 93 39 Q93 68 115 89 Q137 110 165 110 Q188 110 202.5 94.5 Q217 79 217 57 Q217 28 195 8 Q173 -12 144 -12 Z M438 -12 Q415 -12 401 3 Q387 18 387 39 Q387 68 408.5 89 Q430 110 459 110 Q482 110 496.5 94.5 Q511 79 511 57 Q511 28 489 8 Q467 -12 438 -12 Z M732 -12 Q709 -12 695 3 Q681 18 681 39 Q681 68 703 89 Q725 110 753 110 Q776 110 790.5 94.5 Q805 79 805 57 Q805 28 783 8 Q761 -12 732 -12 Z " />
<glyph glyph-name="Agrave" unicode="&#xc0;" horiz-adv-x="659" d="M519 0 L492 163 L231 163 L146 0 L37 0 L405 700 L499 700 L623 0 L519 0 Z M437 493 Q435 504 432 523.5 Q429 543 428 552 Q424 543 415.5 524.5 Q407 506 401 494 L278 255 L477 255 L437 493 Z M447 766 L301 922 L433 922 L542 766 L447 766 Z " />
<glyph glyph-name="Atilde" unicode="&#xc3;" horiz-adv-x="659" d="M519 0 L492 163 L231 163 L146 0 L37 0 L405 700 L499 700 L623 0 L519 0 Z M437 493 Q435 504 432 523.5 Q429 543 428 552 Q424 543 415.5 524.5 Q407 506 401 494 L278 255 L477 255 L437 493 Z M543 782 Q517 782 497.5 789.5 Q478 797 460.5 806 Q443 815 427 822.5 Q411 830 393 830 Q375 830 360 819.5 Q345 809 340 786 L292 786 Q302 843 331 876.5 Q360 910 414 910 Q439 910 459 902.5 Q479 895 496 886 Q513 877 529 869.5 Q545 862 563 862 Q581 862 596 872.5 Q611 883 617 906 L664 906 Q654 849 625.5 815.5 Q597 782 543 782 Z " />
<glyph glyph-name="Otilde" unicode="&#xd5;" horiz-adv-x="689" d="M361 84 Q419 84 463.5 113.5 Q508 143 538 190.5 Q568 238 583.5 298.5 Q599 359 599 421 Q599 457 591 491.5 Q583 526 565 553.5 Q547 581 518.5 598 Q490 615 450 615 Q391 615 346.5 584.5 Q302 554 272.5 506 Q243 458 228 398.5 Q213 339 213 281 Q213 243 221 208 Q229 173 247 145 Q265 117 293 100.5 Q321 84 361 84 Z M361 -12 Q293 -12 245.5 12.5 Q198 37 168 78 Q138 119 124.5 171.5 Q111 224 111 281 Q111 359 132.5 436.5 Q154 514 197.5 575 Q241 636 305 674 Q369 712 455 712 Q520 712 566.5 687 Q613 662 643 621 Q673 580 687 528 Q701 476 701 421 Q701 341 679 263.5 Q657 186 614 124.5 Q571 63 507.5 25.5 Q444 -12 361 -12 Z M561 782 Q535 782 515.5 789.5 Q496 797 478.5 806 Q461 815 445 822.5 Q429 830 411 830 Q393 830 378 819.5 Q363 809 358 786 L310 786 Q320 843 349 876.5 Q378 910 432 910 Q457 910 477 902.5 Q497 895 514 886 Q531 877 547 869.5 Q563 862 581 862 Q599 862 614 872.5 Q629 883 635 906 L682 906 Q672 849 643.5 815.5 Q615 782 561 782 Z " />
<glyph glyph-name="OE" unicode="&#x152;" horiz-adv-x="880" d="M442 0 Q400 -12 350 -12 Q282 -12 236.5 13.5 Q191 39 163 79.5 Q135 120 123 171 Q111 222 111 273 Q111 322 120 373.5 Q129 425 147 473.5 Q165 522 193.5 565.5 Q222 609 261 641.5 Q300 674 350 693 Q400 712 462 712 Q487 712 507.5 708.5 Q528 705 546 700 L932 700 L916 602 L640 602 L606 410 L772 410 L754 313 L588 313 L551 97 L847 97 L830 0 L442 0 Z M364 84 Q388 84 410 90 Q432 96 452 107 L537 587 Q500 615 448 615 Q389 615 345.5 584.5 Q302 554 273 506 Q244 458 229.5 399 Q215 340 215 283 Q215 245 223 209.5 Q231 174 248.5 146 Q266 118 294.5 101 Q323 84 364 84 Z " />
<glyph glyph-name="oe" unicode="&#x153;" horiz-adv-x="847" d="M518 204 Q518 144 547 110.5 Q576 77 624 77 Q653 77 683.5 89 Q714 101 741 124 L788 58 Q753 26 708.5 7 Q664 -12 607 -12 Q555 -12 516 11 Q477 34 454 75 Q420 35 373.5 11.5 Q327 -12 268 -12 Q220 -12 184 4 Q148 20 125 48.5 Q102 77 90.5 116 Q79 155 79 202 Q79 264 97 322 Q115 380 149 424.5 Q183 469 232 496 Q281 523 342 523 Q401 523 439.5 499.5 Q478 476 500 437 Q534 477 579 500 Q624 523 678 523 Q763 523 814.5 475 Q866 427 866 331 Q866 299 861 270 Q856 241 848 216 L518 216 L518 204 Z M274 82 Q312 82 341.5 100.5 Q371 119 391.5 150 Q412 181 422.5 219.5 Q433 258 433 299 Q433 326 427.5 349.5 Q422 373 410.5 391 Q399 409 381 419 Q363 429 338 429 Q299 429 269.5 410 Q240 391 219.5 360.5 Q199 330 188.5 291.5 Q178 253 178 213 Q178 156 201 119 Q224 82 274 82 Z M768 302 Q771 327 770 341 Q768 368 759.5 385.5 Q751 403 738 414 Q725 425 708.5 429.5 Q692 434 675 434 Q646 434 622.5 424 Q599 414 581 396 Q563 378 550.5 354 Q538 330 532 302 L768 302 Z " />
<glyph glyph-name="endash" unicode="&#x2013;" horiz-adv-x="475" d="M91 243 L106 330 L485 330 L470 243 L91 243 Z " />
<glyph glyph-name="emdash" unicode="&#x2014;" horiz-adv-x="552" d="M38 243 L53 330 L615 330 L600 243 L38 243 Z " />
<glyph glyph-name="quotedblleft" unicode="&#x201c;" horiz-adv-x="421" d="M289 689 Q281 683 270.5 672.5 Q260 662 249.5 648 Q239 634 229.5 617.5 Q220 601 215 584 Q238 581 252.5 565 Q267 549 267 526 Q267 488 242 464 Q217 440 184 440 Q158 440 139.5 457.5 Q121 475 121 510 Q121 541 132.5 570.5 Q144 600 162.5 626 Q181 652 206 674 Q231 696 258 712 L289 689 Z M498 689 Q490 683 479.5 672.5 Q469 662 458.5 648 Q448 634 439 617.5 Q430 601 425 584 Q448 581 462 565 Q476 549 476 526 Q476 506 469 490.5 Q462 475 450 463.5 Q438 452 423 446 Q408 440 392 440 Q366 440 348 458 Q330 476 330 511 Q330 541 341.5 570.5 Q353 600 371.5 626 Q390 652 415 674 Q440 696 467 712 L498 689 Z " />
<glyph glyph-name="quotedblright" unicode="&#x201d;" horiz-adv-x="421" d="M126 463 Q133 469 144 479.5 Q155 490 165.5 504 Q176 518 185.5 534 Q195 550 200 567 Q177 571 163 586.5 Q149 602 149 626 Q149 664 174 688 Q199 712 232 712 Q257 712 275.5 694 Q294 676 294 641 Q294 610 283 581 Q272 552 253 525.5 Q234 499 209 477.5 Q184 456 157 440 L126 463 Z M335 463 Q342 469 353 479.5 Q364 490 374.5 504 Q385 518 394.5 534 Q404 550 409 567 Q386 571 372 586.5 Q358 602 358 626 Q358 664 383 688 Q408 712 441 712 Q466 712 484.5 694 Q503 676 503 641 Q503 610 492 581 Q481 552 462 525.5 Q443 499 418 477.5 Q393 456 366 440 L335 463 Z " />
<glyph glyph-name="quoteleft" unicode="&#x2018;" horiz-adv-x="212" d="M289 689 Q281 683 270.5 672.5 Q260 662 249.5 648 Q239 634 229.5 617.5 Q220 601 215 584 Q238 581 252.5 565 Q267 549 267 526 Q267 488 242 464 Q217 440 184 440 Q158 440 139.5 457.5 Q121 475 121 510 Q121 541 132.5 570.5 Q144 600 162.5 626 Q181 652 206 674 Q231 696 258 712 L289 689 Z " />
<glyph glyph-name="quoteright" unicode="&#x2019;" horiz-adv-x="212" d="M126 463 Q133 469 144 479.5 Q155 490 165.5 504 Q176 518 185.5 534 Q195 550 200 567 Q177 571 163 586.5 Q149 602 149 626 Q149 664 174 688 Q199 712 232 712 Q257 712 275.5 694 Q294 676 294 641 Q294 610 283 581 Q272 552 253 525.5 Q234 499 209 477.5 Q184 456 157 440 L126 463 Z " />
<glyph glyph-name="divide" unicode="&#xf7;" horiz-adv-x="605" d="M130 294 L130 391 L588 391 L588 294 L130 294 Z M358 473 Q331 473 313 491 Q295 509 295 535 Q295 561 313 579.5 Q331 598 358 598 Q385 598 403.5 579.5 Q422 561 422 535 Q422 509 403.5 491 Q385 473 358 473 Z M358 88 Q331 88 313 105.5 Q295 123 295 149 Q295 175 313 193 Q331 211 358 211 Q385 211 403.5 193 Q422 175 422 149 Q422 123 403.5 105.5 Q385 88 358 88 Z " />
<glyph glyph-name="lozenge" unicode="&#x25ca;" horiz-adv-x="575" d="M245 -12 L115 350 L373 712 L455 712 L585 350 L327 -12 L245 -12 Z M397 602 L213 344 L301 99 L486 356 L397 602 Z " />
<glyph glyph-name="ydieresis" unicode="&#xff;" horiz-adv-x="504" d="M199 -194 L93 -194 L203 13 L109 511 L209 511 L266 178 Q268 165 270 153 Q272 141 273 136 Q275 142 281.5 154.5 Q288 167 294 178 L471 511 L578 511 L199 -194 Z M272 593 Q250 593 236.5 608 Q223 623 223 644 Q223 673 243.5 693 Q264 713 290 713 Q313 713 326.5 698.5 Q340 684 340 663 Q340 634 319.5 613.5 Q299 593 272 593 Z M444 593 Q421 593 407.5 608 Q394 623 394 644 Q394 673 415 693 Q436 713 462 713 Q485 713 498.5 698.5 Q512 684 512 663 Q512 634 491 613.5 Q470 593 444 593 Z " />
<glyph glyph-name="Ydieresis" unicode="&#x178;" horiz-adv-x="623" d="M259 0 L309 281 L151 700 L257 700 L373 377 L604 700 L717 700 L410 276 L361 0 L259 0 Z M360 783 Q338 783 324.5 798 Q311 813 311 834 Q311 863 331.5 883 Q352 903 378 903 Q401 903 414.5 888.5 Q428 874 428 853 Q428 824 407.5 803.5 Q387 783 360 783 Z M532 783 Q509 783 495.5 798 Q482 813 482 834 Q482 863 503 883 Q524 903 550 903 Q573 903 586.5 888.5 Q600 874 600 853 Q600 824 579 803.5 Q558 783 532 783 Z " />
<glyph glyph-name="fraction" unicode="&#x2044;" horiz-adv-x="315" d="M-121 -12 L466 712 L561 712 L-26 -12 L-121 -12 Z " />
<glyph glyph-name="Euro" unicode="&#x20ac;" horiz-adv-x="618" d="M493 384 L269 384 Q259 344 254 301 L446 301 L402 223 L253 224 Q254 194 260 168 Q266 142 279 123.5 Q292 105 313 94 Q334 83 365 83 Q405 83 439 102 Q473 121 502 154 L570 105 Q533 54 480 21 Q427 -12 358 -12 Q256 -12 206 49.5 Q156 111 151 224 L71 224 L118 301 L154 301 Q156 321 159 341 Q162 361 167 384 L100 384 L147 462 L190 462 Q207 510 233.5 555.5 Q260 601 296.5 635.5 Q333 670 380.5 691 Q428 712 487 712 Q532 712 572 698.5 Q612 685 648 655 L597 565 Q575 588 544.5 602.5 Q514 617 474 617 Q440 617 412.5 604.5 Q385 592 363 570.5 Q341 549 324 521 Q307 493 295 462 L538 462 L493 384 Z " />
<glyph glyph-name="guilsinglleft" unicode="&#x2039;" horiz-adv-x="294" d="M175 0 L74 256 L265 511 L372 511 L179 254 L278 0 L175 0 Z " />
<glyph glyph-name="guilsinglright" unicode="&#x203a;" horiz-adv-x="294" d="M13 0 L206 258 L106 511 L209 511 L310 256 L119 0 L13 0 Z " />
<glyph glyph-name="fi" unicode="&#xfb01;" horiz-adv-x="534" d="M267 422 L192 0 L93 0 L168 422 L92 422 L108 511 L183 511 L198 596 Q204 630 218 653 Q232 676 250 689 Q268 702 289.5 707.5 Q311 713 332 713 Q359 713 381.5 705.5 Q404 698 424 687 L409 604 Q389 614 373.5 618 Q358 622 342 622 Q319 622 308.5 608.5 Q298 595 294 575 L282 511 L390 511 L375 422 L267 422 Z M365 0 L455 511 L554 511 L464 0 L365 0 Z M520 594 Q497 594 483 608.5 Q469 623 469 644 Q469 674 490 694.5 Q511 715 536 715 Q560 715 574 700.5 Q588 686 588 665 Q588 635 567 614.5 Q546 594 520 594 Z " />
<glyph glyph-name="fl" unicode="&#xfb02;" horiz-adv-x="541" d="M267 422 L192 0 L93 0 L168 422 L92 422 L108 511 L183 511 L198 596 Q204 630 218 653 Q232 676 250 689 Q268 702 289.5 707.5 Q311 713 332 713 Q359 713 381.5 705.5 Q404 698 424 687 L409 604 Q389 614 373.5 618 Q358 622 342 622 Q319 622 308.5 608.5 Q298 595 294 575 L282 511 L390 511 L375 422 L267 422 Z M365 0 L486 685 L592 722 L464 0 L365 0 Z " />
<glyph glyph-name="daggerdbl" unicode="&#x2021;" horiz-adv-x="535" d="M447 146 L498 146 L481 49 L430 49 L319 67 L313 -16 L291 -141 L193 -141 L215 -16 L238 67 L121 49 L70 49 L87 146 L138 146 L250 129 L259 234 L277 336 L305 440 L187 424 L136 424 L153 521 L204 521 L315 504 L322 587 L344 712 L442 712 L420 587 L396 504 L513 521 L564 521 L547 424 L496 424 L384 440 L375 336 L357 234 L329 129 L447 146 Z " />
<glyph glyph-name="periodcentered" unicode="&#xb7;" horiz-adv-x="209" d="M155 276 Q128 276 111.5 294.5 Q95 313 95 338 Q95 355 101.5 370.5 Q108 386 119.5 397.5 Q131 409 145.5 415.5 Q160 422 176 422 Q205 422 221 403.5 Q237 385 237 360 Q237 325 213.5 300.5 Q190 276 155 276 Z " />
<glyph glyph-name="quotesinglbase" unicode="&#x201a;" horiz-adv-x="212" d="M24 -118 Q31 -112 42 -101.5 Q53 -91 63.5 -77 Q74 -63 83.5 -46.5 Q93 -30 98 -13 Q75 -10 60.5 6 Q46 22 46 45 Q46 84 70.5 107.5 Q95 131 126 131 Q154 131 172.5 113 Q191 95 191 60 Q191 29 180 0 Q169 -29 150 -55.5 Q131 -82 106.5 -103.5 Q82 -125 55 -141 L24 -118 Z " />
<glyph glyph-name="quotedblbase" unicode="&#x201e;" horiz-adv-x="421" d="M24 -118 Q31 -112 42 -101.5 Q53 -91 63.5 -77 Q74 -63 83.5 -46.5 Q93 -30 98 -13 Q75 -10 60.5 6 Q46 22 46 45 Q46 84 70.5 107.5 Q95 131 126 131 Q154 131 172.5 113 Q191 95 191 60 Q191 29 180 0 Q169 -29 150 -55.5 Q131 -82 106.5 -103.5 Q82 -125 55 -141 L24 -118 Z M232 -118 Q239 -112 250 -101.5 Q261 -91 271.5 -77 Q282 -63 291.5 -46.5 Q301 -30 306 -13 Q283 -10 269 6 Q255 22 255 45 Q255 84 279.5 107.5 Q304 131 334 131 Q362 131 381 113 Q400 95 400 60 Q400 29 389 0 Q378 -29 359 -55.5 Q340 -82 315 -103.5 Q290 -125 263 -141 L232 -118 Z " />
<glyph glyph-name="perthousand" unicode="&#x2030;" horiz-adv-x="1190" d="M261 351 Q225 351 200.5 364 Q176 377 161 397.5 Q146 418 139 443.5 Q132 469 132 495 Q132 529 143.5 567 Q155 605 178.5 637 Q202 669 238.5 690.5 Q275 712 325 712 Q361 712 385.5 699 Q410 686 425 665.5 Q440 645 447 619.5 Q454 594 454 568 Q454 534 443 496 Q432 458 408.5 425.5 Q385 393 348.5 372 Q312 351 261 351 Z M276 434 Q298 434 315 444.5 Q332 455 344 472 Q356 489 362 511 Q368 533 368 557 Q368 588 353.5 608.5 Q339 629 310 629 Q287 629 270 618.5 Q253 608 242 591 Q231 574 225 551.5 Q219 529 219 505 Q219 475 232.5 454.5 Q246 434 276 434 Z M225 -12 L129 -12 L715 712 L812 712 L225 -12 Z M615 -12 Q579 -12 554.5 0.5 Q530 13 514.5 33.5 Q499 54 492.5 79.5 Q486 105 486 131 Q486 165 497.5 203.5 Q509 242 532.5 274 Q556 306 592.5 327.5 Q629 349 679 349 Q715 349 739.5 336 Q764 323 779 302.5 Q794 282 800.5 256.5 Q807 231 807 205 Q807 171 796.5 133 Q786 95 762.5 62.5 Q739 30 702.5 9 Q666 -12 615 -12 Z M630 71 Q652 71 669 81 Q686 91 698 108 Q710 125 716 147 Q722 169 722 193 Q722 225 707.5 245.5 Q693 266 664 266 Q641 266 623.5 255.5 Q606 245 594.5 228 Q583 211 577.5 189 Q572 167 572 143 Q572 112 585.5 91.5 Q599 71 630 71 Z M988 -12 Q952 -12 927.5 0.5 Q903 13 888 33.5 Q873 54 866 79.5 Q859 105 859 131 Q859 165 870.5 203.5 Q882 242 905.5 274 Q929 306 965.5 327.5 Q1002 349 1052 349 Q1088 349 1112.5 336 Q1137 323 1152 302.5 Q1167 282 1174 256.5 Q1181 231 1181 205 Q1181 171 1170 133 Q1159 95 1136 62.5 Q1113 30 1076.5 9 Q1040 -12 988 -12 Z M1003 71 Q1025 71 1042 81 Q1059 91 1071 108 Q1083 125 1089 147 Q1095 169 1095 193 Q1095 225 1081 245.5 Q1067 266 1037 266 Q1014 266 997 255.5 Q980 245 968.5 228 Q957 211 951 188.5 Q945 166 945 142 Q945 112 959 91.5 Q973 71 1003 71 Z " />
<glyph glyph-name="Acircumflex" unicode="&#xc2;" horiz-adv-x="659" d="M519 0 L492 163 L231 163 L146 0 L37 0 L405 700 L499 700 L623 0 L519 0 Z M437 493 Q435 504 432 523.5 Q429 543 428 552 Q424 543 415.5 524.5 Q407 506 401 494 L278 255 L477 255 L437 493 Z M559 766 L478 851 L367 766 L279 766 L441 922 L540 922 L648 766 L559 766 Z " />
<glyph glyph-name="Ecircumflex" unicode="&#xca;" horiz-adv-x="575" d="M82 0 L205 700 L627 700 L611 604 L292 604 L258 409 L458 409 L440 314 L241 314 L203 95 L542 95 L525 0 L82 0 Z M528 766 L447 851 L336 766 L248 766 L410 922 L509 922 L617 766 L528 766 Z " />
<glyph glyph-name="Aacute" unicode="&#xc1;" horiz-adv-x="659" d="M519 0 L492 163 L231 163 L146 0 L37 0 L405 700 L499 700 L623 0 L519 0 Z M437 493 Q435 504 432 523.5 Q429 543 428 552 Q424 543 415.5 524.5 Q407 506 401 494 L278 255 L477 255 L437 493 Z M467 766 L372 766 L536 922 L667 922 L467 766 Z " />
<glyph glyph-name="Edieresis" unicode="&#xcb;" horiz-adv-x="575" d="M82 0 L205 700 L627 700 L611 604 L292 604 L258 409 L458 409 L440 314 L241 314 L203 95 L542 95 L525 0 L82 0 Z M350 783 Q328 783 314.5 798 Q301 813 301 834 Q301 863 321.5 883 Q342 903 368 903 Q391 903 404.5 888.5 Q418 874 418 853 Q418 824 397.5 803.5 Q377 783 350 783 Z M522 783 Q499 783 485.5 798 Q472 813 472 834 Q472 863 493 883 Q514 903 540 903 Q563 903 576.5 888.5 Q590 874 590 853 Q590 824 569 803.5 Q548 783 522 783 Z " />
<glyph glyph-name="Egrave" unicode="&#xc8;" horiz-adv-x="575" d="M82 0 L205 700 L627 700 L611 604 L292 604 L258 409 L458 409 L440 314 L241 314 L203 95 L542 95 L525 0 L82 0 Z M425 766 L279 922 L411 922 L520 766 L425 766 Z " />
<glyph glyph-name="Iacute" unicode="&#xcd;" horiz-adv-x="268" d="M82 0 L205 700 L309 700 L186 0 L82 0 Z M269 766 L174 766 L338 922 L469 922 L269 766 Z " />
<glyph glyph-name="Icircumflex" unicode="&#xce;" horiz-adv-x="268" d="M82 0 L205 700 L309 700 L186 0 L82 0 Z M361 766 L280 851 L169 766 L81 766 L243 922 L342 922 L450 766 L361 766 Z " />
<glyph glyph-name="Idieresis" unicode="&#xcf;" horiz-adv-x="268" d="M82 0 L205 700 L309 700 L186 0 L82 0 Z M185 783 Q163 783 149.5 798 Q136 813 136 834 Q136 863 156.5 883 Q177 903 203 903 Q226 903 239.5 888.5 Q253 874 253 853 Q253 824 232.5 803.5 Q212 783 185 783 Z M357 783 Q334 783 320.5 798 Q307 813 307 834 Q307 863 328 883 Q349 903 375 903 Q398 903 411.5 888.5 Q425 874 425 853 Q425 824 404 803.5 Q383 783 357 783 Z " />
<glyph glyph-name="Igrave" unicode="&#xcc;" horiz-adv-x="268" d="M82 0 L205 700 L309 700 L186 0 L82 0 Z M254 766 L108 922 L240 922 L349 766 L254 766 Z " />
<glyph glyph-name="Oacute" unicode="&#xd3;" horiz-adv-x="689" d="M361 84 Q419 84 463.5 113.5 Q508 143 538 190.5 Q568 238 583.5 298.5 Q599 359 599 421 Q599 457 591 491.5 Q583 526 565 553.5 Q547 581 518.5 598 Q490 615 450 615 Q391 615 346.5 584.5 Q302 554 272.5 506 Q243 458 228 398.5 Q213 339 213 281 Q213 243 221 208 Q229 173 247 145 Q265 117 293 100.5 Q321 84 361 84 Z M361 -12 Q293 -12 245.5 12.5 Q198 37 168 78 Q138 119 124.5 171.5 Q111 224 111 281 Q111 359 132.5 436.5 Q154 514 197.5 575 Q241 636 305 674 Q369 712 455 712 Q520 712 566.5 687 Q613 662 643 621 Q673 580 687 528 Q701 476 701 421 Q701 341 679 263.5 Q657 186 614 124.5 Q571 63 507.5 25.5 Q444 -12 361 -12 Z M491 766 L396 766 L560 922 L691 922 L491 766 Z " />
<glyph glyph-name="Ocircumflex" unicode="&#xd4;" horiz-adv-x="689" d="M361 84 Q419 84 463.5 113.5 Q508 143 538 190.5 Q568 238 583.5 298.5 Q599 359 599 421 Q599 457 591 491.5 Q583 526 565 553.5 Q547 581 518.5 598 Q490 615 450 615 Q391 615 346.5 584.5 Q302 554 272.5 506 Q243 458 228 398.5 Q213 339 213 281 Q213 243 221 208 Q229 173 247 145 Q265 117 293 100.5 Q321 84 361 84 Z M361 -12 Q293 -12 245.5 12.5 Q198 37 168 78 Q138 119 124.5 171.5 Q111 224 111 281 Q111 359 132.5 436.5 Q154 514 197.5 575 Q241 636 305 674 Q369 712 455 712 Q520 712 566.5 687 Q613 662 643 621 Q673 580 687 528 Q701 476 701 421 Q701 341 679 263.5 Q657 186 614 124.5 Q571 63 507.5 25.5 Q444 -12 361 -12 Z M579 766 L498 851 L387 766 L299 766 L461 922 L560 922 L668 766 L579 766 Z " />
<glyph glyph-name="Ograve" unicode="&#xd2;" horiz-adv-x="689" d="M361 84 Q419 84 463.5 113.5 Q508 143 538 190.5 Q568 238 583.5 298.5 Q599 359 599 421 Q599 457 591 491.5 Q583 526 565 553.5 Q547 581 518.5 598 Q490 615 450 615 Q391 615 346.5 584.5 Q302 554 272.5 506 Q243 458 228 398.5 Q213 339 213 281 Q213 243 221 208 Q229 173 247 145 Q265 117 293 100.5 Q321 84 361 84 Z M361 -12 Q293 -12 245.5 12.5 Q198 37 168 78 Q138 119 124.5 171.5 Q111 224 111 281 Q111 359 132.5 436.5 Q154 514 197.5 575 Q241 636 305 674 Q369 712 455 712 Q520 712 566.5 687 Q613 662 643 621 Q673 580 687 528 Q701 476 701 421 Q701 341 679 263.5 Q657 186 614 124.5 Q571 63 507.5 25.5 Q444 -12 361 -12 Z M471 766 L325 922 L457 922 L566 766 L471 766 Z " />
<glyph glyph-name="Uacute" unicode="&#xda;" horiz-adv-x="664" d="M345 -12 Q298 -12 257 0.5 Q216 13 186 39 Q156 65 138.5 105 Q121 145 121 200 Q121 217 122.5 238 Q124 259 130 291 L202 700 L305 700 L231 276 Q227 253 225.5 237.5 Q224 222 224 208 Q224 172 234.5 148.5 Q245 125 262.5 110.5 Q280 96 303 90.5 Q326 85 351 85 Q382 85 410.5 93 Q439 101 462.5 121 Q486 141 504 176 Q522 211 531 264 L608 700 L710 700 L633 258 Q619 181 593.5 129 Q568 77 531 45.5 Q494 14 447 1 Q400 -12 345 -12 Z M484 766 L389 766 L553 922 L684 922 L484 766 Z " />
<glyph glyph-name="Ucircumflex" unicode="&#xdb;" horiz-adv-x="664" d="M345 -12 Q298 -12 257 0.5 Q216 13 186 39 Q156 65 138.5 105 Q121 145 121 200 Q121 217 122.5 238 Q124 259 130 291 L202 700 L305 700 L231 276 Q227 253 225.5 237.5 Q224 222 224 208 Q224 172 234.5 148.5 Q245 125 262.5 110.5 Q280 96 303 90.5 Q326 85 351 85 Q382 85 410.5 93 Q439 101 462.5 121 Q486 141 504 176 Q522 211 531 264 L608 700 L710 700 L633 258 Q619 181 593.5 129 Q568 77 531 45.5 Q494 14 447 1 Q400 -12 345 -12 Z M558 766 L477 851 L366 766 L278 766 L440 922 L539 922 L647 766 L558 766 Z " />
<glyph glyph-name="Ugrave" unicode="&#xd9;" horiz-adv-x="664" d="M345 -12 Q298 -12 257 0.5 Q216 13 186 39 Q156 65 138.5 105 Q121 145 121 200 Q121 217 122.5 238 Q124 259 130 291 L202 700 L305 700 L231 276 Q227 253 225.5 237.5 Q224 222 224 208 Q224 172 234.5 148.5 Q245 125 262.5 110.5 Q280 96 303 90.5 Q326 85 351 85 Q382 85 410.5 93 Q439 101 462.5 121 Q486 141 504 176 Q522 211 531 264 L608 700 L710 700 L633 258 Q619 181 593.5 129 Q568 77 531 45.5 Q494 14 447 1 Q400 -12 345 -12 Z M456 766 L310 922 L442 922 L551 766 L456 766 Z " />
<glyph glyph-name="dotlessi" unicode="&#x131;" horiz-adv-x="241" d="M71 0 L161 511 L259 511 L169 0 L71 0 Z " />
<glyph glyph-name="circumflex" unicode="&#x2c6;" horiz-adv-x="374" d="M418 576 L337 661 L226 576 L138 576 L300 732 L399 732 L507 576 L418 576 Z " />
<glyph glyph-name="tilde" unicode="&#x2dc;" horiz-adv-x="374" d="M398 592 Q372 592 352.5 599.5 Q333 607 315.5 616 Q298 625 282 632.5 Q266 640 248 640 Q230 640 215 629.5 Q200 619 195 596 L147 596 Q157 653 186 686.5 Q215 720 269 720 Q294 720 314 712.5 Q334 705 351 696 Q368 687 384 679.5 Q400 672 418 672 Q436 672 451 682.5 Q466 693 472 716 L519 716 Q509 659 480.5 625.5 Q452 592 398 592 Z " />
<glyph glyph-name="macron" unicode="&#xaf;" horiz-adv-x="374" d="M171 597 L185 681 L502 681 L488 597 L171 597 Z " />
<glyph glyph-name="breve" unicode="&#x2d8;" horiz-adv-x="374" d="M327 576 Q287 576 258 586.5 Q229 597 210 615 Q191 633 182 656.5 Q173 680 173 706 Q173 724 176 742 L256 742 Q255 737 254.5 733 Q254 729 254 724 Q254 692 274.5 673 Q295 654 337 654 Q382 654 412.5 679 Q443 704 450 742 L531 742 Q525 708 509.5 678 Q494 648 468.5 625.5 Q443 603 407.5 589.5 Q372 576 327 576 Z " />
<glyph glyph-name="dotaccent" unicode="&#x2d9;" horiz-adv-x="374" d="M325 593 Q304 593 290.5 608 Q277 623 277 644 Q277 673 298 693 Q319 713 346 713 Q368 713 381.5 698.5 Q395 684 395 663 Q395 634 374 613.5 Q353 593 325 593 Z " />
<glyph glyph-name="ring" unicode="&#x2da;" horiz-adv-x="374" d="M308 532 Q287 532 269 540 Q251 548 238 562.5 Q225 577 217.5 595.5 Q210 614 210 635 Q210 664 222 689 Q234 714 253.5 733 Q273 752 298.5 762.5 Q324 773 351 773 Q393 773 420.5 743.5 Q448 714 448 672 Q448 643 436 618 Q424 593 404.5 573.5 Q385 554 359.5 543 Q334 532 308 532 Z M320 603 Q343 603 359.5 620 Q376 637 376 663 Q376 681 365.5 692 Q355 703 338 703 Q317 703 300 687 Q283 671 283 645 Q283 627 293 615 Q303 603 320 603 Z " />
<glyph glyph-name="cedilla" unicode="&#xb8;" horiz-adv-x="374" d="M144 -239 Q108 -239 86.5 -227 Q65 -215 54 -198 L108 -163 Q113 -170 121 -175 Q129 -180 144 -180 Q167 -180 183.5 -166.5 Q200 -153 200 -131 Q200 -113 187.5 -102.5 Q175 -92 154 -92 Q130 -92 114 -101 L99 -77 L182 10 L236 10 L189 -51 Q239 -51 259.5 -73 Q280 -95 280 -124 Q280 -175 242.5 -207 Q205 -239 144 -239 Z " />
<glyph glyph-name="hungarumlaut" unicode="&#x2dd;" horiz-adv-x="374" d="M264 576 L169 576 L332 732 L462 732 L264 576 Z M464 576 L370 576 L533 732 L591 732 L662 732 L464 576 Z " />
<glyph glyph-name="ogonek" unicode="&#x2db;" horiz-adv-x="374" d="M148 -239 Q105 -239 78.5 -216.5 Q52 -194 52 -154 Q52 -97 95 -55 Q138 -13 212 10 L282 10 Q204 -21 169.5 -61 Q135 -101 135 -138 Q135 -158 146 -167.5 Q157 -177 172 -177 Q189 -177 201 -170.5 Q213 -164 221 -156 L262 -192 Q245 -209 217.5 -224 Q190 -239 148 -239 Z " />
<glyph glyph-name="caron" unicode="&#x2c7;" horiz-adv-x="374" d="M366 576 L268 576 L160 732 L248 732 L330 647 L440 732 L529 732 L366 576 Z " />
<glyph glyph-name="currency" unicode="&#xa4;" horiz-adv-x="602" d="M316 85 Q241 85 192 123 L116 55 L58 130 L138 201 Q132 217 129 240 Q126 263 126 281 Q126 334 140.5 378.5 Q155 423 185 465 L129 536 L211 609 L264 542 Q294 560 329 570.5 Q364 581 403 581 Q479 581 526 542 L602 609 L661 533 L583 464 Q588 447 590.5 424 Q593 401 593 382 Q593 332 579 286.5 Q565 241 533 198 L590 127 L508 55 L453 124 Q391 85 316 85 Z M333 182 Q367 182 396.5 196 Q426 210 447.5 234 Q469 258 481 291 Q493 324 493 362 Q493 414 465 449 Q437 484 386 484 Q353 484 323.5 470 Q294 456 272.5 431.5 Q251 407 238.5 374 Q226 341 226 303 Q226 251 254 216.5 Q282 182 333 182 Z " />
<glyph glyph-name="uni00AD" unicode="&#xad;" horiz-adv-x="377" d="M116 248 L133 345 L366 345 L349 248 L116 248 Z " />
<glyph glyph-name="Amacron" unicode="&#x100;" horiz-adv-x="659" d="M519 0 L492 163 L231 163 L146 0 L37 0 L405 700 L499 700 L623 0 L519 0 Z M437 493 Q435 504 432 523.5 Q429 543 428 552 Q424 543 415.5 524.5 Q407 506 401 494 L278 255 L477 255 L437 493 Z M311 787 L325 871 L642 871 L628 787 L311 787 Z " />
<glyph glyph-name="amacron" unicode="&#x101;" horiz-adv-x="509" d="M352 0 L359 41 Q337 21 300.5 4.5 Q264 -12 218 -12 Q150 -12 107.5 27.5 Q65 67 65 136 Q65 184 82.5 220 Q100 256 130 280 Q160 304 200 316 Q240 328 284 328 Q323 328 353 317.5 Q383 307 403 294 L409 326 Q414 351 414 364 Q414 404 390 419.5 Q366 435 334 435 Q292 435 249 419 Q206 403 173 382 L159 465 Q195 487 242.5 505 Q290 523 347 523 Q372 523 400.5 516.5 Q429 510 453.5 493 Q478 476 494 447.5 Q510 419 510 376 Q510 365 508.5 351 Q507 337 504 322 L448 0 L352 0 Z M242 75 Q284 75 318 93 Q352 111 375 134 L389 211 Q372 221 345 231.5 Q318 242 282 242 Q259 242 237.5 236.5 Q216 231 199 219.5 Q182 208 172 189.5 Q162 171 162 145 Q162 115 182.5 95 Q203 75 242 75 Z M203 597 L217 681 L534 681 L520 597 L203 597 Z " />
<glyph glyph-name="Abreve" unicode="&#x102;" horiz-adv-x="659" d="M519 0 L492 163 L231 163 L146 0 L37 0 L405 700 L499 700 L623 0 L519 0 Z M437 493 Q435 504 432 523.5 Q429 543 428 552 Q424 543 415.5 524.5 Q407 506 401 494 L278 255 L477 255 L437 493 Z M472 766 Q432 766 403 776.5 Q374 787 355 805 Q336 823 327 846.5 Q318 870 318 896 Q318 914 321 932 L401 932 Q400 927 399.5 923 Q399 919 399 914 Q399 882 419.5 863 Q440 844 482 844 Q527 844 557.5 869 Q588 894 595 932 L676 932 Q670 898 654.5 868 Q639 838 613.5 815.5 Q588 793 552.5 779.5 Q517 766 472 766 Z " />
<glyph glyph-name="abreve" unicode="&#x103;" horiz-adv-x="509" d="M352 0 L359 41 Q337 21 300.5 4.5 Q264 -12 218 -12 Q150 -12 107.5 27.5 Q65 67 65 136 Q65 184 82.5 220 Q100 256 130 280 Q160 304 200 316 Q240 328 284 328 Q323 328 353 317.5 Q383 307 403 294 L409 326 Q414 351 414 364 Q414 404 390 419.5 Q366 435 334 435 Q292 435 249 419 Q206 403 173 382 L159 465 Q195 487 242.5 505 Q290 523 347 523 Q372 523 400.5 516.5 Q429 510 453.5 493 Q478 476 494 447.5 Q510 419 510 376 Q510 365 508.5 351 Q507 337 504 322 L448 0 L352 0 Z M242 75 Q284 75 318 93 Q352 111 375 134 L389 211 Q372 221 345 231.5 Q318 242 282 242 Q259 242 237.5 236.5 Q216 231 199 219.5 Q182 208 172 189.5 Q162 171 162 145 Q162 115 182.5 95 Q203 75 242 75 Z M359 576 Q319 576 290 586.5 Q261 597 242 615 Q223 633 214 656.5 Q205 680 205 706 Q205 724 208 742 L288 742 Q287 737 286.5 733 Q286 729 286 724 Q286 692 306.5 673 Q327 654 369 654 Q414 654 444.5 679 Q475 704 482 742 L563 742 Q557 708 541.5 678 Q526 648 500.5 625.5 Q475 603 439.5 589.5 Q404 576 359 576 Z " />
<glyph glyph-name="Aogonek" unicode="&#x104;" horiz-adv-x="659" d="M478 -239 Q435 -239 408.5 -216.5 Q382 -194 382 -154 Q382 -103 417.5 -64 Q453 -25 519 0 L491 163 L231 163 L146 0 L37 0 L405 700 L499 700 L623 0 Q584 -8 554.5 -22.5 Q525 -37 505 -56 Q485 -75 475 -96 Q465 -117 465 -138 Q465 -158 476 -167.5 Q487 -177 502 -177 Q519 -177 531 -170.5 Q543 -164 551 -156 L591 -192 Q574 -209 546.5 -224 Q519 -239 478 -239 Z M437 493 Q435 504 432 523.5 Q429 543 428 552 Q424 543 415.5 524.5 Q407 506 401 494 L278 255 L477 255 L437 493 Z " />
<glyph glyph-name="aogonek" unicode="&#x105;" horiz-adv-x="509" d="M314 -239 Q272 -239 245.5 -216.5 Q219 -194 219 -154 Q219 -100 255.5 -62.5 Q292 -25 352 0 L359 41 Q337 21 300.5 4.5 Q264 -12 218 -12 Q150 -12 107.5 27.5 Q65 67 65 136 Q65 184 82.5 220 Q100 256 130 280 Q160 304 200 316 Q240 328 284 328 Q323 328 353 317.5 Q383 307 403 294 L409 326 Q414 351 414 364 Q414 404 390 419.5 Q366 435 334 435 Q292 435 249 419 Q206 403 173 382 L159 465 Q195 487 242.5 505 Q290 523 347 523 Q372 523 400.5 516.5 Q429 510 453.5 493 Q478 476 494 447.5 Q510 419 510 376 Q510 365 508.5 351 Q507 337 504 322 L448 0 Q382 -23 341.5 -60 Q301 -97 301 -138 Q301 -158 312 -167.5 Q323 -177 338 -177 Q355 -177 367 -170.5 Q379 -164 387 -156 L427 -192 Q410 -209 382.5 -224 Q355 -239 314 -239 Z M242 75 Q284 75 318 93 Q352 111 375 134 L389 211 Q372 221 345 231.5 Q318 242 282 242 Q259 242 237.5 236.5 Q216 231 199 219.5 Q182 208 172 189.5 Q162 171 162 145 Q162 115 182.5 95 Q203 75 242 75 Z " />
<glyph glyph-name="Cacute" unicode="&#x106;" horiz-adv-x="613" d="M351 -12 Q289 -12 243.5 12 Q198 36 168.5 76.5 Q139 117 125 170 Q111 223 111 280 Q111 363 134.5 440.5 Q158 518 202.5 578 Q247 638 311.5 674.5 Q376 711 457 711 Q502 711 536.5 699 Q571 687 596.5 668 Q622 649 638.5 624.5 Q655 600 664 576 L575 534 Q556 570 525.5 592.5 Q495 615 450 615 Q393 615 349 584.5 Q305 554 275.5 507 Q246 460 231 401.5 Q216 343 216 288 Q216 251 224 214.5 Q232 178 249 149.5 Q266 121 293 103.5 Q320 86 358 86 Q413 86 450 112.5 Q487 139 511 175 L599 135 Q557 68 497 28 Q437 -12 351 -12 Z M487 766 L392 766 L556 922 L687 922 L487 766 Z " />
<glyph glyph-name="cacute" unicode="&#x107;" horiz-adv-x="480" d="M263 -12 Q220 -12 186 4 Q152 20 128.5 48.5 Q105 77 92.5 117 Q80 157 80 205 Q80 274 98.5 332 Q117 390 150.5 432.5 Q184 475 231.5 499 Q279 523 337 523 Q403 523 448 488.5 Q493 454 507 394 L411 361 Q404 390 384 409.5 Q364 429 326 429 Q291 429 264 411 Q237 393 218.5 362.5 Q200 332 190.5 292.5 Q181 253 181 210 Q181 153 203 117.5 Q225 82 270 82 Q304 82 332.5 99.5 Q361 117 380 158 L466 127 Q439 61 386 24.5 Q333 -12 263 -12 Z M379 576 L284 576 L448 732 L579 732 L379 576 Z " />
<glyph glyph-name="Ccircumflex" unicode="&#x108;" horiz-adv-x="613" d="M351 -12 Q289 -12 243.5 12 Q198 36 168.5 76.5 Q139 117 125 170 Q111 223 111 280 Q111 363 134.5 440.5 Q158 518 202.5 578 Q247 638 311.5 674.5 Q376 711 457 711 Q502 711 536.5 699 Q571 687 596.5 668 Q622 649 638.5 624.5 Q655 600 664 576 L575 534 Q556 570 525.5 592.5 Q495 615 450 615 Q393 615 349 584.5 Q305 554 275.5 507 Q246 460 231 401.5 Q216 343 216 288 Q216 251 224 214.5 Q232 178 249 149.5 Q266 121 293 103.5 Q320 86 358 86 Q413 86 450 112.5 Q487 139 511 175 L599 135 Q557 68 497 28 Q437 -12 351 -12 Z M574 766 L493 851 L382 766 L294 766 L456 922 L555 922 L663 766 L574 766 Z " />
<glyph glyph-name="ccircumflex" unicode="&#x109;" horiz-adv-x="480" d="M263 -12 Q220 -12 186 4 Q152 20 128.5 48.5 Q105 77 92.5 117 Q80 157 80 205 Q80 274 98.5 332 Q117 390 150.5 432.5 Q184 475 231.5 499 Q279 523 337 523 Q403 523 448 488.5 Q493 454 507 394 L411 361 Q404 390 384 409.5 Q364 429 326 429 Q291 429 264 411 Q237 393 218.5 362.5 Q200 332 190.5 292.5 Q181 253 181 210 Q181 153 203 117.5 Q225 82 270 82 Q304 82 332.5 99.5 Q361 117 380 158 L466 127 Q439 61 386 24.5 Q333 -12 263 -12 Z M453 576 L372 661 L261 576 L173 576 L335 732 L434 732 L542 576 L453 576 Z " />
<glyph glyph-name="Cdotaccent" unicode="&#x10a;" horiz-adv-x="613" d="M351 -12 Q289 -12 243.5 12 Q198 36 168.5 76.5 Q139 117 125 170 Q111 223 111 280 Q111 363 134.5 440.5 Q158 518 202.5 578 Q247 638 311.5 674.5 Q376 711 457 711 Q502 711 536.5 699 Q571 687 596.5 668 Q622 649 638.5 624.5 Q655 600 664 576 L575 534 Q556 570 525.5 592.5 Q495 615 450 615 Q393 615 349 584.5 Q305 554 275.5 507 Q246 460 231 401.5 Q216 343 216 288 Q216 251 224 214.5 Q232 178 249 149.5 Q266 121 293 103.5 Q320 86 358 86 Q413 86 450 112.5 Q487 139 511 175 L599 135 Q557 68 497 28 Q437 -12 351 -12 Z M484 783 Q463 783 449.5 798 Q436 813 436 834 Q436 863 457 883 Q478 903 505 903 Q527 903 540.5 888.5 Q554 874 554 853 Q554 824 533 803.5 Q512 783 484 783 Z " />
<glyph glyph-name="cdotaccent" unicode="&#x10b;" horiz-adv-x="480" d="M263 -12 Q220 -12 186 4 Q152 20 128.5 48.5 Q105 77 92.5 117 Q80 157 80 205 Q80 274 98.5 332 Q117 390 150.5 432.5 Q184 475 231.5 499 Q279 523 337 523 Q403 523 448 488.5 Q493 454 507 394 L411 361 Q404 390 384 409.5 Q364 429 326 429 Q291 429 264 411 Q237 393 218.5 362.5 Q200 332 190.5 292.5 Q181 253 181 210 Q181 153 203 117.5 Q225 82 270 82 Q304 82 332.5 99.5 Q361 117 380 158 L466 127 Q439 61 386 24.5 Q333 -12 263 -12 Z M376 593 Q355 593 341.5 608 Q328 623 328 644 Q328 673 349 693 Q370 713 397 713 Q419 713 432.5 698.5 Q446 684 446 663 Q446 634 425 613.5 Q404 593 376 593 Z " />
<glyph glyph-name="Ccaron" unicode="&#x10c;" horiz-adv-x="613" d="M351 -12 Q289 -12 243.5 12 Q198 36 168.5 76.5 Q139 117 125 170 Q111 223 111 280 Q111 363 134.5 440.5 Q158 518 202.5 578 Q247 638 311.5 674.5 Q376 711 457 711 Q502 711 536.5 699 Q571 687 596.5 668 Q622 649 638.5 624.5 Q655 600 664 576 L575 534 Q556 570 525.5 592.5 Q495 615 450 615 Q393 615 349 584.5 Q305 554 275.5 507 Q246 460 231 401.5 Q216 343 216 288 Q216 251 224 214.5 Q232 178 249 149.5 Q266 121 293 103.5 Q320 86 358 86 Q413 86 450 112.5 Q487 139 511 175 L599 135 Q557 68 497 28 Q437 -12 351 -12 Z M527 766 L429 766 L321 922 L409 922 L491 837 L601 922 L690 922 L527 766 Z " />
<glyph glyph-name="ccaron" unicode="&#x10d;" horiz-adv-x="480" d="M263 -12 Q220 -12 186 4 Q152 20 128.5 48.5 Q105 77 92.5 117 Q80 157 80 205 Q80 274 98.5 332 Q117 390 150.5 432.5 Q184 475 231.5 499 Q279 523 337 523 Q403 523 448 488.5 Q493 454 507 394 L411 361 Q404 390 384 409.5 Q364 429 326 429 Q291 429 264 411 Q237 393 218.5 362.5 Q200 332 190.5 292.5 Q181 253 181 210 Q181 153 203 117.5 Q225 82 270 82 Q304 82 332.5 99.5 Q361 117 380 158 L466 127 Q439 61 386 24.5 Q333 -12 263 -12 Z M398 576 L300 576 L192 732 L280 732 L362 647 L472 732 L561 732 L398 576 Z " />
<glyph glyph-name="Dcaron" unicode="&#x10e;" horiz-adv-x="661" d="M205 700 L402 700 Q474 700 525.5 674 Q577 648 609.5 605 Q642 562 657 507 Q672 452 672 394 Q672 329 653 259 Q634 189 590 131.5 Q546 74 474 37 Q402 0 297 0 L82 0 L205 700 Z M304 95 Q375 95 424.5 123 Q474 151 505 194 Q536 237 550 289.5 Q564 342 564 391 Q564 433 554.5 472 Q545 511 524.5 540 Q504 569 472 586.5 Q440 604 395 604 L290 604 L200 95 L304 95 Z M475 766 L377 766 L269 922 L357 922 L439 837 L549 922 L638 922 L475 766 Z " />
<glyph glyph-name="dcaron" unicode="&#x10f;" horiz-adv-x="712" d="M246 -12 Q207 -12 176 3.5 Q145 19 124 47.5 Q103 76 91.5 115.5 Q80 155 80 204 Q80 278 100 337 Q120 396 155 437.5 Q190 479 236.5 501 Q283 523 336 523 Q381 523 407.5 506.5 Q434 490 447 473 L485 685 L591 722 L464 0 L366 0 L373 44 Q350 17 318 2.5 Q286 -12 246 -12 Z M276 82 Q314 82 343.5 101.5 Q373 121 390 142 L430 371 Q421 391 399 410 Q377 429 338 429 Q300 429 271 412.5 Q242 396 222 366.5 Q202 337 191.5 297 Q181 257 181 211 Q181 184 186.5 160 Q192 136 203.5 119 Q215 102 233 92 Q251 82 276 82 Z M804 712 L802 704 Q789 631 757 573.5 Q725 516 670 468 L644 491 Q653 505 662.5 529.5 Q672 554 681 584 Q690 614 698 647 Q706 680 712 712 L804 712 Z " />
<glyph glyph-name="Dcroat" unicode="&#x110;" horiz-adv-x="663" d="M138 302 L75 302 L92 396 L154 396 L207 700 L404 700 Q474 700 525 675 Q576 650 609 608 Q642 566 658 510.5 Q674 455 674 394 Q674 331 655.5 262 Q637 193 593.5 134.5 Q550 76 478 38 Q406 0 299 0 L84 0 L138 302 Z M306 95 Q378 95 427.5 123 Q477 151 508 194.5 Q539 238 552.5 290.5 Q566 343 566 391 Q566 434 556 472.5 Q546 511 525.5 540.5 Q505 570 473 587 Q441 604 397 604 L292 604 L255 396 L398 396 L381 302 L239 302 L202 95 L306 95 Z " />
<glyph glyph-name="dcroat" unicode="&#x111;" horiz-adv-x="532" d="M558 545 L462 0 L364 0 L372 40 Q323 -12 246 -12 Q168 -12 123.5 43.5 Q79 99 79 193 Q79 258 98.5 312.5 Q118 367 152.5 406.5 Q187 446 233 468 Q279 490 333 490 Q374 490 400 475.5 Q426 461 442 441 L461 545 L337 545 L351 626 L475 626 L484 677 L589 722 L572 626 L634 626 L620 545 L558 545 Z M275 82 Q308 82 337.5 97.5 Q367 113 389 142 L424 338 Q415 358 392 377 Q369 396 330 396 Q295 396 267 382 Q239 368 219.5 342.5 Q200 317 189.5 282 Q179 247 179 206 Q179 181 185 158.5 Q191 136 203 119 Q215 102 233 92 Q251 82 275 82 Z " />
<glyph glyph-name="Emacron" unicode="&#x112;" horiz-adv-x="575" d="M82 0 L205 700 L627 700 L611 604 L292 604 L258 409 L458 409 L440 314 L241 314 L203 95 L542 95 L525 0 L82 0 Z M285 787 L299 871 L616 871 L602 787 L285 787 Z " />
<glyph glyph-name="emacron" unicode="&#x113;" horiz-adv-x="508" d="M271 -12 Q226 -12 189.5 3.5 Q153 19 127.5 47 Q102 75 88.5 115 Q75 155 75 204 Q75 268 94 326 Q113 384 148 427.5 Q183 471 232.5 497 Q282 523 344 523 Q429 523 477.5 474 Q526 425 526 326 Q526 295 520.5 268 Q515 241 507 216 L177 216 L177 204 Q177 144 206 110.5 Q235 77 283 77 Q312 77 342.5 89 Q373 101 400 124 L448 56 Q413 24 369.5 6 Q326 -12 271 -12 Z M334 434 Q305 434 281.5 424 Q258 414 240 396 Q222 378 209.5 354 Q197 330 191 302 L427 302 Q430 325 429 339 Q427 366 419 384 Q411 402 398 413.5 Q385 425 368.5 429.5 Q352 434 334 434 Z M213 597 L227 681 L544 681 L530 597 L213 597 Z " />
<glyph glyph-name="Ebreve" unicode="&#x114;" horiz-adv-x="575" d="M82 0 L205 700 L627 700 L611 604 L292 604 L258 409 L458 409 L440 314 L241 314 L203 95 L542 95 L525 0 L82 0 Z M434 766 Q394 766 365 776.5 Q336 787 317 805 Q298 823 289 846.5 Q280 870 280 896 Q280 914 283 932 L363 932 Q362 927 361.5 923 Q361 919 361 914 Q361 882 381.5 863 Q402 844 444 844 Q489 844 519.5 869 Q550 894 557 932 L638 932 Q632 898 616.5 868 Q601 838 575.5 815.5 Q550 793 514.5 779.5 Q479 766 434 766 Z " />
<glyph glyph-name="ebreve" unicode="&#x115;" horiz-adv-x="508" d="M271 -12 Q226 -12 189.5 3.5 Q153 19 127.5 47 Q102 75 88.5 115 Q75 155 75 204 Q75 268 94 326 Q113 384 148 427.5 Q183 471 232.5 497 Q282 523 344 523 Q429 523 477.5 474 Q526 425 526 326 Q526 295 520.5 268 Q515 241 507 216 L177 216 L177 204 Q177 144 206 110.5 Q235 77 283 77 Q312 77 342.5 89 Q373 101 400 124 L448 56 Q413 24 369.5 6 Q326 -12 271 -12 Z M334 434 Q305 434 281.5 424 Q258 414 240 396 Q222 378 209.5 354 Q197 330 191 302 L427 302 Q430 325 429 339 Q427 366 419 384 Q411 402 398 413.5 Q385 425 368.5 429.5 Q352 434 334 434 Z M375 576 Q335 576 306 586.5 Q277 597 258 615 Q239 633 230 656.5 Q221 680 221 706 Q221 724 224 742 L304 742 Q303 737 302.5 733 Q302 729 302 724 Q302 692 322.5 673 Q343 654 385 654 Q430 654 460.5 679 Q491 704 498 742 L579 742 Q573 708 557.5 678 Q542 648 516.5 625.5 Q491 603 455.5 589.5 Q420 576 375 576 Z " />
<glyph glyph-name="Edotaccent" unicode="&#x116;" horiz-adv-x="575" d="M82 0 L205 700 L627 700 L611 604 L292 604 L258 409 L458 409 L440 314 L241 314 L203 95 L542 95 L525 0 L82 0 Z M447 783 Q426 783 412.5 798 Q399 813 399 834 Q399 863 420 883 Q441 903 468 903 Q490 903 503.5 888.5 Q517 874 517 853 Q517 824 496 803.5 Q475 783 447 783 Z " />
<glyph glyph-name="edotaccent" unicode="&#x117;" horiz-adv-x="508" d="M271 -12 Q226 -12 189.5 3.5 Q153 19 127.5 47 Q102 75 88.5 115 Q75 155 75 204 Q75 268 94 326 Q113 384 148 427.5 Q183 471 232.5 497 Q282 523 344 523 Q429 523 477.5 474 Q526 425 526 326 Q526 295 520.5 268 Q515 241 507 216 L177 216 L177 204 Q177 144 206 110.5 Q235 77 283 77 Q312 77 342.5 89 Q373 101 400 124 L448 56 Q413 24 369.5 6 Q326 -12 271 -12 Z M334 434 Q305 434 281.5 424 Q258 414 240 396 Q222 378 209.5 354 Q197 330 191 302 L427 302 Q430 325 429 339 Q427 366 419 384 Q411 402 398 413.5 Q385 425 368.5 429.5 Q352 434 334 434 Z M375 593 Q354 593 340.5 608 Q327 623 327 644 Q327 673 348 693 Q369 713 396 713 Q418 713 431.5 698.5 Q445 684 445 663 Q445 634 424 613.5 Q403 593 375 593 Z " />
<glyph glyph-name="Eogonek" unicode="&#x118;" horiz-adv-x="575" d="M496 0 Q466 0 437 -13 Q408 -26 385.5 -46 Q363 -66 349 -90.5 Q335 -115 335 -138 Q335 -158 346 -167.5 Q357 -177 372 -177 Q389 -177 400.5 -170.5 Q412 -164 420 -156 L461 -192 Q444 -209 416.5 -224 Q389 -239 348 -239 Q305 -239 278.5 -216.5 Q252 -194 252 -154 Q252 -103 287.5 -64 Q323 -25 384 0 L83 0 L206 700 L627 700 L610 602 L288 602 L254 410 L458 410 L440 313 L237 313 L199 97 L542 97 L525 0 L496 0 Z " />
<glyph glyph-name="eogonek" unicode="&#x119;" horiz-adv-x="508" d="M449 56 Q419 28 380.5 10 Q342 -8 307.5 -27.5 Q273 -47 249.5 -72 Q226 -97 226 -138 Q226 -158 237 -167.5 Q248 -177 262 -177 Q279 -177 291 -170.5 Q303 -164 312 -156 L352 -192 Q335 -209 307.5 -224 Q280 -239 239 -239 Q196 -239 169.5 -216.5 Q143 -194 143 -154 Q143 -109 172.5 -73.5 Q202 -38 255 -12 Q171 -6 123.5 52 Q76 110 76 204 Q76 268 95 326 Q114 384 149 427.5 Q184 471 233.5 497 Q283 523 344 523 Q430 523 478.5 474 Q527 425 527 326 Q527 295 521.5 268 Q516 241 508 216 L177 216 L177 204 Q177 144 206.5 110.5 Q236 77 284 77 Q313 77 343 89 Q373 101 400 124 L449 56 Z M335 434 Q305 434 281.5 424 Q258 414 240 396 Q222 378 210 354 Q198 330 191 302 L427 302 Q429 313 429.5 322 Q430 331 430 339 Q426 393 398 413.5 Q370 434 335 434 Z " />
<glyph glyph-name="Ecaron" unicode="&#x11a;" horiz-adv-x="575" d="M82 0 L205 700 L627 700 L611 604 L292 604 L258 409 L458 409 L440 314 L241 314 L203 95 L542 95 L525 0 L82 0 Z M493 766 L395 766 L287 922 L375 922 L457 837 L567 922 L656 922 L493 766 Z " />
<glyph glyph-name="ecaron" unicode="&#x11b;" horiz-adv-x="508" d="M271 -12 Q226 -12 189.5 3.5 Q153 19 127.5 47 Q102 75 88.5 115 Q75 155 75 204 Q75 268 94 326 Q113 384 148 427.5 Q183 471 232.5 497 Q282 523 344 523 Q429 523 477.5 474 Q526 425 526 326 Q526 295 520.5 268 Q515 241 507 216 L177 216 L177 204 Q177 144 206 110.5 Q235 77 283 77 Q312 77 342.5 89 Q373 101 400 124 L448 56 Q413 24 369.5 6 Q326 -12 271 -12 Z M334 434 Q305 434 281.5 424 Q258 414 240 396 Q222 378 209.5 354 Q197 330 191 302 L427 302 Q430 325 429 339 Q427 366 419 384 Q411 402 398 413.5 Q385 425 368.5 429.5 Q352 434 334 434 Z M413 576 L315 576 L207 732 L295 732 L377 647 L487 732 L576 732 L413 576 Z " />
<glyph glyph-name="Gcircumflex" unicode="&#x11c;" horiz-adv-x="652" d="M356 -12 Q291 -12 244.5 12.5 Q198 37 168.5 77.5 Q139 118 125 171 Q111 224 111 281 Q111 363 133 440.5 Q155 518 198.5 578.5 Q242 639 307 675.5 Q372 712 457 712 Q503 712 538.5 699.5 Q574 687 599.5 667.5 Q625 648 642 624.5 Q659 601 669 579 L578 530 Q569 547 557.5 562.5 Q546 578 529.5 589.5 Q513 601 492.5 608 Q472 615 445 615 Q388 615 345 585.5 Q302 556 272.5 509 Q243 462 228 403.5 Q213 345 213 286 Q213 245 221.5 208.5 Q230 172 248 144.5 Q266 117 294 100.5 Q322 84 361 84 Q426 84 468.5 123 Q511 162 525 227 L530 254 L408 254 L425 345 L656 345 L646 291 Q632 208 604.5 150 Q577 92 539 56 Q501 20 454 4 Q407 -12 356 -12 Z M571 766 L490 851 L379 766 L291 766 L453 922 L552 922 L660 766 L571 766 Z " />
<glyph glyph-name="gcircumflex" unicode="&#x11d;" horiz-adv-x="532" d="M157 -125 Q210 -122 247 -112 Q284 -102 308 -86.5 Q332 -71 345 -50 Q358 -29 363 -4 L371 43 Q352 20 321.5 4 Q291 -12 246 -12 Q207 -12 176.5 3.5 Q146 19 124.5 47 Q103 75 91.5 113.5 Q80 152 80 198 Q80 270 99 330 Q118 390 152 433 Q186 476 231.5 499.5 Q277 523 331 523 Q364 523 395 509 Q426 495 446 468 L454 511 L554 511 L464 10 Q453 -53 429 -94 Q405 -135 369.5 -159 Q334 -183 289 -193.5 Q244 -204 190 -207 L157 -125 Z M276 82 Q312 82 341.5 100.5 Q371 119 389 145 L429 369 Q420 391 395.5 410 Q371 429 333 429 Q296 429 267.5 411.5 Q239 394 219.5 364 Q200 334 190 294 Q180 254 180 210 Q180 153 205 117.5 Q230 82 276 82 Z M464 576 L383 661 L272 576 L184 576 L346 732 L445 732 L553 576 L464 576 Z " />
<glyph glyph-name="Gbreve" unicode="&#x11e;" horiz-adv-x="652" d="M356 -12 Q291 -12 244.5 12.5 Q198 37 168.5 77.5 Q139 118 125 171 Q111 224 111 281 Q111 363 133 440.5 Q155 518 198.5 578.5 Q242 639 307 675.5 Q372 712 457 712 Q503 712 538.5 699.5 Q574 687 599.5 667.5 Q625 648 642 624.5 Q659 601 669 579 L578 530 Q569 547 557.5 562.5 Q546 578 529.5 589.5 Q513 601 492.5 608 Q472 615 445 615 Q388 615 345 585.5 Q302 556 272.5 509 Q243 462 228 403.5 Q213 345 213 286 Q213 245 221.5 208.5 Q230 172 248 144.5 Q266 117 294 100.5 Q322 84 361 84 Q426 84 468.5 123 Q511 162 525 227 L530 254 L408 254 L425 345 L656 345 L646 291 Q632 208 604.5 150 Q577 92 539 56 Q501 20 454 4 Q407 -12 356 -12 Z M470 766 Q430 766 401 776.5 Q372 787 353 805 Q334 823 325 846.5 Q316 870 316 896 Q316 914 319 932 L399 932 Q398 927 397.5 923 Q397 919 397 914 Q397 882 417.5 863 Q438 844 480 844 Q525 844 555.5 869 Q586 894 593 932 L674 932 Q668 898 652.5 868 Q637 838 611.5 815.5 Q586 793 550.5 779.5 Q515 766 470 766 Z " />
<glyph glyph-name="gbreve" unicode="&#x11f;" horiz-adv-x="532" d="M157 -125 Q210 -122 247 -112 Q284 -102 308 -86.5 Q332 -71 345 -50 Q358 -29 363 -4 L371 43 Q352 20 321.5 4 Q291 -12 246 -12 Q207 -12 176.5 3.5 Q146 19 124.5 47 Q103 75 91.5 113.5 Q80 152 80 198 Q80 270 99 330 Q118 390 152 433 Q186 476 231.5 499.5 Q277 523 331 523 Q364 523 395 509 Q426 495 446 468 L454 511 L554 511 L464 10 Q453 -53 429 -94 Q405 -135 369.5 -159 Q334 -183 289 -193.5 Q244 -204 190 -207 L157 -125 Z M276 82 Q312 82 341.5 100.5 Q371 119 389 145 L429 369 Q420 391 395.5 410 Q371 429 333 429 Q296 429 267.5 411.5 Q239 394 219.5 364 Q200 334 190 294 Q180 254 180 210 Q180 153 205 117.5 Q230 82 276 82 Z M373 576 Q333 576 304 586.5 Q275 597 256 615 Q237 633 228 656.5 Q219 680 219 706 Q219 724 222 742 L302 742 Q301 737 300.5 733 Q300 729 300 724 Q300 692 320.5 673 Q341 654 383 654 Q428 654 458.5 679 Q489 704 496 742 L577 742 Q571 708 555.5 678 Q540 648 514.5 625.5 Q489 603 453.5 589.5 Q418 576 373 576 Z " />
<glyph glyph-name="Gdotaccent" unicode="&#x120;" horiz-adv-x="652" d="M356 -12 Q291 -12 244.5 12.5 Q198 37 168.5 77.5 Q139 118 125 171 Q111 224 111 281 Q111 363 133 440.5 Q155 518 198.5 578.5 Q242 639 307 675.5 Q372 712 457 712 Q503 712 538.5 699.5 Q574 687 599.5 667.5 Q625 648 642 624.5 Q659 601 669 579 L578 530 Q569 547 557.5 562.5 Q546 578 529.5 589.5 Q513 601 492.5 608 Q472 615 445 615 Q388 615 345 585.5 Q302 556 272.5 509 Q243 462 228 403.5 Q213 345 213 286 Q213 245 221.5 208.5 Q230 172 248 144.5 Q266 117 294 100.5 Q322 84 361 84 Q426 84 468.5 123 Q511 162 525 227 L530 254 L408 254 L425 345 L656 345 L646 291 Q632 208 604.5 150 Q577 92 539 56 Q501 20 454 4 Q407 -12 356 -12 Z M483 783 Q462 783 448.5 798 Q435 813 435 834 Q435 863 456 883 Q477 903 504 903 Q526 903 539.5 888.5 Q553 874 553 853 Q553 824 532 803.5 Q511 783 483 783 Z " />
<glyph glyph-name="gdotaccent" unicode="&#x121;" horiz-adv-x="532" d="M157 -125 Q210 -122 247 -112 Q284 -102 308 -86.5 Q332 -71 345 -50 Q358 -29 363 -4 L371 43 Q352 20 321.5 4 Q291 -12 246 -12 Q207 -12 176.5 3.5 Q146 19 124.5 47 Q103 75 91.5 113.5 Q80 152 80 198 Q80 270 99 330 Q118 390 152 433 Q186 476 231.5 499.5 Q277 523 331 523 Q364 523 395 509 Q426 495 446 468 L454 511 L554 511 L464 10 Q453 -53 429 -94 Q405 -135 369.5 -159 Q334 -183 289 -193.5 Q244 -204 190 -207 L157 -125 Z M276 82 Q312 82 341.5 100.5 Q371 119 389 145 L429 369 Q420 391 395.5 410 Q371 429 333 429 Q296 429 267.5 411.5 Q239 394 219.5 364 Q200 334 190 294 Q180 254 180 210 Q180 153 205 117.5 Q230 82 276 82 Z M372 593 Q351 593 337.5 608 Q324 623 324 644 Q324 673 345 693 Q366 713 393 713 Q415 713 428.5 698.5 Q442 684 442 663 Q442 634 421 613.5 Q400 593 372 593 Z " />
<glyph glyph-name="Gcommaaccent" unicode="&#x122;" horiz-adv-x="652" d="M356 -12 Q291 -12 244.5 12.5 Q198 37 168.5 77.5 Q139 118 125 171 Q111 224 111 281 Q111 363 133 440.5 Q155 518 198.5 578.5 Q242 639 307 675.5 Q372 712 457 712 Q503 712 538.5 699.5 Q574 687 599.5 667.5 Q625 648 642 624.5 Q659 601 669 579 L578 530 Q569 547 557.5 562.5 Q546 578 529.5 589.5 Q513 601 492.5 608 Q472 615 445 615 Q388 615 345 585.5 Q302 556 272.5 509 Q243 462 228 403.5 Q213 345 213 286 Q213 245 221.5 208.5 Q230 172 248 144.5 Q266 117 294 100.5 Q322 84 361 84 Q426 84 468.5 123 Q511 162 525 227 L530 254 L408 254 L425 345 L656 345 L646 291 Q632 208 604.5 150 Q577 92 539 56 Q501 20 454 4 Q407 -12 356 -12 Z M257 -246 Q270 -235 287 -216.5 Q304 -198 313 -172 Q290 -170 277.5 -156 Q265 -142 265 -120 Q265 -88 286.5 -67.5 Q308 -47 334 -47 Q357 -47 373.5 -62.5 Q390 -78 390 -107 Q390 -148 365.5 -188 Q341 -228 284 -263 L257 -246 Z " />
<glyph glyph-name="gcommaaccent" unicode="&#x123;" horiz-adv-x="532" d="M157 -125 Q210 -122 247 -112 Q284 -102 308 -86.5 Q332 -71 345 -50 Q358 -29 363 -4 L372 47 Q350 20 318.5 4 Q287 -12 242 -12 Q206 -12 176.5 2 Q147 16 125.5 42.5 Q104 69 92 107.5 Q80 146 80 195 Q80 270 100 330.5 Q120 391 155 433.5 Q190 476 236.5 499.5 Q283 523 336 523 Q381 523 407.5 505 Q434 487 447 468 L454 511 L554 511 L466 18 Q455 -44 430.5 -86 Q406 -128 370 -153.5 Q334 -179 288 -191.5 Q242 -204 190 -207 L157 -125 Z M276 82 Q307 82 337 98.5 Q367 115 389 145 L429 369 Q418 395 392.5 412 Q367 429 337 429 Q299 429 269.5 412.5 Q240 396 220 366.5 Q200 337 190 297 Q180 257 180 210 Q180 153 205 117.5 Q230 82 276 82 Z M457 791 Q444 780 427.5 761.5 Q411 743 401 717 Q423 715 436 701 Q449 687 449 665 Q449 632 428.5 612 Q408 592 382 592 Q359 592 341.5 607.5 Q324 623 324 656 Q324 694 348 733.5 Q372 773 429 808 L457 791 Z " />
<glyph glyph-name="Hcircumflex" unicode="&#x124;" horiz-adv-x="673" d="M82 0 L205 700 L309 700 L258 410 L560 410 L611 700 L715 700 L592 0 L488 0 L543 313 L241 313 L186 0 L82 0 Z M551 766 L470 851 L359 766 L271 766 L433 922 L532 922 L640 766 L551 766 Z " />
<glyph glyph-name="hcircumflex" unicode="&#x125;" horiz-adv-x="538" d="M372 0 L425 297 Q427 308 428.5 321 Q430 334 430 345 Q430 390 408.5 410 Q387 430 351 430 Q330 430 310 423.5 Q290 417 272.5 402 Q255 387 242 363 Q229 339 223 304 L170 0 L71 0 L191 685 L297 722 L250 456 Q275 486 308.5 504.5 Q342 523 383 523 Q458 523 494 481.5 Q530 440 530 368 Q530 351 527.5 329.5 Q525 308 521 287 L470 0 L372 0 Z M488 765 L407 850 L296 765 L208 765 L370 921 L469 921 L577 765 L488 765 Z " />
<glyph glyph-name="Hbar" unicode="&#x126;" horiz-adv-x="674" d="M489 0 L544 313 L242 313 L186 0 L83 0 L173 514 L92 514 L109 611 L190 611 L206 700 L309 700 L294 611 L596 611 L612 700 L715 700 L700 611 L782 611 L765 514 L683 514 L592 0 L489 0 Z M561 410 L579 514 L277 514 L258 410 L561 410 Z " />
<glyph glyph-name="hbar" unicode="&#x127;" horiz-adv-x="535" d="M372 0 L419 265 Q421 279 422.5 292 Q424 305 424 313 Q424 358 402.5 378 Q381 398 345 398 Q302 398 266 369.5 Q230 341 218 272 L170 0 L71 0 L167 545 L109 545 L123 626 L181 626 L191 685 L297 722 L280 626 L417 626 L403 545 L266 545 L244 424 Q270 456 303.5 473.5 Q337 491 378 491 Q446 491 485 452.5 Q524 414 524 337 Q524 322 522 302.5 Q520 283 515 255 L470 0 L372 0 Z " />
<glyph glyph-name="Itilde" unicode="&#x128;" horiz-adv-x="268" d="M82 0 L205 700 L309 700 L186 0 L82 0 Z M343 782 Q317 782 297.5 789.5 Q278 797 260.5 806 Q243 815 227 822.5 Q211 830 193 830 Q175 830 160 819.5 Q145 809 140 786 L92 786 Q102 843 131 876.5 Q160 910 214 910 Q239 910 259 902.5 Q279 895 296 886 Q313 877 329 869.5 Q345 862 363 862 Q381 862 396 872.5 Q411 883 417 906 L464 906 Q454 849 425.5 815.5 Q397 782 343 782 Z " />
<glyph glyph-name="itilde" unicode="&#x129;" horiz-adv-x="241" d="M297 592 Q271 592 251.5 599.5 Q232 607 214.5 616 Q197 625 181 632.5 Q165 640 147 640 Q129 640 114 629.5 Q99 619 94 596 L46 596 Q56 653 85 686.5 Q114 720 168 720 Q193 720 213 712.5 Q233 705 250 696 Q267 687 283 679.5 Q299 672 317 672 Q335 672 350 682.5 Q365 693 371 716 L418 716 Q408 659 379.5 625.5 Q351 592 297 592 Z M71 0 L161 511 L259 511 L169 0 L71 0 Z " />
<glyph glyph-name="Imacron" unicode="&#x12a;" horiz-adv-x="268" d="M82 0 L205 700 L309 700 L186 0 L82 0 Z M114 787 L128 871 L445 871 L431 787 L114 787 Z " />
<glyph glyph-name="imacron" unicode="&#x12b;" horiz-adv-x="241" d="M65 597 L79 681 L396 681 L382 597 L65 597 Z M71 0 L161 511 L259 511 L169 0 L71 0 Z " />
<glyph glyph-name="Ibreve" unicode="&#x12c;" horiz-adv-x="268" d="M82 0 L205 700 L309 700 L186 0 L82 0 Z M271 766 Q231 766 202 776.5 Q173 787 154 805 Q135 823 126 846.5 Q117 870 117 896 Q117 914 120 932 L200 932 Q199 927 198.5 923 Q198 919 198 914 Q198 882 218.5 863 Q239 844 281 844 Q326 844 356.5 869 Q387 894 394 932 L475 932 Q469 898 453.5 868 Q438 838 412.5 815.5 Q387 793 351.5 779.5 Q316 766 271 766 Z " />
<glyph glyph-name="ibreve" unicode="&#x12d;" horiz-adv-x="241" d="M223 576 Q183 576 154 586.5 Q125 597 106 615 Q87 633 78 656.5 Q69 680 69 706 Q69 724 72 742 L152 742 Q151 737 150.5 733 Q150 729 150 724 Q150 692 170.5 673 Q191 654 233 654 Q278 654 308.5 679 Q339 704 346 742 L427 742 Q421 708 405.5 678 Q390 648 364.5 625.5 Q339 603 303.5 589.5 Q268 576 223 576 Z M71 0 L161 511 L259 511 L169 0 L71 0 Z " />
<glyph glyph-name="Iogonek" unicode="&#x12e;" horiz-adv-x="268" d="M46 -239 Q3 -239 -23.5 -216.5 Q-50 -194 -50 -154 Q-50 -100 -12.5 -61.5 Q25 -23 83 0 L206 700 L308 700 L185 0 Q155 -6 127.5 -19.5 Q100 -33 78.5 -51.5 Q57 -70 44.5 -92.5 Q32 -115 32 -137 Q32 -158 43.5 -167.5 Q55 -177 69 -177 Q86 -177 98 -170.5 Q110 -164 118 -156 L159 -192 Q142 -209 114.5 -224 Q87 -239 46 -239 Z " />
<glyph glyph-name="iogonek" unicode="&#x12f;" horiz-adv-x="242" d="M35 -239 Q-8 -239 -34.5 -216.5 Q-61 -194 -61 -154 Q-61 -100 -24 -61.5 Q13 -23 72 0 L162 511 L261 511 L171 0 Q133 -11 105 -26.5 Q77 -42 58.5 -61 Q40 -80 31 -99.5 Q22 -119 22 -137 Q22 -158 33 -167.5 Q44 -177 59 -177 Q76 -177 88 -170.5 Q100 -164 108 -156 L148 -192 Q131 -209 103.5 -224 Q76 -239 35 -239 Z M226 594 Q204 594 190.5 608.5 Q177 623 177 645 Q177 659 182.5 671.5 Q188 684 197.5 694 Q207 704 219.5 709.5 Q232 715 245 715 Q268 715 282 700.5 Q296 686 296 664 Q296 635 274.5 614.5 Q253 594 226 594 Z " />
<glyph glyph-name="Idotaccent" unicode="&#x130;" horiz-adv-x="268" d="M82 0 L205 700 L309 700 L186 0 L82 0 Z M270 783 Q249 783 235.5 798 Q222 813 222 834 Q222 863 243 883 Q264 903 291 903 Q313 903 326.5 888.5 Q340 874 340 853 Q340 824 319 803.5 Q298 783 270 783 Z " />
<glyph glyph-name="IJ" unicode="&#x132;" horiz-adv-x="814" d="M86 0 L209 700 L313 700 L190 0 L86 0 Z M524 -12 Q446 -12 395 26 Q344 64 326 125 L415 164 Q429 129 453 107 Q477 85 522 85 Q574 85 607.5 118 Q641 151 655 228 L738 700 L842 700 L756 211 Q743 138 716.5 94 Q690 50 657 26.5 Q624 3 589 -4.5 Q554 -12 524 -12 Z " />
<glyph glyph-name="ij" unicode="&#x133;" horiz-adv-x="494" d="M71 0 L161 511 L260 511 L170 0 L71 0 Z M226 594 Q203 594 189 608.5 Q175 623 175 644 Q175 674 196 694.5 Q217 715 242 715 Q266 715 280 700.5 Q294 686 294 665 Q294 635 273 614.5 Q252 594 226 594 Z M174 -136 Q210 -131 235 -122.5 Q260 -114 276.5 -101 Q293 -88 302.5 -69.5 Q312 -51 316 -25 L411 511 L510 511 L416 -22 Q408 -69 392 -103 Q376 -137 351 -160 Q326 -183 290.5 -197 Q255 -211 207 -219 L174 -136 Z M475 594 Q452 594 438.5 608.5 Q425 623 425 644 Q425 674 446 694.5 Q467 715 492 715 Q516 715 530 700.5 Q544 686 544 665 Q544 635 522.5 614.5 Q501 594 475 594 Z " />
<glyph glyph-name="Jcircumflex" unicode="&#x134;" horiz-adv-x="522" d="M244 -12 Q166 -12 115 26 Q64 64 46 125 L135 164 Q149 129 173 107 Q197 85 242 85 Q294 85 327.5 118 Q361 151 375 228 L458 700 L562 700 L476 211 Q463 138 436.5 94 Q410 50 377 26.5 Q344 3 309 -4.5 Q274 -12 244 -12 Z M613 766 L532 851 L421 766 L333 766 L495 922 L594 922 L702 766 L613 766 Z " />
<glyph glyph-name="jcircumflex" unicode="&#x135;" horiz-adv-x="245" d="M-75 -135 Q-38 -129 -12 -120.5 Q14 -112 30.5 -99.5 Q47 -87 56 -70.5 Q65 -54 69 -32 L165 511 L262 511 L168 -25 Q160 -73 141 -106 Q122 -139 95 -161 Q68 -183 33 -196 Q-2 -209 -42 -215 L-75 -135 Z M318 576 L237 661 L126 576 L38 576 L200 732 L299 732 L407 576 L318 576 Z " />
<glyph glyph-name="Kcommaaccent" unicode="&#x136;" horiz-adv-x="645" d="M495 0 L369 365 L223 211 L186 0 L82 0 L205 700 L309 700 L251 369 L564 700 L687 700 L446 446 L604 0 L495 0 Z M250 -246 Q263 -235 280 -216.5 Q297 -198 306 -172 Q283 -170 270.5 -156 Q258 -142 258 -120 Q258 -88 279.5 -67.5 Q301 -47 327 -47 Q350 -47 366.5 -62.5 Q383 -78 383 -107 Q383 -148 358.5 -188 Q334 -228 277 -263 L250 -246 Z " />
<glyph glyph-name="kcommaaccent" unicode="&#x137;" horiz-adv-x="503" d="M366 361 L484 0 L377 0 L287 291 L208 219 L170 0 L71 0 L191 685 L297 722 L231 348 L410 511 L534 511 L366 361 Z M177 -246 Q190 -235 207 -216.5 Q224 -198 233 -172 Q210 -170 197.5 -156 Q185 -142 185 -120 Q185 -88 206.5 -67.5 Q228 -47 254 -47 Q277 -47 293.5 -62.5 Q310 -78 310 -107 Q310 -148 285.5 -188 Q261 -228 204 -263 L177 -246 Z " />
<glyph glyph-name="kgreenlandic" unicode="&#x138;" horiz-adv-x="499" d="M375 0 L293 240 L191 133 L168 0 L72 0 L162 511 L258 511 L215 264 L445 511 L551 511 L371 321 L482 0 L375 0 Z " />
<glyph glyph-name="Lacute" unicode="&#x139;" horiz-adv-x="531" d="M82 0 L205 700 L309 700 L203 97 L529 97 L512 0 L82 0 Z M298 766 L203 766 L367 922 L498 922 L298 766 Z " />
<glyph glyph-name="lacute" unicode="&#x13a;" horiz-adv-x="249" d="M73 0 L194 685 L300 722 L172 0 L73 0 Z M259 756 L164 756 L328 912 L459 912 L259 756 Z " />
<glyph glyph-name="Lcommaaccent" unicode="&#x13b;" horiz-adv-x="531" d="M82 0 L205 700 L309 700 L203 97 L529 97 L512 0 L82 0 Z M213 -246 Q226 -235 243 -216.5 Q260 -198 269 -172 Q246 -170 233.5 -156 Q221 -142 221 -120 Q221 -88 242.5 -67.5 Q264 -47 290 -47 Q313 -47 329.5 -62.5 Q346 -78 346 -107 Q346 -148 321.5 -188 Q297 -228 240 -263 L213 -246 Z " />
<glyph glyph-name="lcommaaccent" unicode="&#x13c;" horiz-adv-x="249" d="M73 0 L194 685 L300 722 L172 0 L73 0 Z M37 -246 Q50 -235 67 -216.5 Q84 -198 93 -172 Q70 -170 57.5 -156 Q45 -142 45 -120 Q45 -88 66.5 -67.5 Q88 -47 114 -47 Q137 -47 153.5 -62.5 Q170 -78 170 -107 Q170 -148 145.5 -188 Q121 -228 64 -263 L37 -246 Z " />
<glyph glyph-name="Lcaron" unicode="&#x13d;" horiz-adv-x="531" d="M82 0 L205 700 L309 700 L203 97 L529 97 L512 0 L82 0 Z M315 766 L217 766 L109 922 L197 922 L279 837 L389 922 L478 922 L315 766 Z " />
<glyph glyph-name="lcaron" unicode="&#x13e;" horiz-adv-x="415" d="M73 0 L194 685 L300 722 L172 0 L73 0 Z M507 712 L505 704 Q492 631 460 573.5 Q428 516 373 468 L347 491 Q356 505 365.5 529.5 Q375 554 384 584 Q393 614 401 647 Q409 680 415 712 L507 712 Z " />
<glyph glyph-name="Ldot" unicode="&#x13f;" horiz-adv-x="531" d="M82 0 L205 700 L309 700 L203 97 L529 97 L512 0 L82 0 Z M447 288 Q426 288 412.5 303 Q399 318 399 339 Q399 368 420 388 Q441 408 468 408 Q490 408 503.5 393.5 Q517 379 517 358 Q517 329 496 308.5 Q475 288 447 288 Z " />
<glyph glyph-name="ldot" unicode="&#x140;" horiz-adv-x="482" d="M73 0 L194 685 L300 722 L172 0 L73 0 Z M409 254 Q388 254 374.5 269 Q361 284 361 305 Q361 334 382 354 Q403 374 430 374 Q452 374 465.5 359.5 Q479 345 479 324 Q479 295 458 274.5 Q437 254 409 254 Z " />
<glyph glyph-name="Nacute" unicode="&#x143;" horiz-adv-x="676" d="M499 0 L298 453 Q296 457 292 466.5 Q288 476 284.5 485.5 Q281 495 277.5 503.5 Q274 512 273 515 Q273 512 272 504 Q271 496 269.5 486 Q268 476 266.5 466.5 Q265 457 264 452 L184 0 L82 0 L205 700 L301 700 L508 229 Q511 222 517.5 205.5 Q524 189 526 182 Q527 189 529 204.5 Q531 220 533 228 L616 700 L718 700 L595 0 L499 0 Z M503 766 L408 766 L572 922 L703 922 L503 766 Z " />
<glyph glyph-name="nacute" unicode="&#x144;" horiz-adv-x="538" d="M372 0 L424 295 Q429 320 429 343 Q429 385 409 407.5 Q389 430 350 430 Q329 430 308.5 421.5 Q288 413 270.5 396.5 Q253 380 240.5 356.5 Q228 333 223 302 L170 0 L71 0 L161 511 L260 511 L251 457 Q275 487 309.5 505 Q344 523 382 523 Q455 523 492.5 479.5 Q530 436 530 361 Q530 327 522 287 L471 0 L372 0 Z M382 576 L287 576 L451 732 L582 732 L382 576 Z " />
<glyph glyph-name="Ncommaaccent" unicode="&#x145;" horiz-adv-x="676" d="M499 0 L298 453 Q296 457 292 466.5 Q288 476 284.5 485.5 Q281 495 277.5 503.5 Q274 512 273 515 Q273 512 272 504 Q271 496 269.5 486 Q268 476 266.5 466.5 Q265 457 264 452 L184 0 L82 0 L205 700 L301 700 L508 229 Q511 222 517.5 205.5 Q524 189 526 182 Q527 189 529 204.5 Q531 220 533 228 L616 700 L718 700 L595 0 L499 0 Z M258 -246 Q271 -235 288 -216.5 Q305 -198 314 -172 Q291 -170 278.5 -156 Q266 -142 266 -120 Q266 -88 287.5 -67.5 Q309 -47 335 -47 Q358 -47 374.5 -62.5 Q391 -78 391 -107 Q391 -148 366.5 -188 Q342 -228 285 -263 L258 -246 Z " />
<glyph glyph-name="ncommaaccent" unicode="&#x146;" horiz-adv-x="538" d="M372 0 L424 295 Q429 320 429 343 Q429 385 409 407.5 Q389 430 350 430 Q329 430 308.5 421.5 Q288 413 270.5 396.5 Q253 380 240.5 356.5 Q228 333 223 302 L170 0 L71 0 L161 511 L260 511 L251 457 Q275 487 309.5 505 Q344 523 382 523 Q455 523 492.5 479.5 Q530 436 530 361 Q530 327 522 287 L471 0 L372 0 Z M180 -246 Q193 -235 210 -216.5 Q227 -198 236 -172 Q213 -170 200.5 -156 Q188 -142 188 -120 Q188 -88 209.5 -67.5 Q231 -47 257 -47 Q280 -47 296.5 -62.5 Q313 -78 313 -107 Q313 -148 288.5 -188 Q264 -228 207 -263 L180 -246 Z " />
<glyph glyph-name="Ncaron" unicode="&#x147;" horiz-adv-x="676" d="M499 0 L298 453 Q296 457 292 466.5 Q288 476 284.5 485.5 Q281 495 277.5 503.5 Q274 512 273 515 Q273 512 272 504 Q271 496 269.5 486 Q268 476 266.5 466.5 Q265 457 264 452 L184 0 L82 0 L205 700 L301 700 L508 229 Q511 222 517.5 205.5 Q524 189 526 182 Q527 189 529 204.5 Q531 220 533 228 L616 700 L718 700 L595 0 L499 0 Z M518 766 L420 766 L312 922 L400 922 L482 837 L592 922 L681 922 L518 766 Z " />
<glyph glyph-name="ncaron" unicode="&#x148;" horiz-adv-x="538" d="M372 0 L424 295 Q429 320 429 343 Q429 385 409 407.5 Q389 430 350 430 Q329 430 308.5 421.5 Q288 413 270.5 396.5 Q253 380 240.5 356.5 Q228 333 223 302 L170 0 L71 0 L161 511 L260 511 L251 457 Q275 487 309.5 505 Q344 523 382 523 Q455 523 492.5 479.5 Q530 436 530 361 Q530 327 522 287 L471 0 L372 0 Z M421 576 L323 576 L215 732 L303 732 L385 647 L495 732 L584 732 L421 576 Z " />
<glyph glyph-name="napostrophe" unicode="&#x149;" horiz-adv-x="759" d="M570 0 L622 295 Q627 320 627 343 Q627 385 607 407.5 Q587 430 548 430 Q527 430 506.5 421.5 Q486 413 468.5 396.5 Q451 380 438.5 356.5 Q426 333 421 302 L368 0 L269 0 L359 511 L458 511 L449 457 Q473 487 507.5 505 Q542 523 580 523 Q653 523 690.5 479.5 Q728 436 728 361 Q728 327 720 287 L669 0 L570 0 Z M126 463 Q133 469 144 479.5 Q155 490 165.5 504 Q176 518 185.5 534 Q195 550 200 567 Q177 571 163 586.5 Q149 602 149 626 Q149 664 174 688 Q199 712 232 712 Q257 712 275.5 694 Q294 676 294 641 Q294 610 283 581 Q272 552 253 525.5 Q234 499 209 477.5 Q184 456 157 440 L126 463 Z " />
<glyph glyph-name="Eng" unicode="&#x14a;" horiz-adv-x="671" d="M333 -163 Q372 -157 398.5 -148 Q425 -139 441.5 -127 Q458 -115 467 -98 Q476 -81 480 -58 L492 10 L295 453 Q293 457 289.5 465.5 Q286 474 282 484 Q278 494 275 502.5 Q272 511 271 515 Q271 511 269.5 502.5 Q268 494 266.5 484.5 Q265 475 263.5 466 Q262 457 261 452 L182 0 L82 0 L205 700 L299 700 L506 229 Q509 221 515 206 Q521 191 524 182 Q525 191 527 206 Q529 221 530 228 L613 700 L713 700 L581 -47 Q573 -93 555.5 -128.5 Q538 -164 508 -189 Q475 -215 439 -227 Q403 -239 368 -244 L333 -163 Z " />
<glyph glyph-name="eng" unicode="&#x14b;" horiz-adv-x="538" d="M223 -147 Q259 -142 284 -133.5 Q309 -125 325.5 -112 Q342 -99 351 -80.5 Q360 -62 365 -37 L424 294 Q426 308 427.5 320 Q429 332 429 343 Q429 389 407 409.5 Q385 430 350 430 Q329 430 308 421.5 Q287 413 270 397 Q253 381 240.5 357 Q228 333 222 302 L169 0 L70 0 L160 511 L260 511 L251 458 Q278 491 312 507 Q346 523 382 523 Q449 523 489 482.5 Q529 442 529 361 Q529 330 523 294 L465 -34 Q456 -83 440.5 -117 Q425 -151 400 -174 Q375 -197 339.5 -210 Q304 -223 256 -230 L223 -147 Z " />
<glyph glyph-name="Omacron" unicode="&#x14c;" horiz-adv-x="689" d="M361 84 Q419 84 463.5 113.5 Q508 143 538 190.5 Q568 238 583.5 298.5 Q599 359 599 421 Q599 457 591 491.5 Q583 526 565 553.5 Q547 581 518.5 598 Q490 615 450 615 Q391 615 346.5 584.5 Q302 554 272.5 506 Q243 458 228 398.5 Q213 339 213 281 Q213 243 221 208 Q229 173 247 145 Q265 117 293 100.5 Q321 84 361 84 Z M361 -12 Q293 -12 245.5 12.5 Q198 37 168 78 Q138 119 124.5 171.5 Q111 224 111 281 Q111 359 132.5 436.5 Q154 514 197.5 575 Q241 636 305 674 Q369 712 455 712 Q520 712 566.5 687 Q613 662 643 621 Q673 580 687 528 Q701 476 701 421 Q701 341 679 263.5 Q657 186 614 124.5 Q571 63 507.5 25.5 Q444 -12 361 -12 Z M324 787 L338 871 L655 871 L641 787 L324 787 Z " />
<glyph glyph-name="omacron" unicode="&#x14d;" horiz-adv-x="522" d="M271 -12 Q221 -12 185 4 Q149 20 125.5 48.5 Q102 77 90.5 117 Q79 157 79 204 Q79 265 97 323 Q115 381 148.5 425 Q182 469 231.5 496 Q281 523 344 523 Q391 523 426.5 506 Q462 489 485.5 460 Q509 431 520.5 392 Q532 353 532 310 Q532 247 514.5 189 Q497 131 463.5 86 Q430 41 381.5 14.5 Q333 -12 271 -12 Z M276 82 Q313 82 342.5 100.5 Q372 119 392 150 Q412 181 422.5 219.5 Q433 258 433 299 Q433 326 427.5 349.5 Q422 373 410 391 Q398 409 379 419 Q360 429 334 429 Q297 429 268 410 Q239 391 219 360.5 Q199 330 188.5 291.5 Q178 253 178 213 Q178 156 201.5 119 Q225 82 276 82 Z M206 597 L220 681 L537 681 L523 597 L206 597 Z " />
<glyph glyph-name="Obreve" unicode="&#x14e;" horiz-adv-x="689" d="M361 84 Q419 84 463.5 113.5 Q508 143 538 190.5 Q568 238 583.5 298.5 Q599 359 599 421 Q599 457 591 491.5 Q583 526 565 553.5 Q547 581 518.5 598 Q490 615 450 615 Q391 615 346.5 584.5 Q302 554 272.5 506 Q243 458 228 398.5 Q213 339 213 281 Q213 243 221 208 Q229 173 247 145 Q265 117 293 100.5 Q321 84 361 84 Z M361 -12 Q293 -12 245.5 12.5 Q198 37 168 78 Q138 119 124.5 171.5 Q111 224 111 281 Q111 359 132.5 436.5 Q154 514 197.5 575 Q241 636 305 674 Q369 712 455 712 Q520 712 566.5 687 Q613 662 643 621 Q673 580 687 528 Q701 476 701 421 Q701 341 679 263.5 Q657 186 614 124.5 Q571 63 507.5 25.5 Q444 -12 361 -12 Z M483 766 Q443 766 414 776.5 Q385 787 366 805 Q347 823 338 846.5 Q329 870 329 896 Q329 914 332 932 L412 932 Q411 927 410.5 923 Q410 919 410 914 Q410 882 430.5 863 Q451 844 493 844 Q538 844 568.5 869 Q599 894 606 932 L687 932 Q681 898 665.5 868 Q650 838 624.5 815.5 Q599 793 563.5 779.5 Q528 766 483 766 Z " />
<glyph glyph-name="obreve" unicode="&#x14f;" horiz-adv-x="522" d="M271 -12 Q221 -12 185 4 Q149 20 125.5 48.5 Q102 77 90.5 117 Q79 157 79 204 Q79 265 97 323 Q115 381 148.5 425 Q182 469 231.5 496 Q281 523 344 523 Q391 523 426.5 506 Q462 489 485.5 460 Q509 431 520.5 392 Q532 353 532 310 Q532 247 514.5 189 Q497 131 463.5 86 Q430 41 381.5 14.5 Q333 -12 271 -12 Z M276 82 Q313 82 342.5 100.5 Q372 119 392 150 Q412 181 422.5 219.5 Q433 258 433 299 Q433 326 427.5 349.5 Q422 373 410 391 Q398 409 379 419 Q360 429 334 429 Q297 429 268 410 Q239 391 219 360.5 Q199 330 188.5 291.5 Q178 253 178 213 Q178 156 201.5 119 Q225 82 276 82 Z M363 576 Q323 576 294 586.5 Q265 597 246 615 Q227 633 218 656.5 Q209 680 209 706 Q209 724 212 742 L292 742 Q291 737 290.5 733 Q290 729 290 724 Q290 692 310.5 673 Q331 654 373 654 Q418 654 448.5 679 Q479 704 486 742 L567 742 Q561 708 545.5 678 Q530 648 504.5 625.5 Q479 603 443.5 589.5 Q408 576 363 576 Z " />
<glyph glyph-name="Ohungarumlaut" unicode="&#x150;" horiz-adv-x="689" d="M361 84 Q419 84 463.5 113.5 Q508 143 538 190.5 Q568 238 583.5 298.5 Q599 359 599 421 Q599 457 591 491.5 Q583 526 565 553.5 Q547 581 518.5 598 Q490 615 450 615 Q391 615 346.5 584.5 Q302 554 272.5 506 Q243 458 228 398.5 Q213 339 213 281 Q213 243 221 208 Q229 173 247 145 Q265 117 293 100.5 Q321 84 361 84 Z M361 -12 Q293 -12 245.5 12.5 Q198 37 168 78 Q138 119 124.5 171.5 Q111 224 111 281 Q111 359 132.5 436.5 Q154 514 197.5 575 Q241 636 305 674 Q369 712 455 712 Q520 712 566.5 687 Q613 662 643 621 Q673 580 687 528 Q701 476 701 421 Q701 341 679 263.5 Q657 186 614 124.5 Q571 63 507.5 25.5 Q444 -12 361 -12 Z M416 766 L321 766 L484 922 L614 922 L416 766 Z M616 766 L522 766 L685 922 L743 922 L814 922 L616 766 Z " />
<glyph glyph-name="ohungarumlaut" unicode="&#x151;" horiz-adv-x="522" d="M271 -12 Q221 -12 185 4 Q149 20 125.5 48.5 Q102 77 90.5 117 Q79 157 79 204 Q79 265 97 323 Q115 381 148.5 425 Q182 469 231.5 496 Q281 523 344 523 Q391 523 426.5 506 Q462 489 485.5 460 Q509 431 520.5 392 Q532 353 532 310 Q532 247 514.5 189 Q497 131 463.5 86 Q430 41 381.5 14.5 Q333 -12 271 -12 Z M276 82 Q313 82 342.5 100.5 Q372 119 392 150 Q412 181 422.5 219.5 Q433 258 433 299 Q433 326 427.5 349.5 Q422 373 410 391 Q398 409 379 419 Q360 429 334 429 Q297 429 268 410 Q239 391 219 360.5 Q199 330 188.5 291.5 Q178 253 178 213 Q178 156 201.5 119 Q225 82 276 82 Z M297 576 L202 576 L365 732 L495 732 L297 576 Z M497 576 L403 576 L566 732 L624 732 L695 732 L497 576 Z " />
<glyph glyph-name="Racute" unicode="&#x154;" horiz-adv-x="639" d="M671 508 Q671 475 661 441 Q651 407 629.5 377.5 Q608 348 572.5 325.5 Q537 303 486 294 L576 0 L467 0 L379 288 L236 288 L186 0 L82 0 L205 700 L469 700 Q526 700 565 682.5 Q604 665 627.5 637.5 Q651 610 661 576 Q671 542 671 508 Z M429 383 Q471 383 497.5 394.5 Q524 406 540 424 Q556 442 562 463.5 Q568 485 568 505 Q568 524 562.5 541.5 Q557 559 544.5 573 Q532 587 511.5 595.5 Q491 604 461 604 L292 604 L253 383 L429 383 Z M453 766 L358 766 L522 922 L653 922 L453 766 Z " />
<glyph glyph-name="racute" unicode="&#x155;" horiz-adv-x="377" d="M69 0 L159 511 L258 511 L247 451 Q272 486 305 504.5 Q338 523 373 523 Q396 523 415 514.5 Q434 506 447 493 L417 399 Q405 409 387.5 417 Q370 425 347 425 Q331 425 312 418.5 Q293 412 274.5 396 Q256 380 241 353.5 Q226 327 219 287 L168 0 L69 0 Z M335 576 L240 576 L404 732 L535 732 L335 576 Z " />
<glyph glyph-name="Rcommaaccent" unicode="&#x156;" horiz-adv-x="639" d="M671 508 Q671 475 661 441 Q651 407 629.5 377.5 Q608 348 572.5 325.5 Q537 303 486 294 L576 0 L467 0 L379 288 L236 288 L186 0 L82 0 L205 700 L469 700 Q526 700 565 682.5 Q604 665 627.5 637.5 Q651 610 661 576 Q671 542 671 508 Z M429 383 Q471 383 497.5 394.5 Q524 406 540 424 Q556 442 562 463.5 Q568 485 568 505 Q568 524 562.5 541.5 Q557 559 544.5 573 Q532 587 511.5 595.5 Q491 604 461 604 L292 604 L253 383 L429 383 Z M233 -246 Q246 -235 263 -216.5 Q280 -198 289 -172 Q266 -170 253.5 -156 Q241 -142 241 -120 Q241 -88 262.5 -67.5 Q284 -47 310 -47 Q333 -47 349.5 -62.5 Q366 -78 366 -107 Q366 -148 341.5 -188 Q317 -228 260 -263 L233 -246 Z " />
<glyph glyph-name="rcommaaccent" unicode="&#x157;" horiz-adv-x="377" d="M69 0 L159 511 L258 511 L247 451 Q272 486 305 504.5 Q338 523 373 523 Q396 523 415 514.5 Q434 506 447 493 L417 399 Q405 409 387.5 417 Q370 425 347 425 Q331 425 312 418.5 Q293 412 274.5 396 Q256 380 241 353.5 Q226 327 219 287 L168 0 L69 0 Z M22 -266 Q35 -255 52 -236.5 Q69 -218 78 -192 Q55 -190 42.5 -176 Q30 -162 30 -140 Q30 -108 51.5 -87.5 Q73 -67 99 -67 Q122 -67 138.5 -82.5 Q155 -98 155 -127 Q155 -168 130.5 -208 Q106 -248 49 -283 L22 -266 Z " />
<glyph glyph-name="Rcaron" unicode="&#x158;" horiz-adv-x="639" d="M671 508 Q671 475 661 441 Q651 407 629.5 377.5 Q608 348 572.5 325.5 Q537 303 486 294 L576 0 L467 0 L379 288 L236 288 L186 0 L82 0 L205 700 L469 700 Q526 700 565 682.5 Q604 665 627.5 637.5 Q651 610 661 576 Q671 542 671 508 Z M429 383 Q471 383 497.5 394.5 Q524 406 540 424 Q556 442 562 463.5 Q568 485 568 505 Q568 524 562.5 541.5 Q557 559 544.5 573 Q532 587 511.5 595.5 Q491 604 461 604 L292 604 L253 383 L429 383 Z M491 766 L393 766 L285 922 L373 922 L455 837 L565 922 L654 922 L491 766 Z " />
<glyph glyph-name="rcaron" unicode="&#x159;" horiz-adv-x="377" d="M69 0 L159 511 L258 511 L247 451 Q272 486 305 504.5 Q338 523 373 523 Q396 523 415 514.5 Q434 506 447 493 L417 399 Q405 409 387.5 417 Q370 425 347 425 Q331 425 312 418.5 Q293 412 274.5 396 Q256 380 241 353.5 Q226 327 219 287 L168 0 L69 0 Z M377 576 L279 576 L171 732 L259 732 L341 647 L451 732 L540 732 L377 576 Z " />
<glyph glyph-name="Sacute" unicode="&#x15a;" horiz-adv-x="575" d="M493 544 Q482 574 455 596 Q428 618 380 618 Q324 618 293 591.5 Q262 565 262 526 Q262 495 283.5 475.5 Q305 456 338 439.5 Q371 423 408.5 406 Q446 389 479 363.5 Q512 338 533.5 301 Q555 264 555 208 Q555 156 536 115 Q517 74 483.5 46 Q450 18 403 3 Q356 -12 300 -12 Q255 -12 219 1 Q183 14 155 36.5 Q127 59 108.5 89.5 Q90 120 80 155 L175 190 Q192 140 225 112 Q258 84 313 84 Q374 84 411 113.5 Q448 143 448 199 Q448 236 426.5 259.5 Q405 283 373 301 Q341 319 303 336 Q265 353 233 376.5 Q201 400 179.5 434 Q158 468 158 520 Q158 561 174 596 Q190 631 219.5 657 Q249 683 291.5 697.5 Q334 712 387 712 Q432 712 466 700.5 Q500 689 524.5 670 Q549 651 564 626.5 Q579 602 585 577 L493 544 Z M428 766 L333 766 L497 922 L628 922 L428 766 Z " />
<glyph glyph-name="sacute" unicode="&#x15b;" horiz-adv-x="445" d="M391 388 Q377 405 353 421.5 Q329 438 289 438 Q254 438 230.5 421.5 Q207 405 207 377 Q207 358 223.5 344 Q240 330 265 318 Q290 306 319.5 292 Q349 278 374 259 Q399 240 415.5 212.5 Q432 185 432 146 Q432 73 378.5 30.5 Q325 -12 234 -12 Q173 -12 125.5 13.5 Q78 39 55 79 L128 136 Q143 114 171.5 94 Q200 74 242 74 Q278 74 305.5 90.5 Q333 107 333 140 Q333 162 316.5 177 Q300 192 275.5 205.5 Q251 219 222 232.5 Q193 246 168.5 264.5 Q144 283 127.5 308.5 Q111 334 111 371 Q111 407 125 435 Q139 463 164 482.5 Q189 502 223 512.5 Q257 523 297 523 Q357 523 400 499 Q443 475 464 443 L391 388 Z M336 576 L241 576 L405 732 L536 732 L336 576 Z " />
<glyph glyph-name="Scircumflex" unicode="&#x15c;" horiz-adv-x="575" d="M493 544 Q482 574 455 596 Q428 618 380 618 Q324 618 293 591.5 Q262 565 262 526 Q262 495 283.5 475.5 Q305 456 338 439.5 Q371 423 408.5 406 Q446 389 479 363.5 Q512 338 533.5 301 Q555 264 555 208 Q555 156 536 115 Q517 74 483.5 46 Q450 18 403 3 Q356 -12 300 -12 Q255 -12 219 1 Q183 14 155 36.5 Q127 59 108.5 89.5 Q90 120 80 155 L175 190 Q192 140 225 112 Q258 84 313 84 Q374 84 411 113.5 Q448 143 448 199 Q448 236 426.5 259.5 Q405 283 373 301 Q341 319 303 336 Q265 353 233 376.5 Q201 400 179.5 434 Q158 468 158 520 Q158 561 174 596 Q190 631 219.5 657 Q249 683 291.5 697.5 Q334 712 387 712 Q432 712 466 700.5 Q500 689 524.5 670 Q549 651 564 626.5 Q579 602 585 577 L493 544 Z M510 766 L429 851 L318 766 L230 766 L392 922 L491 922 L599 766 L510 766 Z " />
<glyph glyph-name="scircumflex" unicode="&#x15d;" horiz-adv-x="445" d="M391 388 Q377 405 353 421.5 Q329 438 289 438 Q254 438 230.5 421.5 Q207 405 207 377 Q207 358 223.5 344 Q240 330 265 318 Q290 306 319.5 292 Q349 278 374 259 Q399 240 415.5 212.5 Q432 185 432 146 Q432 73 378.5 30.5 Q325 -12 234 -12 Q173 -12 125.5 13.5 Q78 39 55 79 L128 136 Q143 114 171.5 94 Q200 74 242 74 Q278 74 305.5 90.5 Q333 107 333 140 Q333 162 316.5 177 Q300 192 275.5 205.5 Q251 219 222 232.5 Q193 246 168.5 264.5 Q144 283 127.5 308.5 Q111 334 111 371 Q111 407 125 435 Q139 463 164 482.5 Q189 502 223 512.5 Q257 523 297 523 Q357 523 400 499 Q443 475 464 443 L391 388 Z M420 576 L339 661 L228 576 L140 576 L302 732 L401 732 L509 576 L420 576 Z " />
<glyph glyph-name="Scedilla" unicode="&#x15e;" horiz-adv-x="575" d="M265 -10 Q190 0 143.5 45.5 Q97 91 80 155 L175 190 Q192 140 225 112 Q258 84 313 84 Q374 84 411 113.5 Q448 143 448 199 Q448 236 426.5 259.5 Q405 283 373 301 Q341 319 303 336 Q265 353 233 376.5 Q201 400 179.5 434 Q158 468 158 520 Q158 561 174 596 Q190 631 219.5 657 Q249 683 291.5 697.5 Q334 712 387 712 Q432 712 466 700.5 Q500 689 524.5 670 Q549 651 564 626.5 Q579 602 585 577 L493 544 Q482 574 455 596 Q428 618 380 618 Q324 618 293 591.5 Q262 565 262 526 Q262 495 283.5 475.5 Q305 456 338 439.5 Q371 423 408.5 406 Q446 389 479 363.5 Q512 338 533.5 301 Q555 264 555 208 Q555 158 537.5 118.5 Q520 79 489 51 Q458 23 415 7 Q372 -9 321 -12 L291 -51 Q341 -51 361.5 -73 Q382 -95 382 -124 Q382 -175 344.5 -207 Q307 -239 246 -239 Q210 -239 188.5 -227 Q167 -215 156 -198 L210 -163 Q215 -170 223 -175 Q231 -180 246 -180 Q269 -180 285.5 -166.5 Q302 -153 302 -131 Q302 -114 289.5 -103 Q277 -92 256 -92 Q232 -92 216 -101 L201 -77 L265 -10 Z " />
<glyph glyph-name="scedilla" unicode="&#x15f;" horiz-adv-x="445" d="M189 -8 Q143 0 108.5 23.5 Q74 47 55 79 L128 136 Q143 114 171.5 94 Q200 74 242 74 Q278 74 305.5 90.5 Q333 107 333 140 Q333 162 316.5 177 Q300 192 275.5 205.5 Q251 219 222 232.5 Q193 246 168.5 264.5 Q144 283 127.5 308.5 Q111 334 111 371 Q111 407 125 435 Q139 463 164 482.5 Q189 502 223 512.5 Q257 523 297 523 Q357 523 400 499 Q443 475 464 443 L391 388 Q377 405 353 421.5 Q329 438 289 438 Q254 438 230.5 421.5 Q207 405 207 377 Q207 357 223.5 343.5 Q240 330 265 317.5 Q290 305 319.5 291.5 Q349 278 374 259 Q399 240 415.5 212.5 Q432 185 432 146 Q432 75 381 32.5 Q330 -10 242 -12 L212 -51 Q262 -51 283 -73 Q304 -95 304 -124 Q304 -175 266.5 -207 Q229 -239 168 -239 Q132 -239 110.5 -227 Q89 -215 78 -198 L131 -163 Q136 -170 144.5 -175 Q153 -180 168 -180 Q191 -180 207 -166.5 Q223 -153 223 -131 Q223 -114 211 -103 Q199 -92 177 -92 Q153 -92 138 -101 L122 -77 L189 -8 Z " />
<glyph glyph-name="uni0162" unicode="&#x162;" horiz-adv-x="561" d="M226 -239 Q189 -239 168 -227 Q147 -215 136 -198 L189 -163 Q194 -170 202 -175 Q210 -180 226 -180 Q249 -180 265 -166.5 Q281 -153 281 -131 Q281 -113 268.5 -102.5 Q256 -92 235 -92 Q212 -92 196 -101 L180 -77 L254 0 L229 0 L336 603 L150 603 L166 700 L641 700 L625 603 L439 603 L332 0 L309 0 L270 -51 Q320 -51 341 -73 Q362 -95 362 -124 Q362 -175 324.5 -207 Q287 -239 226 -239 Z " />
<glyph glyph-name="uni0163" unicode="&#x163;" horiz-adv-x="351" d="M149 -239 Q112 -239 91 -227 Q70 -215 59 -198 L112 -163 Q117 -170 125 -175 Q133 -180 148 -180 Q172 -180 188 -166.5 Q204 -153 204 -131 Q204 -113 191.5 -102.5 Q179 -92 158 -92 Q134 -92 119 -101 L103 -77 L172 -6 Q142 5 128.5 28.5 Q115 52 115 84 Q115 107 121 137 L171 422 L89 422 L105 511 L186 511 L217 685 L322 722 L285 511 L401 511 L386 422 L270 422 L222 152 Q220 140 218.5 129.5 Q217 119 217 113 Q217 93 227.5 85 Q238 77 256 77 Q278 77 296 83.5 Q314 90 333 100 L310 9 Q290 -1 269 -5.5 Q248 -10 223 -12 L193 -51 Q243 -51 263.5 -73 Q284 -95 284 -124 Q284 -175 246.5 -207 Q209 -239 149 -239 Z " />
<glyph glyph-name="Tcaron" unicode="&#x164;" horiz-adv-x="561" d="M439 603 L332 0 L229 0 L336 603 L150 603 L166 700 L641 700 L625 603 L439 603 Z M460 766 L362 766 L254 922 L342 922 L424 837 L534 922 L623 922 L460 766 Z " />
<glyph glyph-name="tcaron" unicode="&#x165;" horiz-adv-x="432" d="M270 422 L222 152 Q220 139 218.5 130 Q217 121 217 113 Q217 96 225.5 86.5 Q234 77 256 77 Q278 77 296 83.5 Q314 90 333 100 L310 9 Q266 -12 210 -12 Q164 -12 139.5 14 Q115 40 115 82 Q115 93 116.5 107.5 Q118 122 121 137 L171 422 L89 422 L105 511 L186 511 L217 685 L322 722 L285 511 L401 511 L386 422 L270 422 Z M524 840 L522 832 Q509 759 477 701.5 Q445 644 390 596 L364 619 Q373 633 382.5 657.5 Q392 682 401 712 Q410 742 418 775 Q426 808 432 840 L524 840 Z " />
<glyph glyph-name="Tbar" unicode="&#x166;" horiz-adv-x="561" d="M439 603 L397 366 L513 366 L496 270 L380 270 L332 0 L229 0 L277 270 L160 270 L177 366 L294 366 L336 603 L150 603 L166 700 L641 700 L625 603 L439 603 Z " />
<glyph glyph-name="tbar" unicode="&#x167;" horiz-adv-x="371" d="M227 -12 Q181 -12 156.5 14 Q132 40 132 82 Q132 93 133.5 107.5 Q135 122 138 137 L152 216 L72 216 L87 305 L167 305 L188 422 L106 422 L122 511 L203 511 L234 685 L339 722 L302 511 L418 511 L403 422 L287 422 L266 305 L382 305 L366 216 L250 216 L239 152 Q237 139 235.5 130 Q234 121 234 113 Q234 96 242.5 86.5 Q251 77 273 77 Q295 77 313 83.5 Q331 90 350 100 L327 9 Q283 -12 227 -12 Z " />
<glyph glyph-name="Utilde" unicode="&#x168;" horiz-adv-x="664" d="M345 -12 Q298 -12 257 0.5 Q216 13 186 39 Q156 65 138.5 105 Q121 145 121 200 Q121 217 122.5 238 Q124 259 130 291 L202 700 L305 700 L231 276 Q227 253 225.5 237.5 Q224 222 224 208 Q224 172 234.5 148.5 Q245 125 262.5 110.5 Q280 96 303 90.5 Q326 85 351 85 Q382 85 410.5 93 Q439 101 462.5 121 Q486 141 504 176 Q522 211 531 264 L608 700 L710 700 L633 258 Q619 181 593.5 129 Q568 77 531 45.5 Q494 14 447 1 Q400 -12 345 -12 Z M544 782 Q518 782 498.5 789.5 Q479 797 461.5 806 Q444 815 428 822.5 Q412 830 394 830 Q376 830 361 819.5 Q346 809 341 786 L293 786 Q303 843 332 876.5 Q361 910 415 910 Q440 910 460 902.5 Q480 895 497 886 Q514 877 530 869.5 Q546 862 564 862 Q582 862 597 872.5 Q612 883 618 906 L665 906 Q655 849 626.5 815.5 Q598 782 544 782 Z " />
<glyph glyph-name="utilde" unicode="&#x169;" horiz-adv-x="538" d="M370 0 L379 48 Q328 -12 239 -12 Q208 -12 181.5 -2.5 Q155 7 135.5 26.5 Q116 46 105 76 Q94 106 94 146 Q94 160 96 175.5 Q98 191 100 208 L153 511 L253 511 L200 214 Q197 197 196 186 Q195 175 195 167 Q195 122 217 102 Q239 82 274 82 Q296 82 317.5 88 Q339 94 356.5 108.5 Q374 123 387 146 Q400 169 406 203 L460 511 L559 511 L469 0 L370 0 Z M444 592 Q418 592 398.5 599.5 Q379 607 361.5 616 Q344 625 328 632.5 Q312 640 294 640 Q276 640 261 629.5 Q246 619 241 596 L193 596 Q203 653 232 686.5 Q261 720 315 720 Q340 720 360 712.5 Q380 705 397 696 Q414 687 430 679.5 Q446 672 464 672 Q482 672 497 682.5 Q512 693 518 716 L565 716 Q555 659 526.5 625.5 Q498 592 444 592 Z " />
<glyph glyph-name="Umacron" unicode="&#x16a;" horiz-adv-x="664" d="M345 -12 Q298 -12 257 0.5 Q216 13 186 39 Q156 65 138.5 105 Q121 145 121 200 Q121 217 122.5 238 Q124 259 130 291 L202 700 L305 700 L231 276 Q227 253 225.5 237.5 Q224 222 224 208 Q224 172 234.5 148.5 Q245 125 262.5 110.5 Q280 96 303 90.5 Q326 85 351 85 Q382 85 410.5 93 Q439 101 462.5 121 Q486 141 504 176 Q522 211 531 264 L608 700 L710 700 L633 258 Q619 181 593.5 129 Q568 77 531 45.5 Q494 14 447 1 Q400 -12 345 -12 Z M307 787 L321 871 L638 871 L624 787 L307 787 Z " />
<glyph glyph-name="umacron" unicode="&#x16b;" horiz-adv-x="538" d="M370 0 L379 48 Q328 -12 239 -12 Q208 -12 181.5 -2.5 Q155 7 135.5 26.5 Q116 46 105 76 Q94 106 94 146 Q94 160 96 175.5 Q98 191 100 208 L153 511 L253 511 L200 214 Q197 197 196 186 Q195 175 195 167 Q195 122 217 102 Q239 82 274 82 Q296 82 317.5 88 Q339 94 356.5 108.5 Q374 123 387 146 Q400 169 406 203 L460 511 L559 511 L469 0 L370 0 Z M211 597 L225 681 L542 681 L528 597 L211 597 Z " />
<glyph glyph-name="Ubreve" unicode="&#x16c;" horiz-adv-x="664" d="M345 -12 Q298 -12 257 0.5 Q216 13 186 39 Q156 65 138.5 105 Q121 145 121 200 Q121 217 122.5 238 Q124 259 130 291 L202 700 L305 700 L231 276 Q227 253 225.5 237.5 Q224 222 224 208 Q224 172 234.5 148.5 Q245 125 262.5 110.5 Q280 96 303 90.5 Q326 85 351 85 Q382 85 410.5 93 Q439 101 462.5 121 Q486 141 504 176 Q522 211 531 264 L608 700 L710 700 L633 258 Q619 181 593.5 129 Q568 77 531 45.5 Q494 14 447 1 Q400 -12 345 -12 Z M467 766 Q427 766 398 776.5 Q369 787 350 805 Q331 823 322 846.5 Q313 870 313 896 Q313 914 316 932 L396 932 Q395 927 394.5 923 Q394 919 394 914 Q394 882 414.5 863 Q435 844 477 844 Q522 844 552.5 869 Q583 894 590 932 L671 932 Q665 898 649.5 868 Q634 838 608.5 815.5 Q583 793 547.5 779.5 Q512 766 467 766 Z " />
<glyph glyph-name="ubreve" unicode="&#x16d;" horiz-adv-x="538" d="M370 0 L379 48 Q328 -12 239 -12 Q208 -12 181.5 -2.5 Q155 7 135.5 26.5 Q116 46 105 76 Q94 106 94 146 Q94 160 96 175.5 Q98 191 100 208 L153 511 L253 511 L200 214 Q197 197 196 186 Q195 175 195 167 Q195 122 217 102 Q239 82 274 82 Q296 82 317.5 88 Q339 94 356.5 108.5 Q374 123 387 146 Q400 169 406 203 L460 511 L559 511 L469 0 L370 0 Z M364 576 Q324 576 295 586.5 Q266 597 247 615 Q228 633 219 656.5 Q210 680 210 706 Q210 724 213 742 L293 742 Q292 737 291.5 733 Q291 729 291 724 Q291 692 311.5 673 Q332 654 374 654 Q419 654 449.5 679 Q480 704 487 742 L568 742 Q562 708 546.5 678 Q531 648 505.5 625.5 Q480 603 444.5 589.5 Q409 576 364 576 Z " />
<glyph glyph-name="Uring" unicode="&#x16e;" horiz-adv-x="664" d="M345 -12 Q298 -12 257 0.5 Q216 13 186 39 Q156 65 138.5 105 Q121 145 121 200 Q121 217 122.5 238 Q124 259 130 291 L202 700 L305 700 L231 276 Q227 253 225.5 237.5 Q224 222 224 208 Q224 172 234.5 148.5 Q245 125 262.5 110.5 Q280 96 303 90.5 Q326 85 351 85 Q382 85 410.5 93 Q439 101 462.5 121 Q486 141 504 176 Q522 211 531 264 L608 700 L710 700 L633 258 Q619 181 593.5 129 Q568 77 531 45.5 Q494 14 447 1 Q400 -12 345 -12 Z M452 722 Q431 722 413 730 Q395 738 382 752.5 Q369 767 361.5 785.5 Q354 804 354 825 Q354 854 366 879 Q378 904 397.5 923 Q417 942 442.5 952.5 Q468 963 495 963 Q537 963 564.5 933.5 Q592 904 592 862 Q592 833 580 808 Q568 783 548.5 763.5 Q529 744 503.5 733 Q478 722 452 722 Z M464 793 Q487 793 503.5 810 Q520 827 520 853 Q520 871 509.5 882 Q499 893 482 893 Q461 893 444 877 Q427 861 427 835 Q427 817 437 805 Q447 793 464 793 Z " />
<glyph glyph-name="uring" unicode="&#x16f;" horiz-adv-x="538" d="M370 0 L379 48 Q328 -12 239 -12 Q208 -12 181.5 -2.5 Q155 7 135.5 26.5 Q116 46 105 76 Q94 106 94 146 Q94 160 96 175.5 Q98 191 100 208 L153 511 L253 511 L200 214 Q197 197 196 186 Q195 175 195 167 Q195 122 217 102 Q239 82 274 82 Q296 82 317.5 88 Q339 94 356.5 108.5 Q374 123 387 146 Q400 169 406 203 L460 511 L559 511 L469 0 L370 0 Z M354 532 Q333 532 315 540 Q297 548 284 562.5 Q271 577 263.5 595.5 Q256 614 256 635 Q256 664 268 689 Q280 714 299.5 733 Q319 752 344.5 762.5 Q370 773 397 773 Q439 773 466.5 743.5 Q494 714 494 672 Q494 643 482 618 Q470 593 450.5 573.5 Q431 554 405.5 543 Q380 532 354 532 Z M366 603 Q389 603 405.5 620 Q422 637 422 663 Q422 681 411.5 692 Q401 703 384 703 Q363 703 346 687 Q329 671 329 645 Q329 627 339 615 Q349 603 366 603 Z " />
<glyph glyph-name="Uhungarumlaut" unicode="&#x170;" horiz-adv-x="664" d="M345 -12 Q298 -12 257 0.5 Q216 13 186 39 Q156 65 138.5 105 Q121 145 121 200 Q121 217 122.5 238 Q124 259 130 291 L202 700 L305 700 L231 276 Q227 253 225.5 237.5 Q224 222 224 208 Q224 172 234.5 148.5 Q245 125 262.5 110.5 Q280 96 303 90.5 Q326 85 351 85 Q382 85 410.5 93 Q439 101 462.5 121 Q486 141 504 176 Q522 211 531 264 L608 700 L710 700 L633 258 Q619 181 593.5 129 Q568 77 531 45.5 Q494 14 447 1 Q400 -12 345 -12 Z M405 766 L310 766 L473 922 L603 922 L405 766 Z M605 766 L511 766 L674 922 L732 922 L803 922 L605 766 Z " />
<glyph glyph-name="uhungarumlaut" unicode="&#x171;" horiz-adv-x="538" d="M370 0 L379 48 Q328 -12 239 -12 Q208 -12 181.5 -2.5 Q155 7 135.5 26.5 Q116 46 105 76 Q94 106 94 146 Q94 160 96 175.5 Q98 191 100 208 L153 511 L253 511 L200 214 Q197 197 196 186 Q195 175 195 167 Q195 122 217 102 Q239 82 274 82 Q296 82 317.5 88 Q339 94 356.5 108.5 Q374 123 387 146 Q400 169 406 203 L460 511 L559 511 L469 0 L370 0 Z M307 576 L212 576 L375 732 L505 732 L307 576 Z M507 576 L413 576 L576 732 L634 732 L705 732 L507 576 Z " />
<glyph glyph-name="Uogonek" unicode="&#x172;" horiz-adv-x="664" d="M312 -239 Q269 -239 242.5 -216.5 Q216 -194 216 -154 Q216 -108 245.5 -72 Q275 -36 325 -12 Q281 -9 244 4.5 Q207 18 179.5 44.5 Q152 71 136.5 109.5 Q121 148 121 200 Q121 217 122.5 238 Q124 259 130 291 L202 700 L305 700 L231 276 Q227 253 225.5 237.5 Q224 222 224 208 Q224 172 234.5 148.5 Q245 125 262.5 110.5 Q280 96 303 90.5 Q326 85 351 85 Q382 85 410.5 93 Q439 101 462.5 121 Q486 141 504 176 Q522 211 531 264 L608 700 L710 700 L633 258 Q622 196 603.5 151 Q585 106 559 75 Q533 44 500.5 25 Q468 6 429 -3 Q362 -31 330.5 -65 Q299 -99 299 -137 Q299 -158 310 -167.5 Q321 -177 336 -177 Q353 -177 364.5 -170.5 Q376 -164 385 -156 L425 -192 Q408 -209 380.5 -224 Q353 -239 312 -239 Z " />
<glyph glyph-name="uogonek" unicode="&#x173;" horiz-adv-x="538" d="M469 0 Q428 -12 399.5 -28 Q371 -44 353 -62.5 Q335 -81 327 -100.5 Q319 -120 319 -138 Q319 -158 330 -167.5 Q341 -177 356 -177 Q373 -177 385 -170.5 Q397 -164 405 -156 L445 -192 Q428 -209 400.5 -224 Q373 -239 332 -239 Q289 -239 262.5 -216.5 Q236 -194 236 -154 Q236 -100 273 -62 Q310 -24 370 0 L379 48 Q328 -12 239 -12 Q208 -12 181.5 -2.5 Q155 7 135.5 26.5 Q116 46 105 76 Q94 106 94 146 Q94 160 96 175.5 Q98 191 100 208 L153 511 L253 511 L200 214 Q197 197 196 186 Q195 175 195 167 Q195 122 217 102 Q239 82 274 82 Q296 82 317.5 88 Q339 94 356.5 108.5 Q374 123 387 146 Q400 169 406 203 L460 511 L559 511 L469 0 Z " />
<glyph glyph-name="Wcircumflex" unicode="&#x174;" horiz-adv-x="801" d="M887 700 L625 0 L532 0 L490 451 Q488 467 487.5 482 Q487 497 487 504 Q485 499 480 484.5 Q475 470 467 453 L264 0 L171 0 L161 700 L263 700 L264 252 Q264 239 263.5 223 Q263 207 263 202 Q265 207 271 222 Q277 237 283 252 L476 700 L561 700 L598 249 Q599 238 599.5 222 Q600 206 600 201 Q602 206 606.5 220 Q611 234 616 247 L779 700 L887 700 Z M624 766 L543 851 L432 766 L344 766 L506 922 L605 922 L713 766 L624 766 Z " />
<glyph glyph-name="wcircumflex" unicode="&#x175;" horiz-adv-x="684" d="M536 0 L445 0 L410 298 Q408 311 407 329.5 Q406 348 406 356 Q404 352 401 344 Q398 336 394.5 327.5 Q391 319 387.5 310.5 Q384 302 382 297 L249 0 L159 0 L115 511 L210 511 L227 193 Q228 179 228 163.5 Q228 148 228 140 Q231 148 238 164.5 Q245 181 250 193 L388 511 L473 511 L503 193 Q505 178 505.5 161.5 Q506 145 506 140 Q509 148 514.5 163.5 Q520 179 526 193 L651 511 L749 511 L536 0 Z M542 576 L461 661 L350 576 L262 576 L424 732 L523 732 L631 576 L542 576 Z " />
<glyph glyph-name="Ycircumflex" unicode="&#x176;" horiz-adv-x="623" d="M259 0 L309 281 L151 700 L257 700 L373 377 L604 700 L717 700 L410 276 L361 0 L259 0 Z M537 766 L456 851 L345 766 L257 766 L419 922 L518 922 L626 766 L537 766 Z " />
<glyph glyph-name="ycircumflex" unicode="&#x177;" horiz-adv-x="504" d="M199 -194 L93 -194 L203 13 L109 511 L209 511 L266 178 Q268 165 270 153 Q272 141 273 136 Q275 142 281.5 154.5 Q288 167 294 178 L471 511 L578 511 L199 -194 Z M439 576 L358 661 L247 576 L159 576 L321 732 L420 732 L528 576 L439 576 Z " />
<glyph glyph-name="Zacute" unicode="&#x179;" horiz-adv-x="610" d="M53 0 L66 76 L525 605 L181 605 L197 700 L676 700 L662 623 L205 95 L570 95 L553 0 L53 0 Z M453 766 L358 766 L522 922 L653 922 L453 766 Z " />
<glyph glyph-name="zacute" unicode="&#x17a;" horiz-adv-x="482" d="M51 0 L64 72 L369 421 L144 421 L160 511 L517 511 L505 440 L198 89 L442 89 L426 0 L51 0 Z M376 576 L281 576 L445 732 L576 732 L376 576 Z " />
<glyph glyph-name="Zdotaccent" unicode="&#x17b;" horiz-adv-x="610" d="M53 0 L66 76 L525 605 L181 605 L197 700 L676 700 L662 623 L205 95 L570 95 L553 0 L53 0 Z M440 783 Q419 783 405.5 798 Q392 813 392 834 Q392 863 413 883 Q434 903 461 903 Q483 903 496.5 888.5 Q510 874 510 853 Q510 824 489 803.5 Q468 783 440 783 Z " />
<glyph glyph-name="zdotaccent" unicode="&#x17c;" horiz-adv-x="482" d="M51 0 L64 72 L369 421 L144 421 L160 511 L517 511 L505 440 L198 89 L442 89 L426 0 L51 0 Z M344 593 Q323 593 309.5 608 Q296 623 296 644 Q296 673 317 693 Q338 713 365 713 Q387 713 400.5 698.5 Q414 684 414 663 Q414 634 393 613.5 Q372 593 344 593 Z " />
<glyph glyph-name="longs" unicode="&#x17f;" horiz-adv-x="315" d="M93 0 L198 593 Q204 628 217 651 Q230 674 248 688 Q266 702 288 707.5 Q310 713 333 713 Q360 713 383 705.5 Q406 698 424 687 L409 604 Q389 614 372.5 618 Q356 622 340 622 Q319 622 308.5 608.5 Q298 595 294 575 L192 0 L93 0 Z " />
<glyph glyph-name="uni01CD" unicode="&#x1cd;" horiz-adv-x="659" d="M519 0 L492 163 L231 163 L146 0 L37 0 L405 700 L499 700 L623 0 L519 0 Z M437 493 Q435 504 432 523.5 Q429 543 428 552 Q424 543 415.5 524.5 Q407 506 401 494 L278 255 L477 255 L437 493 Z M507 766 L409 766 L301 922 L389 922 L471 837 L581 922 L670 922 L507 766 Z " />
<glyph glyph-name="uni01CE" unicode="&#x1ce;" horiz-adv-x="509" d="M352 0 L359 41 Q337 21 300.5 4.5 Q264 -12 218 -12 Q150 -12 107.5 27.5 Q65 67 65 136 Q65 184 82.5 220 Q100 256 130 280 Q160 304 200 316 Q240 328 284 328 Q323 328 353 317.5 Q383 307 403 294 L409 326 Q414 351 414 364 Q414 404 390 419.5 Q366 435 334 435 Q292 435 249 419 Q206 403 173 382 L159 465 Q195 487 242.5 505 Q290 523 347 523 Q372 523 400.5 516.5 Q429 510 453.5 493 Q478 476 494 447.5 Q510 419 510 376 Q510 365 508.5 351 Q507 337 504 322 L448 0 L352 0 Z M242 75 Q284 75 318 93 Q352 111 375 134 L389 211 Q372 221 345 231.5 Q318 242 282 242 Q259 242 237.5 236.5 Q216 231 199 219.5 Q182 208 172 189.5 Q162 171 162 145 Q162 115 182.5 95 Q203 75 242 75 Z M415 576 L317 576 L209 732 L297 732 L379 647 L489 732 L578 732 L415 576 Z " />
<glyph glyph-name="uni01CF" unicode="&#x1cf;" horiz-adv-x="268" d="M82 0 L205 700 L309 700 L186 0 L82 0 Z M313 766 L215 766 L107 922 L195 922 L277 837 L387 922 L476 922 L313 766 Z " />
<glyph glyph-name="uni01D0" unicode="&#x1d0;" horiz-adv-x="241" d="M265 576 L167 576 L59 732 L147 732 L229 647 L339 732 L428 732 L265 576 Z M71 0 L161 511 L259 511 L169 0 L71 0 Z " />
<glyph glyph-name="uni01D1" unicode="&#x1d1;" horiz-adv-x="689" d="M361 84 Q419 84 463.5 113.5 Q508 143 538 190.5 Q568 238 583.5 298.5 Q599 359 599 421 Q599 457 591 491.5 Q583 526 565 553.5 Q547 581 518.5 598 Q490 615 450 615 Q391 615 346.5 584.5 Q302 554 272.5 506 Q243 458 228 398.5 Q213 339 213 281 Q213 243 221 208 Q229 173 247 145 Q265 117 293 100.5 Q321 84 361 84 Z M361 -12 Q293 -12 245.5 12.5 Q198 37 168 78 Q138 119 124.5 171.5 Q111 224 111 281 Q111 359 132.5 436.5 Q154 514 197.5 575 Q241 636 305 674 Q369 712 455 712 Q520 712 566.5 687 Q613 662 643 621 Q673 580 687 528 Q701 476 701 421 Q701 341 679 263.5 Q657 186 614 124.5 Q571 63 507.5 25.5 Q444 -12 361 -12 Z M527 766 L429 766 L321 922 L409 922 L491 837 L601 922 L690 922 L527 766 Z " />
<glyph glyph-name="uni01D2" unicode="&#x1d2;" horiz-adv-x="522" d="M271 -12 Q221 -12 185 4 Q149 20 125.5 48.5 Q102 77 90.5 117 Q79 157 79 204 Q79 265 97 323 Q115 381 148.5 425 Q182 469 231.5 496 Q281 523 344 523 Q391 523 426.5 506 Q462 489 485.5 460 Q509 431 520.5 392 Q532 353 532 310 Q532 247 514.5 189 Q497 131 463.5 86 Q430 41 381.5 14.5 Q333 -12 271 -12 Z M276 82 Q313 82 342.5 100.5 Q372 119 392 150 Q412 181 422.5 219.5 Q433 258 433 299 Q433 326 427.5 349.5 Q422 373 410 391 Q398 409 379 419 Q360 429 334 429 Q297 429 268 410 Q239 391 219 360.5 Q199 330 188.5 291.5 Q178 253 178 213 Q178 156 201.5 119 Q225 82 276 82 Z M408 576 L310 576 L202 732 L290 732 L372 647 L482 732 L571 732 L408 576 Z " />
<glyph glyph-name="uni01D3" unicode="&#x1d3;" horiz-adv-x="664" d="M345 -12 Q298 -12 257 0.5 Q216 13 186 39 Q156 65 138.5 105 Q121 145 121 200 Q121 217 122.5 238 Q124 259 130 291 L202 700 L305 700 L231 276 Q227 253 225.5 237.5 Q224 222 224 208 Q224 172 234.5 148.5 Q245 125 262.5 110.5 Q280 96 303 90.5 Q326 85 351 85 Q382 85 410.5 93 Q439 101 462.5 121 Q486 141 504 176 Q522 211 531 264 L608 700 L710 700 L633 258 Q619 181 593.5 129 Q568 77 531 45.5 Q494 14 447 1 Q400 -12 345 -12 Z M511 766 L413 766 L305 922 L393 922 L475 837 L585 922 L674 922 L511 766 Z " />
<glyph glyph-name="uni01D4" unicode="&#x1d4;" horiz-adv-x="538" d="M370 0 L379 48 Q328 -12 239 -12 Q208 -12 181.5 -2.5 Q155 7 135.5 26.5 Q116 46 105 76 Q94 106 94 146 Q94 160 96 175.5 Q98 191 100 208 L153 511 L253 511 L200 214 Q197 197 196 186 Q195 175 195 167 Q195 122 217 102 Q239 82 274 82 Q296 82 317.5 88 Q339 94 356.5 108.5 Q374 123 387 146 Q400 169 406 203 L460 511 L559 511 L469 0 L370 0 Z M411 576 L313 576 L205 732 L293 732 L375 647 L485 732 L574 732 L411 576 Z " />
<glyph glyph-name="AEacute" unicode="&#x1fc;" horiz-adv-x="837" d="M391 0 L420 163 L209 163 L91 0 L-23 0 L490 700 L889 700 L873 604 L599 604 L565 409 L725 409 L707 314 L548 314 L510 95 L804 95 L787 0 L391 0 Z M436 255 L489 555 Q482 543 472.5 528.5 Q463 514 453 500 L277 255 L436 255 Z M649 766 L554 766 L718 922 L849 922 L649 766 Z " />
<glyph glyph-name="aeacute" unicode="&#x1fd;" horiz-adv-x="808" d="M571 -12 Q513 -12 470 13.5 Q427 39 407 86 Q361 32 310 10 Q259 -12 211 -12 Q180 -12 153.5 -2 Q127 8 107.5 26.5 Q88 45 76.5 72.5 Q65 100 65 136 Q65 186 83 222.5 Q101 259 131 282.5 Q161 306 200 317.5 Q239 329 281 329 Q311 329 341 320.5 Q371 312 394 298 L400 332 Q403 350 403 363 Q403 399 382.5 417 Q362 435 327 435 Q286 435 244.5 420 Q203 405 169 382 L156 465 Q191 487 238.5 505 Q286 523 341 523 Q386 523 421 502 Q456 481 473 447 Q505 485 550 504 Q595 523 645 523 Q730 523 778 474 Q826 425 826 328 Q826 293 820 265 Q814 237 807 216 L478 216 Q477 211 477 209 Q477 207 477 202 Q477 142 506 109.5 Q535 77 584 77 Q610 77 640.5 88 Q671 99 700 124 L748 56 Q713 24 669 6 Q625 -12 571 -12 Z M240 75 Q278 75 310 94 Q342 113 365 137 L378 212 Q361 224 335 233 Q309 242 280 242 Q256 242 234.5 236.5 Q213 231 196.5 219.5 Q180 208 170.5 189.5 Q161 171 161 145 Q161 115 181 95 Q201 75 240 75 Z M633 434 Q585 434 546 402.5 Q507 371 491 302 L727 302 Q730 321 730 340 Q727 388 700.5 411 Q674 434 633 434 Z M537 576 L442 576 L606 732 L737 732 L537 576 Z " />
<glyph glyph-name="Oslashacute" unicode="&#x1fe;" horiz-adv-x="689" d="M516 766 L421 766 L585 922 L716 922 L516 766 Z M59 -12 L150 99 Q130 136 120.5 185 Q111 234 111 280 Q111 358 132 435 Q153 512 196 573.5 Q239 635 304.5 673.5 Q370 712 458 712 Q507 712 545 698 Q583 684 610 660 L653 712 L754 712 L661 599 Q681 563 691 514.5 Q701 466 701 421 Q701 341 679.5 263.5 Q658 186 615 125 Q572 64 507.5 26 Q443 -12 357 -12 Q306 -12 267.5 1.5 Q229 15 200 38 L159 -12 L59 -12 Z M213 282 Q213 261 215.5 235 Q218 209 225 190 L544 580 Q527 597 503.5 606 Q480 615 448 615 Q389 615 345 584.5 Q301 554 271.5 506 Q242 458 227.5 399 Q213 340 213 282 Z M362 84 Q420 84 464.5 113.5 Q509 143 539 190.5 Q569 238 584 297.5 Q599 357 599 418 Q599 439 595.5 464 Q592 489 586 508 L266 119 Q283 102 306.5 93 Q330 84 362 84 Z " />
<glyph glyph-name="oslashacute" unicode="&#x1ff;" horiz-adv-x="522" d="M403 576 L308 576 L472 732 L603 732 L403 576 Z M500 437 Q532 382 532 310 Q532 247 514.5 189 Q497 131 463.5 86 Q430 41 381.5 14.5 Q333 -12 271 -12 Q235 -12 206.5 -3.5 Q178 5 156 21 L128 -12 L40 -12 L110 71 Q79 124 79 204 Q79 265 97 323 Q115 381 148.5 425 Q182 469 231.5 496 Q281 523 344 523 Q378 523 405.5 513.5 Q433 504 454 488 L483 523 L571 523 L500 437 Z M178 213 Q178 186 184 162 L390 409 Q367 429 334 429 Q297 429 268 410 Q239 391 219 360.5 Q199 330 188.5 291.5 Q178 253 178 213 Z M276 82 Q313 82 342.5 100.5 Q372 119 392 150 Q412 181 422.5 219.5 Q433 258 433 299 Q433 311 431.5 323.5 Q430 336 426 347 L222 101 Q243 82 276 82 Z " />
<glyph glyph-name="uni0218" unicode="&#x218;" horiz-adv-x="575" d="M493 544 Q482 574 455 596 Q428 618 380 618 Q324 618 293 591.5 Q262 565 262 526 Q262 495 283.5 475.5 Q305 456 338 439.5 Q371 423 408.5 406 Q446 389 479 363.5 Q512 338 533.5 301 Q555 264 555 208 Q555 156 536 115 Q517 74 483.5 46 Q450 18 403 3 Q356 -12 300 -12 Q255 -12 219 1 Q183 14 155 36.5 Q127 59 108.5 89.5 Q90 120 80 155 L175 190 Q192 140 225 112 Q258 84 313 84 Q374 84 411 113.5 Q448 143 448 199 Q448 236 426.5 259.5 Q405 283 373 301 Q341 319 303 336 Q265 353 233 376.5 Q201 400 179.5 434 Q158 468 158 520 Q158 561 174 596 Q190 631 219.5 657 Q249 683 291.5 697.5 Q334 712 387 712 Q432 712 466 700.5 Q500 689 524.5 670 Q549 651 564 626.5 Q579 602 585 577 L493 544 Z M202 -246 Q215 -235 232 -216.5 Q249 -198 258 -172 Q235 -170 222.5 -156 Q210 -142 210 -120 Q210 -88 231.5 -67.5 Q253 -47 279 -47 Q302 -47 318.5 -62.5 Q335 -78 335 -107 Q335 -148 310.5 -188 Q286 -228 229 -263 L202 -246 Z " />
<glyph glyph-name="uni0219" unicode="&#x219;" horiz-adv-x="445" d="M391 388 Q377 405 353 421.5 Q329 438 289 438 Q254 438 230.5 421.5 Q207 405 207 377 Q207 358 223.5 344 Q240 330 265 318 Q290 306 319.5 292 Q349 278 374 259 Q399 240 415.5 212.5 Q432 185 432 146 Q432 73 378.5 30.5 Q325 -12 234 -12 Q173 -12 125.5 13.5 Q78 39 55 79 L128 136 Q143 114 171.5 94 Q200 74 242 74 Q278 74 305.5 90.5 Q333 107 333 140 Q333 162 316.5 177 Q300 192 275.5 205.5 Q251 219 222 232.5 Q193 246 168.5 264.5 Q144 283 127.5 308.5 Q111 334 111 371 Q111 407 125 435 Q139 463 164 482.5 Q189 502 223 512.5 Q257 523 297 523 Q357 523 400 499 Q443 475 464 443 L391 388 Z M128 -246 Q141 -235 158 -216.5 Q175 -198 184 -172 Q161 -170 148.5 -156 Q136 -142 136 -120 Q136 -88 157.5 -67.5 Q179 -47 205 -47 Q228 -47 244.5 -62.5 Q261 -78 261 -107 Q261 -148 236.5 -188 Q212 -228 155 -263 L128 -246 Z " />
<glyph glyph-name="uni021A" unicode="&#x21a;" horiz-adv-x="561" d="M439 603 L332 0 L229 0 L336 603 L150 603 L166 700 L641 700 L625 603 L439 603 Z M195 -246 Q208 -235 225 -216.5 Q242 -198 251 -172 Q228 -170 215.5 -156 Q203 -142 203 -120 Q203 -88 224.5 -67.5 Q246 -47 272 -47 Q295 -47 311.5 -62.5 Q328 -78 328 -107 Q328 -148 303.5 -188 Q279 -228 222 -263 L195 -246 Z " />
<glyph glyph-name="uni021B" unicode="&#x21b;" horiz-adv-x="351" d="M270 422 L222 152 Q220 139 218.5 130 Q217 121 217 113 Q217 96 225.5 86.5 Q234 77 256 77 Q278 77 296 83.5 Q314 90 333 100 L310 9 Q266 -12 210 -12 Q164 -12 139.5 14 Q115 40 115 82 Q115 93 116.5 107.5 Q118 122 121 137 L171 422 L89 422 L105 511 L186 511 L217 685 L322 722 L285 511 L401 511 L386 422 L270 422 Z M105 -246 Q118 -235 135 -216.5 Q152 -198 161 -172 Q138 -170 125.5 -156 Q113 -142 113 -120 Q113 -88 134.5 -67.5 Q156 -47 182 -47 Q205 -47 221.5 -62.5 Q238 -78 238 -107 Q238 -148 213.5 -188 Q189 -228 132 -263 L105 -246 Z " />
<glyph glyph-name="dotlessj" unicode="&#x237;" horiz-adv-x="245" d="M-75 -135 Q-38 -129 -12 -120.5 Q14 -112 30.5 -99.5 Q47 -87 56 -70.5 Q65 -54 69 -32 L165 511 L262 511 L168 -25 Q160 -73 141 -106 Q122 -139 95 -161 Q68 -183 33 -196 Q-2 -209 -42 -215 L-75 -135 Z " />
<glyph glyph-name="firsttonechinese" unicode="&#x2c9;" horiz-adv-x="374" d="M171 597 L185 681 L502 681 L488 597 L171 597 Z " />
<glyph glyph-name="uni03BC" unicode="&#x3bc;" horiz-adv-x="543" d="M375 0 L384 53 Q360 20 327 4 Q294 -12 259 -12 Q232 -12 209 -1 Q186 10 175 32 L140 -165 L34 -202 L160 511 L258 511 L205 214 Q203 201 201.5 188.5 Q200 176 200 162 Q200 130 218 106 Q236 82 281 82 Q302 82 322.5 88.5 Q343 95 361 110 Q379 125 392 149.5 Q405 174 411 209 L465 511 L563 511 L473 0 L375 0 Z " />
<glyph glyph-name="Wgrave" unicode="&#x1e80;" horiz-adv-x="801" d="M887 700 L625 0 L532 0 L490 451 Q488 467 487.5 482 Q487 497 487 504 Q485 499 480 484.5 Q475 470 467 453 L264 0 L171 0 L161 700 L263 700 L264 252 Q264 239 263.5 223 Q263 207 263 202 Q265 207 271 222 Q277 237 283 252 L476 700 L561 700 L598 249 Q599 238 599.5 222 Q600 206 600 201 Q602 206 606.5 220 Q611 234 616 247 L779 700 L887 700 Z M520 766 L374 922 L506 922 L615 766 L520 766 Z " />
<glyph glyph-name="wgrave" unicode="&#x1e81;" horiz-adv-x="684" d="M536 0 L445 0 L410 298 Q408 311 407 329.5 Q406 348 406 356 Q404 352 401 344 Q398 336 394.5 327.5 Q391 319 387.5 310.5 Q384 302 382 297 L249 0 L159 0 L115 511 L210 511 L227 193 Q228 179 228 163.5 Q228 148 228 140 Q231 148 238 164.5 Q245 181 250 193 L388 511 L473 511 L503 193 Q505 178 505.5 161.5 Q506 145 506 140 Q509 148 514.5 163.5 Q520 179 526 193 L651 511 L749 511 L536 0 Z M438 576 L292 732 L424 732 L533 576 L438 576 Z " />
<glyph glyph-name="Wacute" unicode="&#x1e82;" horiz-adv-x="801" d="M887 700 L625 0 L532 0 L490 451 Q488 467 487.5 482 Q487 497 487 504 Q485 499 480 484.5 Q475 470 467 453 L264 0 L171 0 L161 700 L263 700 L264 252 Q264 239 263.5 223 Q263 207 263 202 Q265 207 271 222 Q277 237 283 252 L476 700 L561 700 L598 249 Q599 238 599.5 222 Q600 206 600 201 Q602 206 606.5 220 Q611 234 616 247 L779 700 L887 700 Z M540 766 L445 766 L609 922 L740 922 L540 766 Z " />
<glyph glyph-name="wacute" unicode="&#x1e83;" horiz-adv-x="684" d="M536 0 L445 0 L410 298 Q408 311 407 329.5 Q406 348 406 356 Q404 352 401 344 Q398 336 394.5 327.5 Q391 319 387.5 310.5 Q384 302 382 297 L249 0 L159 0 L115 511 L210 511 L227 193 Q228 179 228 163.5 Q228 148 228 140 Q231 148 238 164.5 Q245 181 250 193 L388 511 L473 511 L503 193 Q505 178 505.5 161.5 Q506 145 506 140 Q509 148 514.5 163.5 Q520 179 526 193 L651 511 L749 511 L536 0 Z M473 576 L378 576 L542 732 L673 732 L473 576 Z " />
<glyph glyph-name="Wdieresis" unicode="&#x1e84;" horiz-adv-x="801" d="M887 700 L625 0 L532 0 L490 451 Q488 467 487.5 482 Q487 497 487 504 Q485 499 480 484.5 Q475 470 467 453 L264 0 L171 0 L161 700 L263 700 L264 252 Q264 239 263.5 223 Q263 207 263 202 Q265 207 271 222 Q277 237 283 252 L476 700 L561 700 L598 249 Q599 238 599.5 222 Q600 206 600 201 Q602 206 606.5 220 Q611 234 616 247 L779 700 L887 700 Z M448 783 Q426 783 412.5 798 Q399 813 399 834 Q399 863 419.5 883 Q440 903 466 903 Q489 903 502.5 888.5 Q516 874 516 853 Q516 824 495.5 803.5 Q475 783 448 783 Z M620 783 Q597 783 583.5 798 Q570 813 570 834 Q570 863 591 883 Q612 903 638 903 Q661 903 674.5 888.5 Q688 874 688 853 Q688 824 667 803.5 Q646 783 620 783 Z " />
<glyph glyph-name="wdieresis" unicode="&#x1e85;" horiz-adv-x="684" d="M536 0 L445 0 L410 298 Q408 311 407 329.5 Q406 348 406 356 Q404 352 401 344 Q398 336 394.5 327.5 Q391 319 387.5 310.5 Q384 302 382 297 L249 0 L159 0 L115 511 L210 511 L227 193 Q228 179 228 163.5 Q228 148 228 140 Q231 148 238 164.5 Q245 181 250 193 L388 511 L473 511 L503 193 Q505 178 505.5 161.5 Q506 145 506 140 Q509 148 514.5 163.5 Q520 179 526 193 L651 511 L749 511 L536 0 Z M360 593 Q338 593 324.5 608 Q311 623 311 644 Q311 673 331.5 693 Q352 713 378 713 Q401 713 414.5 698.5 Q428 684 428 663 Q428 634 407.5 613.5 Q387 593 360 593 Z M532 593 Q509 593 495.5 608 Q482 623 482 644 Q482 673 503 693 Q524 713 550 713 Q573 713 586.5 698.5 Q600 684 600 663 Q600 634 579 613.5 Q558 593 532 593 Z " />
<glyph glyph-name="Ygrave" unicode="&#x1ef2;" horiz-adv-x="623" d="M259 0 L309 281 L151 700 L257 700 L373 377 L604 700 L717 700 L410 276 L361 0 L259 0 Z M420 766 L274 922 L406 922 L515 766 L420 766 Z " />
<glyph glyph-name="ygrave" unicode="&#x1ef3;" horiz-adv-x="504" d="M199 -194 L93 -194 L203 13 L109 511 L209 511 L266 178 Q268 165 270 153 Q272 141 273 136 Q275 142 281.5 154.5 Q288 167 294 178 L471 511 L578 511 L199 -194 Z M344 576 L198 732 L330 732 L439 576 L344 576 Z " />
<glyph glyph-name="afii00208" unicode="&#x2015;" horiz-adv-x="552" d="M38 243 L53 330 L615 330 L600 243 L38 243 Z " />
<glyph glyph-name="quotereversed" unicode="&#x201b;" horiz-adv-x="212" d="M207 439 Q192 451 179.5 468 Q167 485 157.5 505.5 Q148 526 142.5 548 Q137 570 137 592 Q137 623 145 645.5 Q153 668 166.5 683 Q180 698 197 705 Q214 712 231 712 Q255 712 272 695 Q289 678 289 650 Q289 615 266.5 593.5 Q244 572 212 567 Q214 533 227.5 504 Q241 475 249 463 L207 439 Z " />
<glyph glyph-name="minute" unicode="&#x2032;" horiz-adv-x="208" d="M182 730 L303 730 L187 411 L106 411 L182 730 Z " />
<glyph glyph-name="second" unicode="&#x2033;" horiz-adv-x="400" d="M182 730 L303 730 L187 411 L106 411 L182 730 Z M374 730 L495 730 L379 411 L340 411 L298 411 L374 730 Z " />
<glyph glyph-name="nsuperior" unicode="&#x207f;" horiz-adv-x="437" d="M350 283 L393 521 Q395 531 396 544 Q397 557 397 565 Q397 600 380.5 615.5 Q364 631 339 631 Q304 631 276 605.5 Q248 580 239 530 L195 283 L108 283 L182 703 L270 703 L262 656 Q282 682 308.5 697.5 Q335 713 371 713 Q394 713 414.5 705 Q435 697 451 680.5 Q467 664 476 639.5 Q485 615 485 581 Q485 570 484 555 Q483 540 480 524 L437 283 L350 283 Z " />
<glyph glyph-name="afii08941" unicode="&#x20a4;" horiz-adv-x="563" d="M76 0 L94 101 Q129 116 152.5 149 Q176 182 190 217 L110 217 L124 296 L209 296 Q210 300 210 313 Q210 324 209 337.5 Q208 351 206 362 L136 362 L149 440 L190 440 Q188 448 187.5 460.5 Q187 473 187 477 Q187 522 202.5 564.5 Q218 607 250 639.5 Q282 672 331.5 692 Q381 712 449 712 Q509 712 556 693 Q603 674 639 642 L586 550 Q577 560 563 571.5 Q549 583 530.5 593 Q512 603 487.5 609.5 Q463 616 433 616 Q395 616 368 605 Q341 594 323.5 576 Q306 558 297.5 534 Q289 510 289 484 Q289 477 290.5 464 Q292 451 295 440 L482 440 L468 362 L312 362 Q313 353 314 345 Q315 337 315 328 Q315 320 314.5 311.5 Q314 303 313 296 L456 296 L443 217 L292 217 Q279 183 256 152.5 Q233 122 201 96 L551 96 L534 0 L76 0 Z " />
<glyph glyph-name="afii61248" unicode="&#x2105;" horiz-adv-x="991" d="M270 272 Q201 272 164.5 317.5 Q128 363 128 438 Q128 500 144.5 550.5 Q161 601 190 637 Q219 673 260 692.5 Q301 712 349 712 Q385 712 410 702 Q435 692 450.5 676.5 Q466 661 473.5 641.5 Q481 622 484 603 L397 573 Q393 594 378 611 Q363 628 331 628 Q303 628 281.5 614 Q260 600 245 576 Q230 552 222.5 519.5 Q215 487 215 450 Q215 406 232 380.5 Q249 355 282 355 Q316 355 337.5 371 Q359 387 373 416 L446 389 Q422 336 377.5 304 Q333 272 270 272 Z M758 -12 Q686 -12 646.5 33 Q607 78 607 156 Q607 218 624 268 Q641 318 671.5 353.5 Q702 389 743.5 408 Q785 427 835 427 Q907 427 946 381.5 Q985 336 985 258 Q985 196 968.5 146 Q952 96 922 61 Q892 26 850 7 Q808 -12 758 -12 Z M772 71 Q802 71 826 83.5 Q850 96 866 119 Q882 142 890.5 174 Q899 206 899 245 Q899 290 879 317 Q859 344 820 344 Q763 344 728.5 297 Q694 250 694 171 Q694 125 714 98 Q734 71 772 71 Z M205 -12 L792 712 L882 712 L295 -12 L205 -12 Z " />
<glyph glyph-name="afii61289" unicode="&#x2113;" horiz-adv-x="442" d="M244 -12 Q202 -12 174 10.5 Q146 33 146 81 Q146 91 147.5 104 Q149 117 151 132 L167 224 Q153 216 139.5 209.5 Q126 203 118 200 L103 281 Q120 288 143.5 300 Q167 312 184 322 L218 513 Q228 569 244.5 607 Q261 645 283 668.5 Q305 692 332 702 Q359 712 390 712 Q439 712 470 681 Q501 650 501 587 Q501 528 478 480.5 Q455 433 420.5 395.5 Q386 358 346.5 329 Q307 300 274 279 L251 149 Q249 139 248 129 Q247 119 247 112 Q247 92 255.5 84.5 Q264 77 278 77 Q298 77 319 89.5 Q340 102 360 120 L377 48 Q350 21 315.5 4.5 Q281 -12 244 -12 Z M374 628 Q364 628 356 623 Q348 618 341 605 Q334 592 327.5 569 Q321 546 315 509 L292 383 Q352 427 377 475.5 Q402 524 402 576 Q402 599 395.5 613.5 Q389 628 374 628 Z " />
<glyph glyph-name="afii61352" unicode="&#x2116;" horiz-adv-x="1135" d="M500 0 L298 453 Q296 457 292.5 466.5 Q289 476 285 485.5 Q281 495 278 503.5 Q275 512 274 515 Q274 512 273 504 Q272 496 270.5 486 Q269 476 267 466.5 Q265 457 264 452 L185 0 L85 0 L208 700 L302 700 L509 229 Q512 222 518.5 205.5 Q525 189 527 182 Q527 189 529.5 204.5 Q532 220 533 228 L616 700 L716 700 L593 0 L500 0 Z M724 117 L739 197 L1091 197 L1077 117 L724 117 Z M928 272 Q856 272 817 317.5 Q778 363 778 441 Q778 503 795 553 Q812 603 842 638.5 Q872 674 914 693 Q956 712 1006 712 Q1078 712 1116.5 666 Q1155 620 1155 542 Q1155 480 1138.5 430 Q1122 380 1092 345 Q1062 310 1020 291 Q978 272 928 272 Z M943 356 Q1003 356 1036.5 403.5 Q1070 451 1070 529 Q1070 575 1050 601.5 Q1030 628 991 628 Q934 628 899 581 Q864 534 864 456 Q864 410 884.5 383 Q905 356 943 356 Z " />
<glyph glyph-name="Ohm" unicode="&#x2126;" horiz-adv-x="697" d="M401 0 L417 89 Q469 135 504 176.5 Q539 218 560 258.5 Q581 299 589.5 341 Q598 383 598 431 Q598 467 590.5 500 Q583 533 566.5 558.5 Q550 584 522.5 599.5 Q495 615 456 615 Q397 615 355 588 Q313 561 286 519 Q259 477 246.5 425.5 Q234 374 234 324 Q234 258 255.5 199 Q277 140 314 89 L298 0 L67 0 L84 96 L219 96 Q181 133 156.5 196.5 Q132 260 132 336 Q132 397 151.5 463.5 Q171 530 211 585 Q251 640 313 676 Q375 712 460 712 Q529 712 575 688 Q621 664 649.5 626.5 Q678 589 690 543.5 Q702 498 702 455 Q702 332 651 242.5 Q600 153 513 96 L648 96 L631 0 L401 0 Z " />
<glyph glyph-name="estimated" unicode="&#x212e;" horiz-adv-x="749" d="M443 -12 Q372 -12 309.5 13.5 Q247 39 200 86 Q153 133 125.5 200 Q98 267 98 350 Q98 442 127 510.5 Q156 579 204.5 624.5 Q253 670 316 692.5 Q379 715 446 715 Q510 715 568.5 692 Q627 669 672 623 Q717 577 745.5 509 Q774 441 778 350 L255 350 L255 131 Q279 96 328 72 Q377 48 443 48 Q515 48 576 80.5 Q637 113 685 187 L736 156 Q710 118 681.5 87 Q653 56 617.5 34 Q582 12 539.5 0 Q497 -12 443 -12 Z M626 577 Q598 610 549 632.5 Q500 655 443 655 Q384 655 337 637 Q290 619 255 586 L255 408 L626 409 L626 577 Z " />
<glyph glyph-name="onethird" unicode="&#x2153;" horiz-adv-x="721" d="M8 -12 L595 712 L690 712 L103 -12 L8 -12 Z M112 283 L168 600 L121 600 L132 663 Q161 663 178 674 Q195 685 206 705 L267 705 L193 283 L112 283 Z M486 128 Q497 64 550 64 Q582 64 600.5 83.5 Q619 103 619 132 Q619 151 607.5 165.5 Q596 180 570 180 L535 180 L547 251 L575 251 Q608 251 622.5 270.5 Q637 290 637 313 Q637 330 626.5 342.5 Q616 355 595 355 Q572 355 554 341 Q536 327 523 305 L458 331 Q483 375 525 402 Q567 429 615 429 Q666 429 694 401.5 Q722 374 722 332 Q722 294 701 264.5 Q680 235 651 221 Q675 212 689 190.5 Q703 169 703 140 Q703 107 691 79.5 Q679 52 657 32 Q635 12 604 1 Q573 -10 536 -10 Q480 -10 448 20.5 Q416 51 407 103 L486 128 Z " />
<glyph glyph-name="twothirds" unicode="&#x2154;" horiz-adv-x="880" d="M168 -12 L755 712 L850 712 L263 -12 L168 -12 Z M130 599 Q152 649 192 680.5 Q232 712 290 712 Q347 712 378.5 681.5 Q410 651 410 603 Q410 571 401 547.5 Q392 524 374 505 Q356 486 330.5 470 Q305 454 272 436 Q238 417 217 399.5 Q196 382 183 360 L367 360 L353 283 L73 283 Q81 327 97.5 361 Q114 395 137.5 421 Q161 447 190.5 468 Q220 489 254 508 Q285 526 304.5 544.5 Q324 563 324 593 Q324 609 313 622.5 Q302 636 276 636 Q248 636 229.5 621 Q211 606 198 577 L130 599 Z M646 128 Q657 64 710 64 Q742 64 760.5 83.5 Q779 103 779 132 Q779 151 767.5 165.5 Q756 180 730 180 L695 180 L707 251 L735 251 Q768 251 782.5 270.5 Q797 290 797 313 Q797 330 786.5 342.5 Q776 355 755 355 Q732 355 714 341 Q696 327 683 305 L618 331 Q643 375 685 402 Q727 429 775 429 Q826 429 854 401.5 Q882 374 882 332 Q882 294 861 264.5 Q840 235 811 221 Q835 212 849 190.5 Q863 169 863 140 Q863 107 851 79.5 Q839 52 817 32 Q795 12 764 1 Q733 -10 696 -10 Q640 -10 608 20.5 Q576 51 567 103 L646 128 Z " />
<glyph glyph-name="oneeighth" unicode="&#x215b;" horiz-adv-x="720" d="M8 -12 L595 712 L690 712 L103 -12 L8 -12 Z M112 283 L168 600 L121 600 L132 663 Q161 663 178 674 Q195 685 206 705 L267 705 L193 283 L112 283 Z M528 -10 Q471 -10 438.5 20.5 Q406 51 406 99 Q406 150 432.5 183 Q459 216 495 231 Q479 240 469 259 Q459 278 459 301 Q459 328 470 351.5 Q481 375 500.5 392.5 Q520 410 547 419.5 Q574 429 606 429 Q657 429 685 402.5 Q713 376 713 334 Q713 297 692.5 270 Q672 243 647 231 Q668 220 682 196.5 Q696 173 696 142 Q696 109 683.5 81 Q671 53 648.5 33 Q626 13 595 1.5 Q564 -10 528 -10 Z M540 56 Q574 56 597.5 78 Q621 100 621 136 Q621 160 606 177 Q591 194 564 194 Q530 194 506 170 Q482 146 482 112 Q482 86 498 71 Q514 56 540 56 Z M576 263 Q604 263 620.5 279 Q637 295 637 320 Q637 338 625.5 350 Q614 362 594 362 Q569 362 551 345.5 Q533 329 533 303 Q533 286 544.5 274.5 Q556 263 576 263 Z " />
<glyph glyph-name="threeeighths" unicode="&#x215c;" horiz-adv-x="851" d="M138 -12 L725 712 L820 712 L233 -12 L138 -12 Z M133 614 Q158 658 200 685 Q242 712 290 712 Q341 712 369 684.5 Q397 657 397 615 Q397 577 376 547.5 Q355 518 326 504 Q350 495 364 473.5 Q378 452 378 423 Q378 390 366 362.5 Q354 335 332 315 Q310 295 279 284 Q248 273 211 273 Q155 273 123 303.5 Q91 334 82 386 L161 411 Q172 347 225 347 Q257 347 275.5 366.5 Q294 386 294 415 Q294 434 282 448.5 Q270 463 244 463 L209 463 L222 534 L250 534 Q282 534 297 553.5 Q312 573 312 596 Q312 613 301.5 625.5 Q291 638 270 638 Q247 638 229 624 Q211 610 198 588 L133 614 Z M659 -10 Q602 -10 569.5 20.5 Q537 51 537 99 Q537 150 563.5 183 Q590 216 626 231 Q610 240 600 259 Q590 278 590 301 Q590 328 601 351.5 Q612 375 631.5 392.5 Q651 410 678 419.5 Q705 429 737 429 Q788 429 816 402.5 Q844 376 844 334 Q844 297 823.5 270 Q803 243 778 231 Q799 220 813 196.5 Q827 173 827 142 Q827 109 814.5 81 Q802 53 779.5 33 Q757 13 726 1.5 Q695 -10 659 -10 Z M671 56 Q705 56 728.5 78 Q752 100 752 136 Q752 160 737 177 Q722 194 695 194 Q661 194 637 170 Q613 146 613 112 Q613 86 629 71 Q645 56 671 56 Z M707 263 Q735 263 751.5 279 Q768 295 768 320 Q768 338 756.5 350 Q745 362 725 362 Q700 362 682 345.5 Q664 329 664 303 Q664 286 675.5 274.5 Q687 263 707 263 Z " />
</font>
</svg>
