<?xml version="1.0" encoding="UTF-8"?>
<svg xmlns="http://www.w3.org/2000/svg" xmlns:xlink="http://www.w3.org/1999/xlink" version="1.2" >
<font id="Overpass-Light">
<font-face  font-family="Overpass" units-per-em="1000" ascent="750" descent="-250" font-style="normal" font-weight="300" font-stretch="normal" cap-height="700" x-height="511" underline-position="-123" underline-thickness="20" />
<missing-glyph  horiz-adv-x="230" d="" />
<glyph glyph-name="Eth" unicode="&#xd0;" horiz-adv-x="678" d="M105 318 L35 318 L35 380 L105 380 L105 700 L291 700 Q380 700 440.5 669.5 Q501 639 538.5 589.5 Q576 540 592 477.5 Q608 415 608 350 Q608 290 593.5 227.5 Q579 165 542 114.5 Q505 64 443 32 Q381 0 287 0 L105 0 L105 318 Z M292 63 Q362 63 409 88.5 Q456 114 484 155.5 Q512 197 523.5 248 Q535 299 535 350 Q535 404 522 456 Q509 508 481 548 Q453 588 409 612.5 Q365 637 303 637 L175 637 L175 380 L330 380 L330 318 L175 318 L175 63 L292 63 Z " />
<glyph glyph-name="eth" unicode="&#xf0;" horiz-adv-x="548" d="M339 638 Q408 584 450.5 492.5 Q493 401 493 269 Q493 136 436.5 62 Q380 -12 274 -12 Q224 -12 183.5 5.5 Q143 23 114.5 54 Q86 85 70.5 128 Q55 171 55 221 Q55 274 71.5 317.5 Q88 361 117.5 391.5 Q147 422 187 439 Q227 456 274 456 Q305 456 329 448.5 Q353 441 371 428.5 Q389 416 401.5 400.5 Q414 385 422 369 Q414 435 384 494.5 Q354 554 300 596 L234 526 L201 560 L259 623 Q233 637 201.5 646.5 Q170 656 134 659 L134 712 Q177 708 220 696.5 Q263 685 298 665 L355 727 L390 692 L339 638 Z M274 393 Q244 393 217 380 Q190 367 170.5 344.5 Q151 322 139.5 290 Q128 258 128 221 Q128 185 139.5 153.5 Q151 122 171 99.5 Q191 77 217.5 64 Q244 51 274 51 Q304 51 331 64 Q358 77 377.5 99.5 Q397 122 408.5 153 Q420 184 420 220 Q420 256 409 288 Q398 320 378.5 343 Q359 366 332 379.5 Q305 393 274 393 Z " />
<glyph glyph-name="Lslash" unicode="&#x141;" horiz-adv-x="562" d="M105 0 L105 272 L30 217 L30 293 L105 349 L105 700 L175 700 L175 409 L283 491 L283 414 L175 330 L175 67 L522 67 L522 0 L105 0 Z " />
<glyph glyph-name="lslash" unicode="&#x142;" horiz-adv-x="261" d="M96 0 L96 276 L30 224 L30 283 L96 335 L96 688 L166 722 L166 387 L231 437 L231 378 L166 328 L166 0 L96 0 Z " />
<glyph glyph-name="Scaron" unicode="&#x160;" horiz-adv-x="594" d="M420 579 Q407 607 373.5 628 Q340 649 287 649 Q225 649 190.5 622 Q156 595 156 550 Q156 522 169.5 501.5 Q183 481 205.5 464.5 Q228 448 257 435 Q286 422 317 410 Q353 396 389 377 Q425 358 454 331 Q483 304 501 267.5 Q519 231 519 182 Q519 135 502.5 99 Q486 63 457 38.5 Q428 14 387 1 Q346 -12 298 -12 Q254 -12 216 -0.5 Q178 11 148 30.5 Q118 50 96.5 75.5 Q75 101 65 130 L131 154 Q152 108 195.5 79.5 Q239 51 299 51 Q368 51 407.5 84 Q447 117 447 180 Q447 212 434 237.5 Q421 263 399 282.5 Q377 302 348.5 316.5 Q320 331 289 343 Q252 357 215.5 374.5 Q179 392 149.5 416.5 Q120 441 102 473 Q84 505 84 549 Q84 582 98 612 Q112 642 138.5 664 Q165 686 203 699 Q241 712 290 712 Q367 712 419 680.5 Q471 649 485 601 L420 579 Z M331 766 L251 766 L110 922 L175 922 L291 821 L407 922 L472 922 L331 766 Z " />
<glyph glyph-name="scaron" unicode="&#x161;" horiz-adv-x="463" d="M345 406 Q325 426 295 443.5 Q265 461 223 461 Q178 461 152 443 Q126 425 126 394 Q126 374 136 360 Q146 346 162 334.5 Q178 323 199 314 Q220 305 243 296 Q271 285 300.5 271.5 Q330 258 353 239 Q376 220 391 193.5 Q406 167 406 128 Q406 64 360 26 Q314 -12 234 -12 Q182 -12 136 13.5 Q90 39 58 77 L107 120 Q130 92 165 71 Q200 50 240 50 Q282 50 311 69 Q340 88 340 124 Q340 147 329 164.5 Q318 182 300 195 Q282 208 259 218.5 Q236 229 213 238 Q183 250 155 264 Q127 278 106 296 Q85 314 72.5 337.5 Q60 361 60 393 Q60 422 72.5 446 Q85 470 106.5 487 Q128 504 158.5 513.5 Q189 523 225 523 Q277 523 318.5 502.5 Q360 482 391 445 L345 406 Z M267 576 L187 576 L46 732 L111 732 L227 631 L343 732 L408 732 L267 576 Z " />
<glyph glyph-name="Yacute" unicode="&#xdd;" horiz-adv-x="616" d="M274 0 L274 275 L45 700 L122 700 L308 340 L499 700 L571 700 L344 278 L344 0 L274 0 Z M288 766 L217 766 L359 922 L466 922 L288 766 Z " />
<glyph glyph-name="yacute" unicode="&#xfd;" horiz-adv-x="511" d="M217 16 L30 511 L101 511 L247 99 L396 511 L471 511 L210 -194 L141 -194 L217 16 Z M197 576 L126 576 L268 732 L375 732 L197 576 Z " />
<glyph glyph-name="Thorn" unicode="&#xde;" horiz-adv-x="622" d="M105 0 L105 700 L175 700 L175 561 L361 561 Q424 561 466 543.5 Q508 526 534 497 Q560 468 571 431 Q582 394 582 355 Q582 320 570 283.5 Q558 247 532 217.5 Q506 188 464 169 Q422 150 361 150 L175 150 L175 0 L105 0 Z M367 213 Q408 213 436.5 226 Q465 239 482.5 259 Q500 279 507.5 304.5 Q515 330 515 355 Q515 377 508.5 402 Q502 427 485 448.5 Q468 470 439.5 484 Q411 498 367 498 L175 498 L175 213 L367 213 Z " />
<glyph glyph-name="thorn" unicode="&#xfe;" horiz-adv-x="566" d="M300 -12 Q246 -12 214 7 Q182 26 160 52 L160 -168 L90 -203 L90 678 L160 712 L160 465 Q186 488 217 505.5 Q248 523 300 523 Q349 523 388 504 Q427 485 454.5 450 Q482 415 496.5 365.5 Q511 316 511 256 Q511 192 495.5 142.5 Q480 93 452 58.5 Q424 24 385 6 Q346 -12 300 -12 Z M292 51 Q363 51 400.5 104.5 Q438 158 438 256 Q438 350 399 405 Q360 460 292 460 Q250 460 215.5 439.5 Q181 419 160 381 L160 130 Q186 96 218 73.5 Q250 51 292 51 Z " />
<glyph glyph-name="Zcaron" unicode="&#x17d;" horiz-adv-x="637" d="M70 0 L70 49 L478 634 L93 634 L93 700 L567 700 L567 649 L164 66 L567 66 L567 0 L70 0 Z M394 766 L314 766 L173 922 L238 922 L354 821 L470 922 L535 922 L394 766 Z " />
<glyph glyph-name="zcaron" unicode="&#x17e;" horiz-adv-x="499" d="M70 0 L70 43 L331 448 L90 448 L90 511 L424 511 L424 469 L161 63 L423 63 L423 0 L70 0 Z M285 576 L205 576 L64 732 L129 732 L245 631 L361 732 L426 732 L285 576 Z " />
<glyph glyph-name="onehalf" unicode="&#xbd;" horiz-adv-x="723" d="M14 -12 L492 712 L561 712 L83 -12 L14 -12 Z M82 283 L82 607 L35 607 L35 650 Q63 650 78 665 Q93 680 101 705 L143 705 L143 283 L82 283 Z M394 329 Q405 372 440.5 400.5 Q476 429 537 429 Q594 429 632 396 Q670 363 670 305 Q670 251 641 216.5 Q612 182 553 146 Q514 122 491.5 102 Q469 82 458 55 L669 55 L669 0 L393 0 Q393 40 403.5 68.5 Q414 97 433.5 120 Q453 143 480 162.5 Q507 182 540 204 Q572 225 590 248 Q608 271 608 310 Q608 320 604 332.5 Q600 345 590.5 355 Q581 365 566 372 Q551 379 529 379 Q460 379 445 308 L394 329 Z " />
<glyph glyph-name="onequarter" unicode="&#xbc;" horiz-adv-x="674" d="M14 -12 L492 712 L561 712 L83 -12 L14 -12 Z M82 283 L82 607 L35 607 L35 650 Q63 650 78 665 Q93 680 101 705 L143 705 L143 283 L82 283 Z M522 0 L522 108 L312 108 L312 138 L536 423 L583 423 L583 163 L635 163 L635 108 L583 108 L583 0 L522 0 Z M522 163 L522 335 L393 163 L522 163 Z " />
<glyph glyph-name="onesuperior" unicode="&#xb9;" horiz-adv-x="200" d="M72 444 L72 768 L25 768 L25 811 Q53 811 68 826 Q83 841 91 866 L132 866 L132 444 L72 444 Z " />
<glyph glyph-name="threequarters" unicode="&#xbe;" horiz-adv-x="818" d="M157 -12 L635 712 L704 712 L226 -12 L157 -12 Z M89 397 Q104 361 128 341 Q152 321 186 321 Q224 321 244.5 342 Q265 363 265 395 Q265 409 260 423 Q255 437 246 448 Q237 459 224 466 Q211 473 195 473 L161 473 L161 523 L183 523 Q218 523 233 544.5 Q248 566 248 593 Q248 619 231.5 640.5 Q215 662 180 662 Q151 662 129 643.5 Q107 625 95 598 L42 616 Q59 657 96.5 684.5 Q134 712 184 712 Q240 712 276 682.5 Q312 653 312 599 Q312 572 297 545.5 Q282 519 255 507 Q287 496 308 469.5 Q329 443 329 403 Q329 340 289 305.5 Q249 271 186 271 Q129 271 91 299.5 Q53 328 34 374 L89 397 Z M665 0 L665 108 L455 108 L455 138 L679 423 L726 423 L726 163 L778 163 L778 108 L726 108 L726 0 L665 0 Z M665 163 L665 335 L536 163 L665 163 Z " />
<glyph glyph-name="threesuperior" unicode="&#xb3;" horiz-adv-x="367" d="M89 560 Q104 524 128 504 Q152 484 186 484 Q224 484 244.5 504.5 Q265 525 265 557 Q265 586 246.5 610 Q228 634 195 634 L161 634 L161 684 L183 684 Q218 684 233 705.5 Q248 727 248 754 Q248 780 231.5 801.5 Q215 823 180 823 Q151 823 129 804.5 Q107 786 95 759 L42 777 Q59 818 96.5 845.5 Q134 873 184 873 Q240 873 276 843.5 Q312 814 312 760 Q312 733 297 706.5 Q282 680 255 668 Q287 657 308 631 Q329 605 329 565 Q329 502 289 468 Q249 434 186 434 Q129 434 91 462.5 Q53 491 34 537 L89 560 Z " />
<glyph glyph-name="twosuperior" unicode="&#xb2;" horiz-adv-x="370" d="M41 773 Q52 816 87.5 844.5 Q123 873 184 873 Q241 873 279 840 Q317 807 317 749 Q317 695 288 660.5 Q259 626 200 590 Q161 566 138.5 545 Q116 524 105 497 L316 497 L316 444 L40 444 Q40 484 50.5 512.5 Q61 541 80.5 564 Q100 587 127 606.5 Q154 626 187 648 Q219 669 237 692 Q255 715 255 754 Q255 764 251 776 Q247 788 237.5 798.5 Q228 809 213 815.5 Q198 822 176 822 Q107 822 92 752 L41 773 Z " />
<glyph glyph-name="brokenbar" unicode="&#xa6;" horiz-adv-x="270" d="M100 393 L100 720 L170 720 L170 393 L100 393 Z M100 -120 L100 205 L170 205 L170 -120 L100 -120 Z " />
<glyph glyph-name="minus" unicode="&#x2212;" horiz-adv-x="660" d="M95 308 L95 376 L565 376 L565 308 L95 308 Z " />
<glyph glyph-name="multiply" unicode="&#xd7;" horiz-adv-x="660" d="M331 293 L160 121 L108 171 L282 344 L109 514 L158 562 L329 391 L500 563 L550 512 L378 342 L549 169 L502 122 L331 293 Z " />
<glyph glyph-name="space" unicode="&#x20;" horiz-adv-x="230" d="" />
<glyph glyph-name="exclam" unicode="&#x21;" horiz-adv-x="270" d="M131 193 L101 495 L101 712 L173 712 L173 495 L142 193 L131 193 Z M135 -14 Q108 -14 90 5.5 Q72 25 72 49 Q72 73 90 92.5 Q108 112 135 112 Q162 112 180 92.5 Q198 73 198 49 Q198 25 180 5.5 Q162 -14 135 -14 Z " />
<glyph glyph-name="quotedbl" unicode="&#x22;" horiz-adv-x="385" d="M60 700 L147 700 L129 433 L76 433 L60 700 Z M237 700 L325 700 L307 433 L254 433 L237 700 Z " />
<glyph glyph-name="numbersign" unicode="&#x23;" horiz-adv-x="685" d="M149 0 L180 204 L57 204 L69 267 L189 267 L216 445 L101 445 L111 506 L225 506 L255 700 L323 700 L294 506 L436 506 L466 700 L534 700 L504 506 L628 506 L618 445 L495 445 L467 267 L584 267 L574 204 L458 204 L427 0 L359 0 L390 204 L248 204 L217 0 L149 0 Z M257 267 L399 267 L427 445 L285 445 L257 267 Z " />
<glyph glyph-name="dollar" unicode="&#x24;" horiz-adv-x="592" d="M420 579 Q407 607 373.5 627 Q340 647 287 647 Q225 647 191 621 Q157 595 157 550 Q157 523 170.5 502 Q184 481 206 464.5 Q228 448 257 435 Q286 422 317 410 Q353 396 389 377.5 Q425 359 454 332 Q483 305 501 268.5 Q519 232 519 182 Q519 139 505 105 Q491 71 466.5 47 Q442 23 407 8.5 Q372 -6 330 -10 L330 -98 L259 -98 L259 -9 Q185 0 134.5 39.5 Q84 79 65 130 L131 154 Q152 108 195.5 80.5 Q239 53 299 53 Q368 53 407 85 Q446 117 446 180 Q446 211 433 236.5 Q420 262 398 281.5 Q376 301 348 316 Q320 331 289 343 Q252 357 215.5 374.5 Q179 392 149.5 416 Q120 440 102 472.5 Q84 505 84 549 Q84 579 95.5 606.5 Q107 634 129.5 655.5 Q152 677 184.5 691.5 Q217 706 259 710 L259 789 L330 789 L330 709 Q391 701 431.5 672 Q472 643 485 601 L420 579 Z " />
<glyph glyph-name="percent" unicode="&#x25;" horiz-adv-x="889" d="M216 356 Q173 356 143 372 Q113 388 94.5 413.5 Q76 439 67.5 470.5 Q59 502 59 534 Q59 562 67 593.5 Q75 625 94 651 Q113 677 142.5 694.5 Q172 712 216 712 Q259 712 289 696 Q319 680 337.5 654.5 Q356 629 364.5 597.5 Q373 566 373 534 Q373 505 365 473.5 Q357 442 338.5 416 Q320 390 290 373 Q260 356 216 356 Z M216 414 Q239 414 256.5 423.5 Q274 433 285.5 449.5 Q297 466 302.5 488 Q308 510 308 534 Q308 588 285 621 Q262 654 216 654 Q192 654 174.5 644.5 Q157 635 146 618.5 Q135 602 129.5 580 Q124 558 124 534 Q124 482 146 448 Q168 414 216 414 Z M241 -12 L169 -12 L647 712 L719 712 L241 -12 Z M672 -12 Q629 -12 599 4 Q569 20 550.5 45.5 Q532 71 523.5 102.5 Q515 134 515 166 Q515 194 523 225.5 Q531 257 550 283 Q569 309 598.5 326.5 Q628 344 672 344 Q715 344 745 328 Q775 312 793.5 286.5 Q812 261 820.5 229.5 Q829 198 829 166 Q829 137 821 105.5 Q813 74 794.5 48 Q776 22 746 5 Q716 -12 672 -12 Z M672 46 Q695 46 712.5 55.5 Q730 65 741.5 81.5 Q753 98 758.5 120 Q764 142 764 166 Q764 220 741 253 Q718 286 672 286 Q648 286 630.5 276.5 Q613 267 602 250.5 Q591 234 585.5 212 Q580 190 580 166 Q580 114 602 80 Q624 46 672 46 Z " />
<glyph glyph-name="ampersand" unicode="&#x26;" horiz-adv-x="653" d="M546 0 L469 91 Q422 40 362 14 Q302 -12 242 -12 Q198 -12 162 1.5 Q126 15 100.5 39.5 Q75 64 61 98.5 Q47 133 47 176 Q47 214 59 244.5 Q71 275 93.5 301.5 Q116 328 146.5 350.5 Q177 373 215 394 Q192 422 175.5 445 Q159 468 148 488 Q137 508 132 526.5 Q127 545 127 565 Q127 599 140 626.5 Q153 654 175 673 Q197 692 227 702 Q257 712 292 712 Q326 712 355 701 Q384 690 405 670 Q426 650 438 623 Q450 596 450 563 Q450 507 413 464.5 Q376 422 312 383 L464 201 Q481 236 489.5 268 Q498 300 500 319 L566 319 Q563 284 551.5 240.5 Q540 197 510 147 L633 0 L546 0 Z M256 51 Q299 51 344 75 Q389 99 425 143 L253 348 Q184 306 148.5 268 Q113 230 113 182 Q113 122 153 86.5 Q193 51 256 51 Z M193 564 Q193 537 214.5 505.5 Q236 474 275 427 Q384 491 384 556 Q384 600 356 625 Q328 650 288 650 Q245 650 219 626.5 Q193 603 193 564 Z " />
<glyph glyph-name="quotesingle" unicode="&#x27;" horiz-adv-x="207" d="M60 700 L147 700 L129 433 L76 433 L60 700 Z " />
<glyph glyph-name="parenleft" unicode="&#x28;" horiz-adv-x="340" d="M207 -130 Q184 -100 162 -61.5 Q140 -23 123 27.5 Q106 78 95.5 141 Q85 204 85 284 Q85 363 96.5 429 Q108 495 126.5 547.5 Q145 600 169 641 Q193 682 218 712 L285 712 Q272 696 250 658.5 Q228 621 206.5 566 Q185 511 169.5 439.5 Q154 368 154 284 Q154 198 168.5 129 Q183 60 203 7.5 Q223 -45 243 -79.5 Q263 -114 274 -130 L207 -130 Z " />
<glyph glyph-name="parenright" unicode="&#x29;" horiz-adv-x="340" d="M66 -130 Q77 -114 97 -79.5 Q117 -45 137 7.5 Q157 60 171.5 129 Q186 198 186 284 Q186 368 170.5 439.5 Q155 511 133.5 566 Q112 621 90 658.5 Q68 696 55 712 L122 712 Q147 682 171 641 Q195 600 213.5 547.5 Q232 495 243.5 429 Q255 363 255 284 Q255 204 244.5 141 Q234 78 217 27.5 Q200 -23 178 -61.5 Q156 -100 133 -130 L66 -130 Z " />
<glyph glyph-name="asterisk" unicode="&#x2a;" horiz-adv-x="535" d="M298 393 L266 473 L235 393 L169 301 L113 344 L177 432 L235 488 L160 493 L58 527 L81 593 L178 561 L249 512 L233 595 L233 707 L302 707 L302 595 L284 512 L355 561 L454 593 L477 527 L373 493 L296 488 L358 432 L421 344 L366 301 L298 393 Z " />
<glyph glyph-name="plus" unicode="&#x2b;" horiz-adv-x="660" d="M365 308 L365 108 L293 108 L293 308 L95 308 L95 376 L293 376 L293 578 L365 578 L365 376 L565 376 L565 308 L365 308 Z " />
<glyph glyph-name="comma" unicode="&#x2c;" horiz-adv-x="226" d="M73 -136 Q80 -130 88.5 -119.5 Q97 -109 104.5 -94 Q112 -79 117.5 -60 Q123 -41 123 -19 Q91 -19 70.5 -1.5 Q50 16 50 43 Q50 74 68 91.5 Q86 109 111 109 Q124 109 137 104 Q150 99 160 89 Q170 79 176.5 63 Q183 47 183 25 Q183 -32 157 -74.5 Q131 -117 92 -141 L73 -136 Z " />
<glyph glyph-name="hyphen" unicode="&#x2d;" horiz-adv-x="403" d="M90 264 L90 332 L313 332 L313 264 L90 264 Z " />
<glyph glyph-name="period" unicode="&#x2e;" horiz-adv-x="226" d="M113 -14 Q86 -14 68 5.5 Q50 25 50 49 Q50 73 68 92.5 Q86 112 113 112 Q140 112 158 92.5 Q176 73 176 49 Q176 25 158 5.5 Q140 -14 113 -14 Z " />
<glyph glyph-name="slash" unicode="&#x2f;" horiz-adv-x="486" d="M0 -130 L393 712 L461 712 L68 -130 L0 -130 Z " />
<glyph glyph-name="zero" unicode="0" horiz-adv-x="620" d="M310 -12 Q241 -12 195 20 Q149 52 121.5 103.5 Q94 155 82 219.5 Q70 284 70 350 Q70 386 74 427.5 Q78 469 88.5 509 Q99 549 116.5 586 Q134 623 161 651 Q188 679 224.5 695.5 Q261 712 310 712 Q379 712 425 679.5 Q471 647 498.5 595 Q526 543 538 478.5 Q550 414 550 350 Q550 313 545.5 272 Q541 231 530.5 190.5 Q520 150 502.5 113.5 Q485 77 458 49 Q431 21 394.5 4.5 Q358 -12 310 -12 Z M310 51 Q362 51 394.5 79.5 Q427 108 445 152 Q463 196 469 249 Q475 302 475 350 Q475 404 468 457.5 Q461 511 442 553.5 Q423 596 391 622.5 Q359 649 310 649 Q257 649 224.5 620 Q192 591 174 547 Q156 503 149.5 450.5 Q143 398 143 350 Q143 295 150 241.5 Q157 188 176 145.5 Q195 103 227.5 77 Q260 51 310 51 Z " />
<glyph glyph-name="one" unicode="1" horiz-adv-x="334" d="M159 0 L159 573 L40 573 L40 613 Q93 613 130 631.5 Q167 650 184 700 L229 700 L229 0 L159 0 Z " />
<glyph glyph-name="two" unicode="2" horiz-adv-x="600" d="M71 0 Q71 66 90 113.5 Q109 161 139 197 Q169 233 207 260 Q245 287 283 313 Q316 335 346 356.5 Q376 378 399.5 402 Q423 426 437 453.5 Q451 481 451 515 Q451 572 411.5 610.5 Q372 649 299 649 Q228 649 192 617.5 Q156 586 143 536 L81 564 Q89 595 108 622 Q127 649 156 669 Q185 689 222.5 700.5 Q260 712 305 712 Q409 712 466.5 658.5 Q524 605 524 515 Q524 467 505.5 430 Q487 393 457.5 362.5 Q428 332 391 306.5 Q354 281 316 257 Q286 237 258 217.5 Q230 198 206.5 175.5 Q183 153 167 126.5 Q151 100 145 67 L530 67 L530 0 L71 0 Z " />
<glyph glyph-name="three" unicode="3" horiz-adv-x="590" d="M282 -12 Q231 -12 193 0.5 Q155 13 127.5 35.5 Q100 58 81.5 87.5 Q63 117 50 152 L115 179 Q141 114 180.5 83.5 Q220 53 282 53 Q315 53 345 61.5 Q375 70 397.5 87 Q420 104 433 129.5 Q446 155 446 190 Q446 255 406 293.5 Q366 332 290 332 L243 332 L243 396 L280 396 Q343 396 380.5 430.5 Q418 465 418 523 Q418 552 407.5 575 Q397 598 379 614 Q361 630 337.5 638.5 Q314 647 289 647 Q256 647 230.5 637 Q205 627 186 611 Q167 595 154.5 576 Q142 557 134 539 L69 564 Q80 592 98.5 618.5 Q117 645 144 666 Q171 687 206.5 699.5 Q242 712 286 712 Q329 712 366.5 699 Q404 686 432 663 Q460 640 475.5 606.5 Q491 573 491 533 Q491 486 467.5 444.5 Q444 403 402 380 Q457 358 488.5 309.5 Q520 261 520 192 Q520 148 501 110.5 Q482 73 449 46 Q416 19 373 3.5 Q330 -12 282 -12 Z " />
<glyph glyph-name="four" unicode="4" horiz-adv-x="587" d="M370 0 L370 189 L30 189 L30 226 L398 700 L440 700 L440 249 L546 249 L546 189 L440 189 L440 0 L370 0 Z M370 249 L370 579 L121 249 L370 249 Z " />
<glyph glyph-name="five" unicode="5" horiz-adv-x="628" d="M111 128 Q128 111 147 96.5 Q166 82 188.5 71 Q211 60 238.5 54 Q266 48 301 48 Q340 48 373.5 62 Q407 76 431.5 99 Q456 122 470 153 Q484 184 484 218 Q484 252 472.5 283 Q461 314 440.5 336.5 Q420 359 391 372.5 Q362 386 327 386 Q295 386 268.5 379.5 Q242 373 220.5 363.5 Q199 354 183 342 Q167 330 157 319 L98 337 L155 700 L511 700 L511 637 L211 637 L171 393 Q203 422 245.5 437 Q288 452 332 452 Q378 452 419.5 435.5 Q461 419 491.5 389.5 Q522 360 540 318.5 Q558 277 558 227 Q558 183 541 140 Q524 97 491.5 63.5 Q459 30 411.5 9 Q364 -12 304 -12 Q262 -12 225 -4 Q188 4 158 16.5 Q128 29 105.5 45 Q83 61 70 77 L111 128 Z " />
<glyph glyph-name="six" unicode="6" horiz-adv-x="586" d="M292 -12 Q235 -12 191.5 9 Q148 30 118.5 66.5 Q89 103 74.5 152.5 Q60 202 60 259 Q60 334 87.5 406.5 Q115 479 163 540.5 Q211 602 276.5 647.5 Q342 693 418 712 L418 657 Q368 642 322.5 612 Q277 582 240.5 543 Q204 504 179 459.5 Q154 415 146 370 Q172 401 213.5 417.5 Q255 434 309 434 Q352 434 390 415.5 Q428 397 456 367 Q484 337 500 298.5 Q516 260 516 220 Q516 171 498 128.5 Q480 86 449.5 55 Q419 24 378.5 6 Q338 -12 292 -12 Z M289 372 Q254 372 224.5 360 Q195 348 174 326.5 Q153 305 141 275 Q129 245 129 210 Q129 176 141.5 147 Q154 118 175.5 96.5 Q197 75 226 63 Q255 51 289 51 Q325 51 354.5 63 Q384 75 405 96.5 Q426 118 437.5 147 Q449 176 449 210 Q449 245 438 275 Q427 305 406 326.5 Q385 348 355.5 360 Q326 372 289 372 Z " />
<glyph glyph-name="seven" unicode="7" horiz-adv-x="499" d="M164 0 Q165 82 174.5 162 Q184 242 208.5 321 Q233 400 274 479.5 Q315 559 379 640 L40 640 L40 700 L459 700 L459 654 Q386 570 342 481.5 Q298 393 274 307.5 Q250 222 242 143 Q234 64 234 0 L164 0 Z " />
<glyph glyph-name="eight" unicode="8" horiz-adv-x="598" d="M299 51 Q332 51 360.5 61.5 Q389 72 410 92 Q431 112 443 141 Q455 170 455 207 Q455 238 444 266 Q433 294 412.5 315.5 Q392 337 363 349.5 Q334 362 299 362 Q264 362 235 349.5 Q206 337 185.5 315.5 Q165 294 154 266 Q143 238 143 207 Q143 170 155 141 Q167 112 188 92 Q209 72 237.5 61.5 Q266 51 299 51 Z M299 712 Q341 712 377.5 697.5 Q414 683 440 658 Q466 633 481 600 Q496 567 496 531 Q496 486 473.5 446.5 Q451 407 403 387 Q459 366 493.5 314.5 Q528 263 528 197 Q528 153 511 114.5 Q494 76 463 48 Q432 20 390 4 Q348 -12 299 -12 Q249 -12 207.5 4 Q166 20 135 48 Q104 76 87 114.5 Q70 153 70 197 Q70 230 79 260 Q88 290 104.5 314.5 Q121 339 144 358 Q167 377 194 387 Q149 407 125.5 446.5 Q102 486 102 531 Q102 567 117 600 Q132 633 158 658 Q184 683 220.5 697.5 Q257 712 299 712 Z M299 408 Q357 408 391 440 Q425 472 425 522 Q425 581 389 615 Q353 649 299 649 Q245 649 209 615 Q173 581 173 522 Q173 472 207 440 Q241 408 299 408 Z " />
<glyph glyph-name="nine" unicode="9" horiz-adv-x="586" d="M292 712 Q349 712 391 691 Q433 670 460.5 633.5 Q488 597 502 547.5 Q516 498 516 441 Q516 366 490.5 293 Q465 220 419.5 158.5 Q374 97 311 52 Q248 7 172 -12 L172 43 Q223 58 267 88.5 Q311 119 345.5 159 Q380 199 402.5 245 Q425 291 431 336 Q405 303 362.5 285.5 Q320 268 265 268 Q222 268 184.5 285 Q147 302 119.5 331.5 Q92 361 76 399.5 Q60 438 60 480 Q60 529 78 571.5 Q96 614 127.5 645 Q159 676 201 694 Q243 712 292 712 Z M287 324 Q322 324 351.5 336.5 Q381 349 402 371 Q423 393 435 423 Q447 453 447 488 Q447 522 434.5 551 Q422 580 400.5 602 Q379 624 350 636.5 Q321 649 287 649 Q251 649 221.5 636.5 Q192 624 171 602 Q150 580 138.5 551 Q127 522 127 488 Q127 453 138 423 Q149 393 170 371 Q191 349 220.5 336.5 Q250 324 287 324 Z " />
<glyph glyph-name="colon" unicode="&#x3a;" horiz-adv-x="226" d="M113 -14 Q86 -14 68 5.5 Q50 25 50 49 Q50 73 68 92.5 Q86 112 113 112 Q140 112 158 92.5 Q176 73 176 49 Q176 25 158 5.5 Q140 -14 113 -14 Z M113 357 Q86 357 68 376.5 Q50 396 50 420 Q50 444 68 463.5 Q86 483 113 483 Q140 483 158 463.5 Q176 444 176 420 Q176 396 158 376.5 Q140 357 113 357 Z " />
<glyph glyph-name="semicolon" unicode="&#x3b;" horiz-adv-x="226" d="M113 357 Q86 357 68 376.5 Q50 396 50 420 Q50 444 68 463.5 Q86 483 113 483 Q140 483 158 463.5 Q176 444 176 420 Q176 396 158 376.5 Q140 357 113 357 Z M73 -136 Q87 -124 102.5 -93.5 Q118 -63 118 -18 Q90 -18 70 -1 Q50 16 50 43 Q50 74 68 91.5 Q86 109 111 109 Q124 109 137 104 Q150 99 160 89 Q170 79 176.5 63 Q183 47 183 25 Q183 -32 157 -74.5 Q131 -117 92 -141 L73 -136 Z " />
<glyph glyph-name="less" unicode="&#x3c;" horiz-adv-x="660" d="M565 120 L95 309 L95 375 L565 565 L565 498 L172 343 L565 188 L565 120 Z " />
<glyph glyph-name="equal" unicode="&#x3d;" horiz-adv-x="660" d="M95 229 L95 296 L565 296 L565 229 L95 229 Z M95 388 L95 455 L565 455 L565 388 L95 388 Z " />
<glyph glyph-name="greater" unicode="&#x3e;" horiz-adv-x="660" d="M565 309 L95 120 L95 186 L488 343 L95 498 L95 565 L565 375 L565 309 Z " />
<glyph glyph-name="question" unicode="&#x3f;" horiz-adv-x="526" d="M216 190 Q216 239 230 273.5 Q244 308 265 333.5 Q286 359 310 379.5 Q334 400 355 421.5 Q376 443 390 468.5 Q404 494 404 530 Q404 578 368.5 612.5 Q333 647 265 647 Q202 647 162 617.5 Q122 588 110 533 L46 562 Q68 631 126 671.5 Q184 712 265 712 Q316 712 355.5 697.5 Q395 683 421.5 658 Q448 633 462 599.5 Q476 566 476 528 Q476 483 462 452.5 Q448 422 427 399 Q406 376 382 356 Q358 336 337 313.5 Q316 291 302 261.5 Q288 232 288 190 L216 190 Z M250 -14 Q223 -14 205 5.5 Q187 25 187 49 Q187 73 205 92.5 Q223 112 250 112 Q277 112 295 92.5 Q313 73 313 49 Q313 25 295 5.5 Q277 -14 250 -14 Z " />
<glyph glyph-name="at" unicode="&#x40;" horiz-adv-x="799" d="M399 -12 Q327 -12 263 11 Q199 34 152 78.5 Q105 123 77.5 187.5 Q50 252 50 335 Q50 418 80 487.5 Q110 557 160.5 607 Q211 657 277.5 684.5 Q344 712 418 712 Q491 712 552 690.5 Q613 669 656.5 629.5 Q700 590 724.5 535 Q749 480 749 413 Q749 358 736 311.5 Q723 265 701 231.5 Q679 198 649 179 Q619 160 585 160 Q543 160 519.5 180.5 Q496 201 489 236 Q468 197 436 174 Q404 151 362 151 Q331 151 304 164 Q277 177 257.5 199.5 Q238 222 227 253.5 Q216 285 216 322 Q216 358 229 395 Q242 432 266.5 462 Q291 492 325.5 510.5 Q360 529 403 529 Q447 529 476.5 504.5 Q506 480 514 433 L528 516 L591 516 L551 284 Q550 279 550 274.5 Q550 270 550 266 Q550 242 562 228.5 Q574 215 595 215 Q616 215 633 230 Q650 245 662.5 272 Q675 299 682 336 Q689 373 689 417 Q689 475 668 518.5 Q647 562 610.5 591 Q574 620 525 635 Q476 650 421 650 Q349 650 292.5 626 Q236 602 197 560 Q158 518 137 460 Q116 402 116 334 Q116 275 135.5 223.5 Q155 172 191.5 133.5 Q228 95 281.5 72.5 Q335 50 403 50 Q439 50 479 55 Q519 60 546 69 L531 3 Q504 -5 469.5 -8.5 Q435 -12 399 -12 Z M408 468 Q379 468 357 456 Q335 444 319.5 424 Q304 404 296 377.5 Q288 351 288 321 Q288 270 313 241 Q338 212 381 212 Q407 212 428.5 223.5 Q450 235 465.5 255.5 Q481 276 489.5 302.5 Q498 329 498 359 Q498 409 471 438.5 Q444 468 408 468 Z " />
<glyph glyph-name="A" unicode="A" horiz-adv-x="662" d="M531 0 L467 181 L194 181 L133 0 L60 0 L303 700 L357 700 L602 0 L531 0 Z M446 243 L350 523 Q345 536 338.5 556 Q332 576 330 586 Q327 576 321.5 556 Q316 536 311 523 L215 243 L446 243 Z " />
<glyph glyph-name="B" unicode="B" horiz-adv-x="646" d="M105 700 L337 700 Q398 700 439.5 684 Q481 668 505.5 642.5 Q530 617 540.5 584 Q551 551 551 517 Q551 463 521 425.5 Q491 388 441 369 Q498 355 537 311.5 Q576 268 576 196 Q576 160 565.5 125 Q555 90 529 62.5 Q503 35 460 17.5 Q417 0 353 0 L105 0 L105 700 Z M365 63 Q408 63 436.5 74 Q465 85 481.5 102.5 Q498 120 504.5 143 Q511 166 511 190 Q511 218 503 243.5 Q495 269 475 289 Q455 309 420.5 321 Q386 333 332 333 L175 333 L175 63 L365 63 Z M320 394 Q403 394 444.5 428 Q486 462 486 519 Q486 540 480 561.5 Q474 583 458.5 599.5 Q443 616 415 626.5 Q387 637 343 637 L175 637 L175 394 L320 394 Z " />
<glyph glyph-name="C" unicode="C" horiz-adv-x="644" d="M360 -12 Q282 -12 227 19 Q172 50 137 100.5 Q102 151 86 216 Q70 281 70 350 Q70 422 87 487.5 Q104 553 139.5 603 Q175 653 229.5 682.5 Q284 712 360 712 Q407 712 441.5 702.5 Q476 693 501 677 Q526 661 543.5 640.5 Q561 620 574 599 L512 563 Q500 580 486.5 595.5 Q473 611 455 623 Q437 635 413.5 642 Q390 649 360 649 Q300 649 258.5 622 Q217 595 191.5 552 Q166 509 154.5 455.5 Q143 402 143 350 Q143 292 155.5 238 Q168 184 194 142.5 Q220 101 261.5 76 Q303 51 360 51 Q423 51 460.5 75.5 Q498 100 522 140 L584 116 Q572 92 552.5 69 Q533 46 505.5 28 Q478 10 441.5 -1 Q405 -12 360 -12 Z " />
<glyph glyph-name="D" unicode="D" horiz-adv-x="678" d="M105 700 L291 700 Q380 700 440.5 669.5 Q501 639 538.5 589.5 Q576 540 592 477.5 Q608 415 608 350 Q608 290 593.5 227.5 Q579 165 542 114.5 Q505 64 443 32 Q381 0 287 0 L105 0 L105 700 Z M292 63 Q362 63 409 88.5 Q456 114 484 155.5 Q512 197 523.5 248 Q535 299 535 350 Q535 404 522 456 Q509 508 481 548 Q453 588 409 612.5 Q365 637 303 637 L175 637 L175 63 L292 63 Z " />
<glyph glyph-name="E" unicode="E" horiz-adv-x="596" d="M105 0 L105 700 L504 700 L504 633 L175 633 L175 395 L397 395 L397 329 L175 329 L175 67 L526 67 L526 0 L105 0 Z " />
<glyph glyph-name="F" unicode="F" horiz-adv-x="564" d="M105 0 L105 700 L514 700 L514 633 L175 633 L175 395 L404 395 L404 329 L175 329 L175 0 L105 0 Z " />
<glyph glyph-name="G" unicode="G" horiz-adv-x="685" d="M360 -12 Q282 -12 227 19 Q172 50 137 100.5 Q102 151 86 216 Q70 281 70 350 Q70 422 87 487.5 Q104 553 139.5 603 Q175 653 229.5 682.5 Q284 712 360 712 Q407 712 441.5 702.5 Q476 693 501 677 Q526 661 543.5 640.5 Q561 620 574 599 L512 563 Q500 580 486.5 595.5 Q473 611 455 623 Q437 635 413.5 642 Q390 649 360 649 Q300 649 258.5 622 Q217 595 191.5 552 Q166 509 154.5 455.5 Q143 402 143 350 Q143 292 155.5 238 Q168 184 194 142.5 Q220 101 261.5 76 Q303 51 360 51 Q437 51 481.5 98 Q526 145 526 225 L526 267 L397 267 L397 329 L600 329 L600 252 Q600 187 581.5 138 Q563 89 530.5 55.5 Q498 22 454.5 5 Q411 -12 360 -12 Z " />
<glyph glyph-name="H" unicode="H" horiz-adv-x="692" d="M517 0 L517 331 L175 331 L175 0 L105 0 L105 700 L175 700 L175 397 L517 397 L517 700 L587 700 L587 0 L517 0 Z " />
<glyph glyph-name="I" unicode="I" horiz-adv-x="280" d="M105 0 L105 700 L175 700 L175 0 L105 0 Z " />
<glyph glyph-name="J" unicode="J" horiz-adv-x="526" d="M212 -12 Q136 -12 94.5 19.5 Q53 51 30 107 L85 137 Q96 116 106 100 Q116 84 129.5 73 Q143 62 163 56.5 Q183 51 215 51 Q239 51 263.5 57.5 Q288 64 307.5 81.5 Q327 99 339 128.5 Q351 158 351 204 L351 700 L421 700 L421 225 Q421 153 401 107 Q381 61 350.5 34.5 Q320 8 283 -2 Q246 -12 212 -12 Z " />
<glyph glyph-name="K" unicode="K" horiz-adv-x="643" d="M509 0 L289 403 L175 261 L175 0 L105 0 L105 700 L175 700 L175 352 L452 700 L528 700 L337 462 L588 0 L509 0 Z " />
<glyph glyph-name="L" unicode="L" horiz-adv-x="562" d="M105 0 L105 700 L175 700 L175 67 L522 67 L522 0 L105 0 Z " />
<glyph glyph-name="M" unicode="M" horiz-adv-x="802" d="M627 0 L627 518 L393 -12 L175 515 L175 0 L105 0 L105 700 L165 700 L399 155 L636 700 L697 700 L697 0 L627 0 Z " />
<glyph glyph-name="N" unicode="N" horiz-adv-x="705" d="M529 0 L175 569 L175 0 L105 0 L105 700 L176 700 L530 123 L530 700 L600 700 L600 0 L529 0 Z " />
<glyph glyph-name="O" unicode="O" horiz-adv-x="720" d="M360 51 Q420 51 461.5 78 Q503 105 528.5 148 Q554 191 565.5 244.5 Q577 298 577 350 Q577 407 565.5 461 Q554 515 528.5 556.5 Q503 598 461.5 623.5 Q420 649 360 649 Q300 649 258.5 622 Q217 595 191.5 552 Q166 509 154.5 455.5 Q143 402 143 350 Q143 293 154.5 239 Q166 185 191.5 143.5 Q217 102 258.5 76.5 Q300 51 360 51 Z M360 -12 Q279 -12 223.5 20 Q168 52 134 104 Q100 156 85 220.5 Q70 285 70 350 Q70 415 85 479.5 Q100 544 134 596 Q168 648 223.5 680 Q279 712 360 712 Q441 712 496.5 680 Q552 648 586 596 Q620 544 635 479.5 Q650 415 650 350 Q650 285 635 220.5 Q620 156 586 104 Q552 52 496.5 20 Q441 -12 360 -12 Z " />
<glyph glyph-name="P" unicode="P" horiz-adv-x="622" d="M105 0 L105 700 L361 700 Q424 700 466 682 Q508 664 534 635 Q560 606 571 569 Q582 532 582 494 Q582 459 570 422.5 Q558 386 532 356.5 Q506 327 463.5 308 Q421 289 361 289 L175 289 L175 0 L105 0 Z M367 352 Q408 352 436.5 365 Q465 378 482.5 398 Q500 418 507.5 443.5 Q515 469 515 494 Q515 517 508.5 542 Q502 567 485 588 Q468 609 439.5 623 Q411 637 367 637 L175 637 L175 352 L367 352 Z " />
<glyph glyph-name="Q" unicode="Q" horiz-adv-x="720" d="M360 -12 Q279 -12 223.5 20 Q168 52 134 104 Q100 156 85 220.5 Q70 285 70 350 Q70 415 85 479.5 Q100 544 134 596 Q168 648 223.5 680 Q279 712 360 712 Q441 712 496.5 680 Q552 648 586 596 Q620 544 635 479.5 Q650 415 650 350 Q650 309 644.5 268 Q639 227 626.5 189 Q614 151 594 117 Q574 83 546 57 L604 -29 L556 -65 L498 21 Q469 5 435.5 -3.5 Q402 -12 360 -12 Z M360 51 Q417 51 460 77 L413 147 L463 183 L507 117 Q545 162 561 224.5 Q577 287 577 350 Q577 407 565.5 461 Q554 515 528.5 556.5 Q503 598 461.5 623.5 Q420 649 360 649 Q300 649 258.5 622 Q217 595 191.5 552 Q166 509 154.5 455.5 Q143 402 143 350 Q143 293 154.5 239 Q166 185 191.5 143.5 Q217 102 258.5 76.5 Q300 51 360 51 Z " />
<glyph glyph-name="R" unicode="R" horiz-adv-x="658" d="M578 508 Q578 476 569 445 Q560 414 539.5 387.5 Q519 361 486 342 Q453 323 405 316 L560 0 L483 0 L333 313 L175 313 L175 0 L105 0 L105 700 L362 700 Q424 700 465.5 683 Q507 666 532 639 Q557 612 567.5 577.5 Q578 543 578 508 Z M364 376 Q405 376 433 387.5 Q461 399 478.5 417 Q496 435 503.5 458 Q511 481 511 505 Q511 526 504 549 Q497 572 480.5 591.5 Q464 611 435.5 624 Q407 637 364 637 L175 637 L175 376 L364 376 Z " />
<glyph glyph-name="S" unicode="S" horiz-adv-x="594" d="M420 579 Q407 607 373.5 628 Q340 649 287 649 Q225 649 190.5 622 Q156 595 156 550 Q156 522 169.5 501.5 Q183 481 205.5 464.5 Q228 448 257 435 Q286 422 317 410 Q353 396 389 377 Q425 358 454 331 Q483 304 501 267.5 Q519 231 519 182 Q519 135 502.5 99 Q486 63 457 38.5 Q428 14 387 1 Q346 -12 298 -12 Q254 -12 216 -0.5 Q178 11 148 30.5 Q118 50 96.5 75.5 Q75 101 65 130 L131 154 Q152 108 195.5 79.5 Q239 51 299 51 Q368 51 407.5 84 Q447 117 447 180 Q447 212 434 237.5 Q421 263 399 282.5 Q377 302 348.5 316.5 Q320 331 289 343 Q252 357 215.5 374.5 Q179 392 149.5 416.5 Q120 441 102 473 Q84 505 84 549 Q84 582 98 612 Q112 642 138.5 664 Q165 686 203 699 Q241 712 290 712 Q367 712 419 680.5 Q471 649 485 601 L420 579 Z " />
<glyph glyph-name="T" unicode="T" horiz-adv-x="575" d="M322 633 L322 0 L252 0 L252 633 L60 633 L60 700 L515 700 L515 633 L322 633 Z " />
<glyph glyph-name="U" unicode="U" horiz-adv-x="680" d="M340 -12 Q284 -12 239.5 3 Q195 18 164 51 Q133 84 116.5 135.5 Q100 187 100 260 L100 700 L170 700 L170 260 Q170 197 184 156.5 Q198 116 221.5 92.5 Q245 69 275.5 60 Q306 51 340 51 Q374 51 404.5 60 Q435 69 458.5 92.5 Q482 116 496 156.5 Q510 197 510 260 L510 700 L580 700 L580 260 Q580 187 563.5 135.5 Q547 84 516 51 Q485 18 440.5 3 Q396 -12 340 -12 Z " />
<glyph glyph-name="V" unicode="V" horiz-adv-x="640" d="M346 0 L295 0 L55 700 L129 700 L324 115 L510 700 L585 700 L346 0 Z " />
<glyph glyph-name="W" unicode="W" horiz-adv-x="827" d="M772 700 L620 0 L576 0 L408 562 L238 0 L190 0 L55 700 L129 700 L226 151 L383 700 L435 700 L586 163 L699 700 L772 700 Z " />
<glyph glyph-name="X" unicode="X" horiz-adv-x="562" d="M444 0 L277 304 L118 0 L44 0 L245 361 L59 700 L135 700 L282 430 L426 700 L499 700 L314 372 L519 0 L444 0 Z " />
<glyph glyph-name="Y" unicode="Y" horiz-adv-x="616" d="M274 0 L274 275 L45 700 L122 700 L308 340 L499 700 L571 700 L344 278 L344 0 L274 0 Z " />
<glyph glyph-name="Z" unicode="Z" horiz-adv-x="637" d="M70 0 L70 49 L478 634 L93 634 L93 700 L567 700 L567 649 L164 66 L567 66 L567 0 L70 0 Z " />
<glyph glyph-name="bracketleft" unicode="&#x5b;" horiz-adv-x="379" d="M115 -130 L115 712 L324 712 L324 649 L185 649 L185 -67 L324 -67 L324 -130 L115 -130 Z " />
<glyph glyph-name="backslash" unicode="&#x5c;" horiz-adv-x="486" d="M393 -130 L0 712 L68 712 L461 -130 L393 -130 Z " />
<glyph glyph-name="bracketright" unicode="&#x5d;" horiz-adv-x="379" d="M264 -130 L55 -130 L55 -67 L194 -67 L194 649 L55 649 L55 712 L264 712 L264 -130 Z " />
<glyph glyph-name="asciicircum" unicode="&#x5e;" horiz-adv-x="660" d="M488 362 L330 625 L172 362 L100 362 L291 712 L367 712 L560 362 L488 362 Z " />
<glyph glyph-name="underscore" unicode="&#x5f;" horiz-adv-x="530" d="M10 -177 L10 -100 L520 -100 L520 -177 L10 -177 Z " />
<glyph glyph-name="grave" unicode="&#x60;" horiz-adv-x="335" d="M185 576 L7 732 L114 732 L256 576 L185 576 Z " />
<glyph glyph-name="a" unicode="a" horiz-adv-x="519" d="M384 0 L384 50 Q353 22 314.5 5 Q276 -12 234 -12 Q157 -12 108.5 31.5 Q60 75 60 161 Q60 205 75.5 237 Q91 269 116.5 289.5 Q142 310 176 320 Q210 330 246 330 Q278 330 312 322 Q346 314 384 294 L384 337 Q384 376 374.5 400 Q365 424 349.5 438 Q334 452 313.5 457 Q293 462 272 462 Q253 462 232 457 Q211 452 191 444 Q171 436 152.5 426.5 Q134 417 120 407 L100 467 Q131 487 178.5 505 Q226 523 279 523 Q306 523 336 515.5 Q366 508 391 488.5 Q416 469 432.5 434.5 Q449 400 449 346 L449 0 L384 0 Z M241 49 Q264 49 285 56 Q306 63 324 74 Q342 85 357 99.5 Q372 114 384 128 L384 227 Q359 244 322.5 256.5 Q286 269 253 269 Q227 269 204 262.5 Q181 256 163.5 242.5 Q146 229 135.5 209 Q125 189 125 161 Q125 110 155 79.5 Q185 49 241 49 Z " />
<glyph glyph-name="b" unicode="b" horiz-adv-x="562" d="M302 -12 Q275 -12 254 -7 Q233 -2 216.5 6.5 Q200 15 186 25 Q172 35 160 46 L160 0 L90 0 L90 687 L160 722 L160 461 Q185 488 221.5 505.5 Q258 523 296 523 Q344 523 383 505 Q422 487 449.5 452.5 Q477 418 492 368.5 Q507 319 507 256 Q507 125 453 56.5 Q399 -12 302 -12 Z M291 51 Q363 51 398.5 106 Q434 161 434 256 Q434 355 398.5 407.5 Q363 460 291 460 Q267 460 246.5 452.5 Q226 445 209 433.5 Q192 422 179.5 408 Q167 394 160 382 L160 131 Q181 95 217 73 Q253 51 291 51 Z " />
<glyph glyph-name="c" unicode="c" horiz-adv-x="481" d="M257 -12 Q164 -12 109.5 57.5 Q55 127 55 255 Q55 382 110.5 452.5 Q166 523 265 523 Q322 523 365 495.5 Q408 468 429 416 L365 391 Q353 420 328.5 440 Q304 460 262 460 Q226 460 201 445.5 Q176 431 159.5 404.5 Q143 378 135.5 340 Q128 302 128 255 Q128 158 160 104.5 Q192 51 260 51 Q302 51 331 72 Q360 93 373 129 L436 105 Q418 51 370.5 19.5 Q323 -12 257 -12 Z " />
<glyph glyph-name="d" unicode="d" horiz-adv-x="562" d="M266 -12 Q217 -12 178 7 Q139 26 111.5 61 Q84 96 69.5 145.5 Q55 195 55 256 Q55 383 111.5 453 Q168 523 266 523 Q314 523 346.5 508.5 Q379 494 402 475 L402 687 L472 722 L472 0 L402 0 L402 44 Q379 21 346.5 4.5 Q314 -12 266 -12 Z M274 51 Q312 51 346.5 72 Q381 93 402 131 L402 386 Q394 399 382 412 Q370 425 354.5 435.5 Q339 446 318.5 453 Q298 460 274 460 Q203 460 165.5 407.5 Q128 355 128 256 Q128 213 138 175.5 Q148 138 167 110.5 Q186 83 213 67 Q240 51 274 51 Z " />
<glyph glyph-name="e" unicode="e" horiz-adv-x="529" d="M129 227 Q138 149 176 101 Q214 53 280 53 Q308 53 337 62 Q366 71 395 93 L433 46 Q403 21 362.5 4.5 Q322 -12 277 -12 Q225 -12 184 9.5 Q143 31 114.5 68 Q86 105 70.5 153.5 Q55 202 55 256 Q55 320 71.5 369.5 Q88 419 117 453 Q146 487 187 505 Q228 523 277 523 Q318 523 354.5 508.5 Q391 494 419 464 Q447 434 463 387 Q479 340 479 276 Q479 268 479 256 Q479 244 477 227 L129 227 Z M277 460 Q215 460 173.5 419 Q132 378 127 290 L408 290 Q408 342 395 375 Q382 408 362.5 427 Q343 446 320 453 Q297 460 277 460 Z " />
<glyph glyph-name="f" unicode="f" horiz-adv-x="330" d="M182 448 L182 0 L112 0 L112 448 L30 448 L30 511 L112 511 L112 598 Q112 629 121 651 Q130 673 145 686.5 Q160 700 179 706 Q198 712 218 712 Q247 712 267.5 704.5 Q288 697 305 688 L305 627 Q289 635 271.5 641 Q254 647 232 647 Q214 647 203.5 641.5 Q193 636 188.5 627.5 Q184 619 183 608 Q182 597 182 587 L182 511 L305 511 L305 448 L182 448 Z " />
<glyph glyph-name="g" unicode="g" horiz-adv-x="564" d="M202 -158 Q264 -155 303.5 -142.5 Q343 -130 365.5 -111.5 Q388 -93 396 -69.5 Q404 -46 404 -20 L404 58 Q382 26 349.5 7 Q317 -12 264 -12 Q223 -12 185 5 Q147 22 118 55.5 Q89 89 72 139 Q55 189 55 256 Q55 319 70.5 368.5 Q86 418 114.5 452.5 Q143 487 182 505 Q221 523 268 523 Q297 523 319.5 516.5 Q342 510 358.5 500.5 Q375 491 386.5 480.5 Q398 470 404 463 L404 511 L474 511 L474 8 Q474 -55 454 -96.5 Q434 -138 401 -163.5 Q368 -189 324.5 -200 Q281 -211 234 -213 L202 -158 Z M280 51 Q312 51 347.5 73.5 Q383 96 404 136 L404 382 Q393 401 377.5 415.5 Q362 430 345 440 Q328 450 311 455 Q294 460 280 460 Q204 460 166 407.5 Q128 355 128 256 Q128 207 139.5 169 Q151 131 171.5 104.5 Q192 78 219.5 64.5 Q247 51 280 51 Z " />
<glyph glyph-name="h" unicode="h" horiz-adv-x="560" d="M292 523 Q386 523 430.5 466.5 Q475 410 475 283 L475 0 L405 0 L405 312 Q405 393 371 426.5 Q337 460 286 460 Q259 460 236 453 Q213 446 196 429 Q179 412 169.5 384 Q160 356 160 314 L160 0 L90 0 L90 689 L160 722 L160 454 Q183 489 217 506 Q251 523 292 523 Z " />
<glyph glyph-name="i" unicode="i" horiz-adv-x="252" d="M91 0 L91 511 L161 511 L161 0 L91 0 Z M126 616 Q106 616 93 629 Q80 642 80 662 Q80 682 93 696 Q106 710 126 710 Q146 710 159 696 Q172 682 172 662 Q172 642 159 629 Q146 616 126 616 Z " />
<glyph glyph-name="j" unicode="j" horiz-adv-x="258" d="M162 -32 Q162 -83 148 -117 Q134 -151 111.5 -171.5 Q89 -192 60.5 -201.5 Q32 -211 2 -213 L-30 -158 Q6 -155 30 -146 Q54 -137 67.5 -124 Q81 -111 86.5 -94.5 Q92 -78 92 -60 L92 511 L162 511 L162 -32 Z M127 616 Q107 616 94 629 Q81 642 81 662 Q81 682 94 696 Q107 710 127 710 Q147 710 160 696 Q173 682 173 662 Q173 642 160 629 Q147 616 127 616 Z " />
<glyph glyph-name="k" unicode="k" horiz-adv-x="511" d="M294 375 L486 0 L409 0 L245 324 L160 233 L160 0 L90 0 L90 688 L160 722 L160 316 L341 511 L422 511 L294 375 Z " />
<glyph glyph-name="l" unicode="l" horiz-adv-x="260" d="M95 0 L95 688 L165 722 L165 0 L95 0 Z " />
<glyph glyph-name="m" unicode="m" horiz-adv-x="843" d="M583 523 Q620 523 652 510 Q684 497 707.5 473.5 Q731 450 744.5 416 Q758 382 758 340 L758 0 L688 0 L688 313 Q688 337 684 363 Q680 389 668.5 410.5 Q657 432 635 446 Q613 460 577 460 Q548 460 526 448 Q504 436 489 416 Q474 396 466.5 369.5 Q459 343 459 313 L459 0 L389 0 L389 313 Q389 337 385 363 Q381 389 369.5 410.5 Q358 432 336 446 Q314 460 278 460 Q248 460 226 449.5 Q204 439 189.5 420 Q175 401 167.5 376 Q160 351 160 321 L160 0 L90 0 L90 511 L160 511 L160 461 Q213 523 299 523 Q340 523 377.5 502.5 Q415 482 437 445 Q458 477 495.5 500 Q533 523 583 523 Z " />
<glyph glyph-name="n" unicode="n" horiz-adv-x="560" d="M160 455 Q184 490 217.5 506.5 Q251 523 292 523 Q386 523 430.5 466.5 Q475 410 475 283 L475 0 L405 0 L405 312 Q405 393 371 426.5 Q337 460 286 460 Q259 460 236 453 Q213 446 196 429 Q179 412 169.5 384 Q160 356 160 314 L160 0 L90 0 L90 511 L160 511 L160 455 Z " />
<glyph glyph-name="o" unicode="o" horiz-adv-x="548" d="M274 51 Q344 51 382 105 Q420 159 420 256 Q420 352 383 406 Q346 460 274 460 Q202 460 165 407.5 Q128 355 128 255 Q128 159 165 105 Q202 51 274 51 Z M274 523 Q323 523 363.5 505 Q404 487 432.5 453 Q461 419 477 369.5 Q493 320 493 256 Q493 193 477 143 Q461 93 432.5 58.5 Q404 24 363.5 6 Q323 -12 274 -12 Q225 -12 184.5 6 Q144 24 115.5 58 Q87 92 71 141.5 Q55 191 55 255 Q55 318 71 367.5 Q87 417 115.5 451.5 Q144 486 184.5 504.5 Q225 523 274 523 Z " />
<glyph glyph-name="p" unicode="p" horiz-adv-x="566" d="M300 -12 Q246 -12 214 7 Q182 26 160 52 L160 -168 L90 -203 L90 511 L160 511 L160 465 Q185 488 216.5 505.5 Q248 523 300 523 Q349 523 388 504 Q427 485 454.5 450 Q482 415 496.5 365.5 Q511 316 511 256 Q511 192 495.5 142 Q480 92 452 58 Q424 24 385 6 Q346 -12 300 -12 Z M292 51 Q362 51 400 103.5 Q438 156 438 256 Q438 350 399.5 405 Q361 460 292 460 Q250 460 215.5 439.5 Q181 419 160 381 L160 130 Q186 96 218 73.5 Q250 51 292 51 Z " />
<glyph glyph-name="q" unicode="q" horiz-adv-x="564" d="M268 -12 Q170 -12 112.5 57.5 Q55 127 55 255 Q55 315 69 364.5 Q83 414 109.5 449.5 Q136 485 174 504 Q212 523 261 523 Q286 523 307 517.5 Q328 512 345 504 Q362 496 376.5 485.5 Q391 475 404 465 L404 511 L474 511 L474 -168 L404 -200 L404 52 Q378 23 347 5.5 Q316 -12 268 -12 Z M271 51 Q295 51 315 59 Q335 67 351.5 79 Q368 91 381 105.5 Q394 120 404 132 L404 381 Q381 423 345 441.5 Q309 460 271 460 Q237 460 210.5 444 Q184 428 165.5 400 Q147 372 137.5 335 Q128 298 128 255 Q128 155 164.5 103 Q201 51 271 51 Z " />
<glyph glyph-name="r" unicode="r" horiz-adv-x="386" d="M90 0 L90 511 L160 511 L160 439 Q188 481 225 502 Q262 523 297 523 Q335 523 361 502 L350 434 Q340 440 324.5 446.5 Q309 453 284 453 Q267 453 245.5 445 Q224 437 205 418 Q186 399 173 367.5 Q160 336 160 289 L160 0 L90 0 Z " />
<glyph glyph-name="s" unicode="s" horiz-adv-x="463" d="M345 406 Q325 426 295 443.5 Q265 461 223 461 Q178 461 152 443 Q126 425 126 394 Q126 374 136 360 Q146 346 162 334.5 Q178 323 199 314 Q220 305 243 296 Q271 285 300.5 271.5 Q330 258 353 239 Q376 220 391 193.5 Q406 167 406 128 Q406 64 360 26 Q314 -12 234 -12 Q182 -12 136 13.5 Q90 39 58 77 L107 120 Q130 92 165 71 Q200 50 240 50 Q282 50 311 69 Q340 88 340 124 Q340 147 329 164.5 Q318 182 300 195 Q282 208 259 218.5 Q236 229 213 238 Q183 250 155 264 Q127 278 106 296 Q85 314 72.5 337.5 Q60 361 60 393 Q60 422 72.5 446 Q85 470 106.5 487 Q128 504 158.5 513.5 Q189 523 225 523 Q277 523 318.5 502.5 Q360 482 391 445 L345 406 Z " />
<glyph glyph-name="t" unicode="t" horiz-adv-x="369" d="M218 -12 Q163 -12 140 21.5 Q117 55 117 105 L117 448 L30 448 L30 511 L117 511 L117 687 L187 722 L187 511 L317 511 L317 448 L187 448 L187 135 Q187 118 188.5 103.5 Q190 89 196 78 Q202 67 213 60.5 Q224 54 242 54 Q268 54 286.5 64 Q305 74 319 84 L311 11 Q291 0 269 -6 Q247 -12 218 -12 Z " />
<glyph glyph-name="u" unicode="u" horiz-adv-x="560" d="M400 0 L400 49 Q373 14 343 1 Q313 -12 273 -12 Q174 -12 129.5 44 Q85 100 85 226 L85 511 L155 511 L155 199 Q155 119 188.5 85 Q222 51 273 51 Q300 51 323 58 Q346 65 363.5 82 Q381 99 390.5 127 Q400 155 400 197 L400 511 L470 511 L470 0 L400 0 Z " />
<glyph glyph-name="v" unicode="v" horiz-adv-x="503" d="M276 0 L227 0 L40 511 L112 511 L254 112 L393 511 L463 511 L276 0 Z " />
<glyph glyph-name="w" unicode="w" horiz-adv-x="704" d="M538 0 L475 0 L351 375 L230 0 L166 0 L40 511 L110 511 L206 90 L328 511 L376 511 L500 85 L594 511 L664 511 L538 0 Z " />
<glyph glyph-name="x" unicode="x" horiz-adv-x="502" d="M291 265 L462 0 L382 0 L247 209 L115 0 L40 0 L212 262 L52 511 L132 511 L258 316 L374 511 L448 511 L291 265 Z " />
<glyph glyph-name="y" unicode="y" horiz-adv-x="511" d="M217 16 L30 511 L101 511 L247 99 L396 511 L471 511 L210 -194 L141 -194 L217 16 Z " />
<glyph glyph-name="z" unicode="z" horiz-adv-x="499" d="M70 0 L70 43 L331 448 L90 448 L90 511 L424 511 L424 469 L161 63 L423 63 L423 0 L70 0 Z " />
<glyph glyph-name="braceleft" unicode="&#x7b;" horiz-adv-x="378" d="M108 289 Q134 287 154 281 Q174 275 188 258.5 Q202 242 209.5 213.5 Q217 185 217 138 L217 82 Q217 10 245.5 -29.5 Q274 -69 333 -71 L333 -130 Q249 -128 197 -71 Q145 -14 145 101 L145 152 Q145 201 124.5 232 Q104 263 69 263 L65 263 L65 320 L69 320 Q104 320 124.5 350 Q145 380 145 431 L145 481 Q145 596 197 653 Q249 710 333 712 L333 653 Q274 651 245.5 611.5 Q217 572 217 500 L217 444 Q217 400 209.5 371.5 Q202 343 188 326.5 Q174 310 154 302.5 Q134 295 108 293 L108 289 Z " />
<glyph glyph-name="bar" unicode="&#x7c;" horiz-adv-x="270" d="M100 -205 L100 805 L170 805 L170 -205 L100 -205 Z " />
<glyph glyph-name="braceright" unicode="&#x7d;" horiz-adv-x="378" d="M270 293 Q244 295 224 301 Q204 307 190 323.5 Q176 340 168.5 368.5 Q161 397 161 444 L161 500 Q161 572 132.5 611.5 Q104 651 45 653 L45 712 Q129 710 181 653 Q233 596 233 481 L233 430 Q233 381 253.5 350 Q274 319 309 319 L313 319 L313 262 L309 262 Q274 262 253.5 232 Q233 202 233 151 L233 101 Q233 -14 181 -71 Q129 -128 45 -130 L45 -71 Q104 -69 132.5 -29.5 Q161 10 161 82 L161 138 Q161 182 168.5 210.5 Q176 239 190 255.5 Q204 272 224 279.5 Q244 287 270 289 L270 293 Z " />
<glyph glyph-name="asciitilde" unicode="&#x7e;" horiz-adv-x="660" d="M439 277 Q408 277 378.5 287 Q349 297 321.5 308.5 Q294 320 267 330 Q240 340 215 340 Q182 340 160.5 323 Q139 306 137 277 L97 277 Q97 302 103.5 325.5 Q110 349 125 367 Q140 385 163.5 396 Q187 407 221 407 Q253 407 283 397 Q313 387 341 375.5 Q369 364 395 354 Q421 344 445 344 Q478 344 499.5 361.5 Q521 379 523 407 L563 407 Q563 381 556 357.5 Q549 334 534 316 Q519 298 495.5 287.5 Q472 277 439 277 Z " />
<glyph glyph-name="Adieresis" unicode="&#xc4;" horiz-adv-x="662" d="M531 0 L467 181 L194 181 L133 0 L60 0 L303 700 L357 700 L602 0 L531 0 Z M446 243 L350 523 Q345 536 338.5 556 Q332 576 330 586 Q327 576 321.5 556 Q316 536 311 523 L215 243 L446 243 Z M247 796 Q227 796 213.5 809.5 Q200 823 200 843 Q200 863 213.5 876.5 Q227 890 247 890 Q267 890 280.5 876.5 Q294 863 294 843 Q294 823 280.5 809.5 Q267 796 247 796 Z M413 796 Q393 796 379.5 809.5 Q366 823 366 843 Q366 863 379.5 876.5 Q393 890 413 890 Q433 890 446.5 876.5 Q460 863 460 843 Q460 823 446.5 809.5 Q433 796 413 796 Z " />
<glyph glyph-name="Aring" unicode="&#xc5;" horiz-adv-x="662" d="M467 181 L194 181 L133 0 L60 0 L284 645 Q256 659 237.5 686 Q219 713 219 748 Q219 771 228 791.5 Q237 812 252.5 827 Q268 842 289 850.5 Q310 859 333 859 Q356 859 377 850.5 Q398 842 413.5 827 Q429 812 438.5 791.5 Q448 771 448 748 Q448 713 428 685 Q408 657 377 643 L602 0 L531 0 L467 181 Z M215 243 L446 243 L330 580 L215 243 Z M333 687 Q357 687 373 704.5 Q389 722 389 748 Q389 774 373 790.5 Q357 807 333 807 Q310 807 294 790.5 Q278 774 278 748 Q278 722 294 704.5 Q310 687 333 687 Z " />
<glyph glyph-name="Ccedilla" unicode="&#xc7;" horiz-adv-x="644" d="M344 -234 Q315 -234 293 -226.5 Q271 -219 256 -206 L302 -176 Q308 -184 316 -185 Q324 -186 338 -186 Q359 -186 375 -171.5 Q391 -157 391 -135 Q391 -116 372 -101.5 Q353 -87 330 -87 Q305 -87 294 -92 L282 -77 L334 -11 Q263 -6 213 26.5 Q163 59 131 109 Q99 159 84.5 221.5 Q70 284 70 350 Q70 422 87 487.5 Q104 553 139.5 603 Q175 653 229.5 682.5 Q284 712 360 712 Q407 712 441.5 702.5 Q476 693 501 677 Q526 661 543.5 640.5 Q561 620 574 599 L512 563 Q500 580 486.5 595.5 Q473 611 455 623 Q437 635 413.5 642.5 Q390 650 360 650 Q300 650 258.5 622.5 Q217 595 191.5 552 Q166 509 154.5 455.5 Q143 402 143 350 Q143 292 155.5 238 Q168 184 194 142.5 Q220 101 261.5 76 Q303 51 360 51 Q423 51 460.5 75.5 Q498 100 522 140 L584 116 Q572 93 554 71 Q536 49 510.5 31.5 Q485 14 452 2.5 Q419 -9 378 -11 L352 -55 Q381 -55 401 -62 Q421 -69 433.5 -80.5 Q446 -92 451.5 -106.5 Q457 -121 457 -136 Q457 -180 424.5 -207 Q392 -234 344 -234 Z " />
<glyph glyph-name="Eacute" unicode="&#xc9;" horiz-adv-x="596" d="M105 0 L105 700 L504 700 L504 633 L175 633 L175 395 L397 395 L397 329 L175 329 L175 67 L526 67 L526 0 L105 0 Z M272 766 L201 766 L343 922 L450 922 L272 766 Z " />
<glyph glyph-name="Ntilde" unicode="&#xd1;" horiz-adv-x="705" d="M529 0 L175 569 L175 0 L105 0 L105 700 L176 700 L530 123 L530 700 L600 700 L600 0 L529 0 Z M432 792 Q405 792 383 800 Q361 808 341.5 817 Q322 826 304 834 Q286 842 267 842 Q248 842 235 830.5 Q222 819 220 796 L181 796 Q181 849 203.5 877.5 Q226 906 274 906 Q301 906 323 898 Q345 890 364.5 880.5 Q384 871 402 863 Q420 855 439 855 Q458 855 471 867 Q484 879 486 902 L524 902 Q524 849 502 820.5 Q480 792 432 792 Z " />
<glyph glyph-name="Odieresis" unicode="&#xd6;" horiz-adv-x="720" d="M360 51 Q420 51 461.5 78 Q503 105 528.5 148 Q554 191 565.5 244.5 Q577 298 577 350 Q577 407 565.5 461 Q554 515 528.5 556.5 Q503 598 461.5 623.5 Q420 649 360 649 Q300 649 258.5 622 Q217 595 191.5 552 Q166 509 154.5 455.5 Q143 402 143 350 Q143 293 154.5 239 Q166 185 191.5 143.5 Q217 102 258.5 76.5 Q300 51 360 51 Z M360 -12 Q279 -12 223.5 20 Q168 52 134 104 Q100 156 85 220.5 Q70 285 70 350 Q70 415 85 479.5 Q100 544 134 596 Q168 648 223.5 680 Q279 712 360 712 Q441 712 496.5 680 Q552 648 586 596 Q620 544 635 479.5 Q650 415 650 350 Q650 285 635 220.5 Q620 156 586 104 Q552 52 496.5 20 Q441 -12 360 -12 Z M277 796 Q257 796 243.5 809.5 Q230 823 230 843 Q230 863 243.5 876.5 Q257 890 277 890 Q297 890 310.5 876.5 Q324 863 324 843 Q324 823 310.5 809.5 Q297 796 277 796 Z M443 796 Q423 796 409.5 809.5 Q396 823 396 843 Q396 863 409.5 876.5 Q423 890 443 890 Q463 890 476.5 876.5 Q490 863 490 843 Q490 823 476.5 809.5 Q463 796 443 796 Z " />
<glyph glyph-name="Udieresis" unicode="&#xdc;" horiz-adv-x="680" d="M340 -12 Q284 -12 239.5 3 Q195 18 164 51 Q133 84 116.5 135.5 Q100 187 100 260 L100 700 L170 700 L170 260 Q170 197 184 156.5 Q198 116 221.5 92.5 Q245 69 275.5 60 Q306 51 340 51 Q374 51 404.5 60 Q435 69 458.5 92.5 Q482 116 496 156.5 Q510 197 510 260 L510 700 L580 700 L580 260 Q580 187 563.5 135.5 Q547 84 516 51 Q485 18 440.5 3 Q396 -12 340 -12 Z M257 796 Q237 796 223.5 809.5 Q210 823 210 843 Q210 863 223.5 876.5 Q237 890 257 890 Q277 890 290.5 876.5 Q304 863 304 843 Q304 823 290.5 809.5 Q277 796 257 796 Z M423 796 Q403 796 389.5 809.5 Q376 823 376 843 Q376 863 389.5 876.5 Q403 890 423 890 Q443 890 456.5 876.5 Q470 863 470 843 Q470 823 456.5 809.5 Q443 796 423 796 Z " />
<glyph glyph-name="aacute" unicode="&#xe1;" horiz-adv-x="519" d="M384 0 L384 50 Q353 22 314.5 5 Q276 -12 234 -12 Q157 -12 108.5 31.5 Q60 75 60 161 Q60 205 75.5 237 Q91 269 116.5 289.5 Q142 310 176 320 Q210 330 246 330 Q278 330 312 322 Q346 314 384 294 L384 337 Q384 376 374.5 400 Q365 424 349.5 438 Q334 452 313.5 457 Q293 462 272 462 Q253 462 232 457 Q211 452 191 444 Q171 436 152.5 426.5 Q134 417 120 407 L100 467 Q131 487 178.5 505 Q226 523 279 523 Q306 523 336 515.5 Q366 508 391 488.5 Q416 469 432.5 434.5 Q449 400 449 346 L449 0 L384 0 Z M241 49 Q264 49 285 56 Q306 63 324 74 Q342 85 357 99.5 Q372 114 384 128 L384 227 Q359 244 322.5 256.5 Q286 269 253 269 Q227 269 204 262.5 Q181 256 163.5 242.5 Q146 229 135.5 209 Q125 189 125 161 Q125 110 155 79.5 Q185 49 241 49 Z M252 576 L181 576 L323 732 L430 732 L252 576 Z " />
<glyph glyph-name="agrave" unicode="&#xe0;" horiz-adv-x="519" d="M384 0 L384 50 Q353 22 314.5 5 Q276 -12 234 -12 Q157 -12 108.5 31.5 Q60 75 60 161 Q60 205 75.5 237 Q91 269 116.5 289.5 Q142 310 176 320 Q210 330 246 330 Q278 330 312 322 Q346 314 384 294 L384 337 Q384 376 374.5 400 Q365 424 349.5 438 Q334 452 313.5 457 Q293 462 272 462 Q253 462 232 457 Q211 452 191 444 Q171 436 152.5 426.5 Q134 417 120 407 L100 467 Q131 487 178.5 505 Q226 523 279 523 Q306 523 336 515.5 Q366 508 391 488.5 Q416 469 432.5 434.5 Q449 400 449 346 L449 0 L384 0 Z M241 49 Q264 49 285 56 Q306 63 324 74 Q342 85 357 99.5 Q372 114 384 128 L384 227 Q359 244 322.5 256.5 Q286 269 253 269 Q227 269 204 262.5 Q181 256 163.5 242.5 Q146 229 135.5 209 Q125 189 125 161 Q125 110 155 79.5 Q185 49 241 49 Z M307 576 L129 732 L236 732 L378 576 L307 576 Z " />
<glyph glyph-name="acircumflex" unicode="&#xe2;" horiz-adv-x="519" d="M384 0 L384 50 Q353 22 314.5 5 Q276 -12 234 -12 Q157 -12 108.5 31.5 Q60 75 60 161 Q60 205 75.5 237 Q91 269 116.5 289.5 Q142 310 176 320 Q210 330 246 330 Q278 330 312 322 Q346 314 384 294 L384 337 Q384 376 374.5 400 Q365 424 349.5 438 Q334 452 313.5 457 Q293 462 272 462 Q253 462 232 457 Q211 452 191 444 Q171 436 152.5 426.5 Q134 417 120 407 L100 467 Q131 487 178.5 505 Q226 523 279 523 Q306 523 336 515.5 Q366 508 391 488.5 Q416 469 432.5 434.5 Q449 400 449 346 L449 0 L384 0 Z M241 49 Q264 49 285 56 Q306 63 324 74 Q342 85 357 99.5 Q372 114 384 128 L384 227 Q359 244 322.5 256.5 Q286 269 253 269 Q227 269 204 262.5 Q181 256 163.5 242.5 Q146 229 135.5 209 Q125 189 125 161 Q125 110 155 79.5 Q185 49 241 49 Z M396 576 L280 677 L164 576 L99 576 L240 732 L320 732 L461 576 L396 576 Z " />
<glyph glyph-name="adieresis" unicode="&#xe4;" horiz-adv-x="519" d="M384 0 L384 50 Q353 22 314.5 5 Q276 -12 234 -12 Q157 -12 108.5 31.5 Q60 75 60 161 Q60 205 75.5 237 Q91 269 116.5 289.5 Q142 310 176 320 Q210 330 246 330 Q278 330 312 322 Q346 314 384 294 L384 337 Q384 376 374.5 400 Q365 424 349.5 438 Q334 452 313.5 457 Q293 462 272 462 Q253 462 232 457 Q211 452 191 444 Q171 436 152.5 426.5 Q134 417 120 407 L100 467 Q131 487 178.5 505 Q226 523 279 523 Q306 523 336 515.5 Q366 508 391 488.5 Q416 469 432.5 434.5 Q449 400 449 346 L449 0 L384 0 Z M241 49 Q264 49 285 56 Q306 63 324 74 Q342 85 357 99.5 Q372 114 384 128 L384 227 Q359 244 322.5 256.5 Q286 269 253 269 Q227 269 204 262.5 Q181 256 163.5 242.5 Q146 229 135.5 209 Q125 189 125 161 Q125 110 155 79.5 Q185 49 241 49 Z M197 606 Q177 606 163.5 619.5 Q150 633 150 653 Q150 673 163.5 686.5 Q177 700 197 700 Q217 700 230.5 686.5 Q244 673 244 653 Q244 633 230.5 619.5 Q217 606 197 606 Z M363 606 Q343 606 329.5 619.5 Q316 633 316 653 Q316 673 329.5 686.5 Q343 700 363 700 Q383 700 396.5 686.5 Q410 673 410 653 Q410 633 396.5 619.5 Q383 606 363 606 Z " />
<glyph glyph-name="atilde" unicode="&#xe3;" horiz-adv-x="519" d="M384 0 L384 50 Q353 22 314.5 5 Q276 -12 234 -12 Q157 -12 108.5 31.5 Q60 75 60 161 Q60 205 75.5 237 Q91 269 116.5 289.5 Q142 310 176 320 Q210 330 246 330 Q278 330 312 322 Q346 314 384 294 L384 337 Q384 376 374.5 400 Q365 424 349.5 438 Q334 452 313.5 457 Q293 462 272 462 Q253 462 232 457 Q211 452 191 444 Q171 436 152.5 426.5 Q134 417 120 407 L100 467 Q131 487 178.5 505 Q226 523 279 523 Q306 523 336 515.5 Q366 508 391 488.5 Q416 469 432.5 434.5 Q449 400 449 346 L449 0 L384 0 Z M241 49 Q264 49 285 56 Q306 63 324 74 Q342 85 357 99.5 Q372 114 384 128 L384 227 Q359 244 322.5 256.5 Q286 269 253 269 Q227 269 204 262.5 Q181 256 163.5 242.5 Q146 229 135.5 209 Q125 189 125 161 Q125 110 155 79.5 Q185 49 241 49 Z M360 602 Q333 602 311 610 Q289 618 269.5 627 Q250 636 232 644 Q214 652 195 652 Q176 652 163 640.5 Q150 629 148 606 L109 606 Q109 659 131.5 687.5 Q154 716 202 716 Q229 716 251 708 Q273 700 292.5 690.5 Q312 681 330 673 Q348 665 367 665 Q386 665 399 677 Q412 689 414 712 L452 712 Q452 659 430 630.5 Q408 602 360 602 Z " />
<glyph glyph-name="aring" unicode="&#xe5;" horiz-adv-x="519" d="M384 0 L384 50 Q353 22 314.5 5 Q276 -12 234 -12 Q157 -12 108.5 31.5 Q60 75 60 161 Q60 205 75.5 237 Q91 269 116.5 289.5 Q142 310 176 320 Q210 330 246 330 Q278 330 312 322 Q346 314 384 294 L384 337 Q384 376 374.5 400 Q365 424 349.5 438 Q334 452 313.5 457 Q293 462 272 462 Q253 462 232 457 Q211 452 191 444 Q171 436 152.5 426.5 Q134 417 120 407 L100 467 Q131 487 178.5 505 Q226 523 279 523 Q306 523 336 515.5 Q366 508 391 488.5 Q416 469 432.5 434.5 Q449 400 449 346 L449 0 L384 0 Z M241 49 Q264 49 285 56 Q306 63 324 74 Q342 85 357 99.5 Q372 114 384 128 L384 227 Q359 244 322.5 256.5 Q286 269 253 269 Q227 269 204 262.5 Q181 256 163.5 242.5 Q146 229 135.5 209 Q125 189 125 161 Q125 110 155 79.5 Q185 49 241 49 Z M280 575 Q257 575 236 584 Q215 593 199 608.5 Q183 624 174 645 Q165 666 165 689 Q165 712 174 732.5 Q183 753 199 768 Q215 783 236 791.5 Q257 800 280 800 Q303 800 324 791.5 Q345 783 360.5 768 Q376 753 385.5 732.5 Q395 712 395 689 Q395 666 385.5 645 Q376 624 360.5 608.5 Q345 593 324 584 Q303 575 280 575 Z M280 627 Q304 627 320 644.5 Q336 662 336 689 Q336 716 320 732 Q304 748 280 748 Q257 748 240.5 732 Q224 716 224 689 Q224 662 240.5 644.5 Q257 627 280 627 Z " />
<glyph glyph-name="ccedilla" unicode="&#xe7;" horiz-adv-x="481" d="M254 -234 Q225 -234 203 -226.5 Q181 -219 166 -206 L212 -176 Q218 -184 226 -185 Q234 -186 248 -186 Q269 -186 285.5 -171.5 Q302 -157 302 -135 Q302 -116 282.5 -101.5 Q263 -87 240 -87 Q215 -87 204 -92 L192 -77 L243 -11 Q156 -6 105.5 62.5 Q55 131 55 255 Q55 382 110.5 452.5 Q166 523 265 523 Q322 523 365 495.5 Q408 468 429 416 L365 391 Q353 420 328.5 440 Q304 460 262 460 Q226 460 201 445.5 Q176 431 159.5 404.5 Q143 378 135.5 340 Q128 302 128 255 Q128 158 160 104.5 Q192 51 260 51 Q302 51 331 72 Q360 93 373 129 L436 105 Q420 57 381.5 27.5 Q343 -2 289 -10 L262 -55 Q291 -55 311 -62 Q331 -69 343 -80.5 Q355 -92 360 -106.5 Q365 -121 365 -136 Q365 -180 333.5 -207 Q302 -234 254 -234 Z " />
<glyph glyph-name="eacute" unicode="&#xe9;" horiz-adv-x="529" d="M129 227 Q138 149 176 101 Q214 53 280 53 Q308 53 337 62 Q366 71 395 93 L433 46 Q403 21 362.5 4.5 Q322 -12 277 -12 Q225 -12 184 9.5 Q143 31 114.5 68 Q86 105 70.5 153.5 Q55 202 55 256 Q55 320 71.5 369.5 Q88 419 117 453 Q146 487 187 505 Q228 523 277 523 Q318 523 354.5 508.5 Q391 494 419 464 Q447 434 463 387 Q479 340 479 276 Q479 268 479 256 Q479 244 477 227 L129 227 Z M277 460 Q215 460 173.5 419 Q132 378 127 290 L408 290 Q408 342 395 375 Q382 408 362.5 427 Q343 446 320 453 Q297 460 277 460 Z M240 576 L169 576 L311 732 L418 732 L240 576 Z " />
<glyph glyph-name="egrave" unicode="&#xe8;" horiz-adv-x="529" d="M129 227 Q138 149 176 101 Q214 53 280 53 Q308 53 337 62 Q366 71 395 93 L433 46 Q403 21 362.5 4.5 Q322 -12 277 -12 Q225 -12 184 9.5 Q143 31 114.5 68 Q86 105 70.5 153.5 Q55 202 55 256 Q55 320 71.5 369.5 Q88 419 117 453 Q146 487 187 505 Q228 523 277 523 Q318 523 354.5 508.5 Q391 494 419 464 Q447 434 463 387 Q479 340 479 276 Q479 268 479 256 Q479 244 477 227 L129 227 Z M277 460 Q215 460 173.5 419 Q132 378 127 290 L408 290 Q408 342 395 375 Q382 408 362.5 427 Q343 446 320 453 Q297 460 277 460 Z M306 576 L128 732 L235 732 L377 576 L306 576 Z " />
<glyph glyph-name="ecircumflex" unicode="&#xea;" horiz-adv-x="529" d="M129 227 Q138 149 176 101 Q214 53 280 53 Q308 53 337 62 Q366 71 395 93 L433 46 Q403 21 362.5 4.5 Q322 -12 277 -12 Q225 -12 184 9.5 Q143 31 114.5 68 Q86 105 70.5 153.5 Q55 202 55 256 Q55 320 71.5 369.5 Q88 419 117 453 Q146 487 187 505 Q228 523 277 523 Q318 523 354.5 508.5 Q391 494 419 464 Q447 434 463 387 Q479 340 479 276 Q479 268 479 256 Q479 244 477 227 L129 227 Z M277 460 Q215 460 173.5 419 Q132 378 127 290 L408 290 Q408 342 395 375 Q382 408 362.5 427 Q343 446 320 453 Q297 460 277 460 Z M393 576 L277 677 L161 576 L96 576 L237 732 L317 732 L458 576 L393 576 Z " />
<glyph glyph-name="edieresis" unicode="&#xeb;" horiz-adv-x="529" d="M129 227 Q138 149 176 101 Q214 53 280 53 Q308 53 337 62 Q366 71 395 93 L433 46 Q403 21 362.5 4.5 Q322 -12 277 -12 Q225 -12 184 9.5 Q143 31 114.5 68 Q86 105 70.5 153.5 Q55 202 55 256 Q55 320 71.5 369.5 Q88 419 117 453 Q146 487 187 505 Q228 523 277 523 Q318 523 354.5 508.5 Q391 494 419 464 Q447 434 463 387 Q479 340 479 276 Q479 268 479 256 Q479 244 477 227 L129 227 Z M277 460 Q215 460 173.5 419 Q132 378 127 290 L408 290 Q408 342 395 375 Q382 408 362.5 427 Q343 446 320 453 Q297 460 277 460 Z M194 606 Q174 606 160.5 619.5 Q147 633 147 653 Q147 673 160.5 686.5 Q174 700 194 700 Q214 700 227.5 686.5 Q241 673 241 653 Q241 633 227.5 619.5 Q214 606 194 606 Z M360 606 Q340 606 326.5 619.5 Q313 633 313 653 Q313 673 326.5 686.5 Q340 700 360 700 Q380 700 393.5 686.5 Q407 673 407 653 Q407 633 393.5 619.5 Q380 606 360 606 Z " />
<glyph glyph-name="iacute" unicode="&#xed;" horiz-adv-x="252" d="M91 0 L91 511 L161 511 L161 0 L91 0 Z M97 576 L26 576 L168 732 L275 732 L97 576 Z " />
<glyph glyph-name="igrave" unicode="&#xec;" horiz-adv-x="252" d="M91 0 L91 511 L161 511 L161 0 L91 0 Z M156 576 L-22 732 L85 732 L227 576 L156 576 Z " />
<glyph glyph-name="icircumflex" unicode="&#xee;" horiz-adv-x="252" d="M91 0 L91 511 L161 511 L161 0 L91 0 Z M242 576 L126 677 L10 576 L-55 576 L86 732 L166 732 L307 576 L242 576 Z " />
<glyph glyph-name="idieresis" unicode="&#xef;" horiz-adv-x="252" d="M91 0 L91 511 L161 511 L161 0 L91 0 Z M43 606 Q23 606 9.5 619.5 Q-4 633 -4 653 Q-4 673 9.5 686.5 Q23 700 43 700 Q63 700 76.5 686.5 Q90 673 90 653 Q90 633 76.5 619.5 Q63 606 43 606 Z M209 606 Q189 606 175.5 619.5 Q162 633 162 653 Q162 673 175.5 686.5 Q189 700 209 700 Q229 700 242.5 686.5 Q256 673 256 653 Q256 633 242.5 619.5 Q229 606 209 606 Z " />
<glyph glyph-name="ntilde" unicode="&#xf1;" horiz-adv-x="560" d="M160 455 Q184 490 217.5 506.5 Q251 523 292 523 Q386 523 430.5 466.5 Q475 410 475 283 L475 0 L405 0 L405 312 Q405 393 371 426.5 Q337 460 286 460 Q259 460 236 453 Q213 446 196 429 Q179 412 169.5 384 Q160 356 160 314 L160 0 L90 0 L90 511 L160 511 L160 455 Z M368 602 Q341 602 319 610 Q297 618 277.5 627 Q258 636 240 644 Q222 652 203 652 Q184 652 171 640.5 Q158 629 156 606 L117 606 Q117 659 139.5 687.5 Q162 716 210 716 Q237 716 259 708 Q281 700 300.5 690.5 Q320 681 338 673 Q356 665 375 665 Q394 665 407 677 Q420 689 422 712 L460 712 Q460 659 438 630.5 Q416 602 368 602 Z " />
<glyph glyph-name="oacute" unicode="&#xf3;" horiz-adv-x="548" d="M274 51 Q344 51 382 105 Q420 159 420 256 Q420 352 383 406 Q346 460 274 460 Q202 460 165 407.5 Q128 355 128 255 Q128 159 165 105 Q202 51 274 51 Z M274 523 Q323 523 363.5 505 Q404 487 432.5 453 Q461 419 477 369.5 Q493 320 493 256 Q493 193 477 143 Q461 93 432.5 58.5 Q404 24 363.5 6 Q323 -12 274 -12 Q225 -12 184.5 6 Q144 24 115.5 58 Q87 92 71 141.5 Q55 191 55 255 Q55 318 71 367.5 Q87 417 115.5 451.5 Q144 486 184.5 504.5 Q225 523 274 523 Z M247 576 L176 576 L318 732 L425 732 L247 576 Z " />
<glyph glyph-name="ograve" unicode="&#xf2;" horiz-adv-x="548" d="M274 51 Q344 51 382 105 Q420 159 420 256 Q420 352 383 406 Q346 460 274 460 Q202 460 165 407.5 Q128 355 128 255 Q128 159 165 105 Q202 51 274 51 Z M274 523 Q323 523 363.5 505 Q404 487 432.5 453 Q461 419 477 369.5 Q493 320 493 256 Q493 193 477 143 Q461 93 432.5 58.5 Q404 24 363.5 6 Q323 -12 274 -12 Q225 -12 184.5 6 Q144 24 115.5 58 Q87 92 71 141.5 Q55 191 55 255 Q55 318 71 367.5 Q87 417 115.5 451.5 Q144 486 184.5 504.5 Q225 523 274 523 Z M304 576 L126 732 L233 732 L375 576 L304 576 Z " />
<glyph glyph-name="ocircumflex" unicode="&#xf4;" horiz-adv-x="548" d="M274 51 Q344 51 382 105 Q420 159 420 256 Q420 352 383 406 Q346 460 274 460 Q202 460 165 407.5 Q128 355 128 255 Q128 159 165 105 Q202 51 274 51 Z M274 523 Q323 523 363.5 505 Q404 487 432.5 453 Q461 419 477 369.5 Q493 320 493 256 Q493 193 477 143 Q461 93 432.5 58.5 Q404 24 363.5 6 Q323 -12 274 -12 Q225 -12 184.5 6 Q144 24 115.5 58 Q87 92 71 141.5 Q55 191 55 255 Q55 318 71 367.5 Q87 417 115.5 451.5 Q144 486 184.5 504.5 Q225 523 274 523 Z M390 576 L274 677 L158 576 L93 576 L234 732 L314 732 L455 576 L390 576 Z " />
<glyph glyph-name="odieresis" unicode="&#xf6;" horiz-adv-x="548" d="M274 51 Q344 51 382 105 Q420 159 420 256 Q420 352 383 406 Q346 460 274 460 Q202 460 165 407.5 Q128 355 128 255 Q128 159 165 105 Q202 51 274 51 Z M274 523 Q323 523 363.5 505 Q404 487 432.5 453 Q461 419 477 369.5 Q493 320 493 256 Q493 193 477 143 Q461 93 432.5 58.5 Q404 24 363.5 6 Q323 -12 274 -12 Q225 -12 184.5 6 Q144 24 115.5 58 Q87 92 71 141.5 Q55 191 55 255 Q55 318 71 367.5 Q87 417 115.5 451.5 Q144 486 184.5 504.5 Q225 523 274 523 Z M191 606 Q171 606 157.5 619.5 Q144 633 144 653 Q144 673 157.5 686.5 Q171 700 191 700 Q211 700 224.5 686.5 Q238 673 238 653 Q238 633 224.5 619.5 Q211 606 191 606 Z M357 606 Q337 606 323.5 619.5 Q310 633 310 653 Q310 673 323.5 686.5 Q337 700 357 700 Q377 700 390.5 686.5 Q404 673 404 653 Q404 633 390.5 619.5 Q377 606 357 606 Z " />
<glyph glyph-name="otilde" unicode="&#xf5;" horiz-adv-x="548" d="M274 51 Q344 51 382 105 Q420 159 420 256 Q420 352 383 406 Q346 460 274 460 Q202 460 165 407.5 Q128 355 128 255 Q128 159 165 105 Q202 51 274 51 Z M274 523 Q323 523 363.5 505 Q404 487 432.5 453 Q461 419 477 369.5 Q493 320 493 256 Q493 193 477 143 Q461 93 432.5 58.5 Q404 24 363.5 6 Q323 -12 274 -12 Q225 -12 184.5 6 Q144 24 115.5 58 Q87 92 71 141.5 Q55 191 55 255 Q55 318 71 367.5 Q87 417 115.5 451.5 Q144 486 184.5 504.5 Q225 523 274 523 Z M354 602 Q327 602 305 610 Q283 618 263.5 627 Q244 636 226 644 Q208 652 189 652 Q170 652 157 640.5 Q144 629 142 606 L103 606 Q103 659 125.5 687.5 Q148 716 196 716 Q223 716 245 708 Q267 700 286.5 690.5 Q306 681 324 673 Q342 665 361 665 Q380 665 393 677 Q406 689 408 712 L446 712 Q446 659 424 630.5 Q402 602 354 602 Z " />
<glyph glyph-name="uacute" unicode="&#xfa;" horiz-adv-x="560" d="M400 0 L400 49 Q373 14 343 1 Q313 -12 273 -12 Q174 -12 129.5 44 Q85 100 85 226 L85 511 L155 511 L155 199 Q155 119 188.5 85 Q222 51 273 51 Q300 51 323 58 Q346 65 363.5 82 Q381 99 390.5 127 Q400 155 400 197 L400 511 L470 511 L470 0 L400 0 Z M237 576 L166 576 L308 732 L415 732 L237 576 Z " />
<glyph glyph-name="ugrave" unicode="&#xf9;" horiz-adv-x="560" d="M400 0 L400 49 Q373 14 343 1 Q313 -12 273 -12 Q174 -12 129.5 44 Q85 100 85 226 L85 511 L155 511 L155 199 Q155 119 188.5 85 Q222 51 273 51 Q300 51 323 58 Q346 65 363.5 82 Q381 99 390.5 127 Q400 155 400 197 L400 511 L470 511 L470 0 L400 0 Z M312 576 L134 732 L241 732 L383 576 L312 576 Z " />
<glyph glyph-name="ucircumflex" unicode="&#xfb;" horiz-adv-x="560" d="M400 0 L400 49 Q373 14 343 1 Q313 -12 273 -12 Q174 -12 129.5 44 Q85 100 85 226 L85 511 L155 511 L155 199 Q155 119 188.5 85 Q222 51 273 51 Q300 51 323 58 Q346 65 363.5 82 Q381 99 390.5 127 Q400 155 400 197 L400 511 L470 511 L470 0 L400 0 Z M390 576 L274 677 L158 576 L93 576 L234 732 L314 732 L455 576 L390 576 Z " />
<glyph glyph-name="udieresis" unicode="&#xfc;" horiz-adv-x="560" d="M400 0 L400 49 Q373 14 343 1 Q313 -12 273 -12 Q174 -12 129.5 44 Q85 100 85 226 L85 511 L155 511 L155 199 Q155 119 188.5 85 Q222 51 273 51 Q300 51 323 58 Q346 65 363.5 82 Q381 99 390.5 127 Q400 155 400 197 L400 511 L470 511 L470 0 L400 0 Z M191 606 Q171 606 157.5 619.5 Q144 633 144 653 Q144 673 157.5 686.5 Q171 700 191 700 Q211 700 224.5 686.5 Q238 673 238 653 Q238 633 224.5 619.5 Q211 606 191 606 Z M357 606 Q337 606 323.5 619.5 Q310 633 310 653 Q310 673 323.5 686.5 Q337 700 357 700 Q377 700 390.5 686.5 Q404 673 404 653 Q404 633 390.5 619.5 Q377 606 357 606 Z " />
<glyph glyph-name="dagger" unicode="&#x2020;" horiz-adv-x="560" d="M302 457 L315 338 L284 -141 L279 -141 L243 338 L254 457 L115 438 L80 438 L80 506 L115 506 L251 486 L243 587 L243 712 L315 712 L315 587 L305 486 L443 506 L480 506 L480 438 L443 438 L302 457 Z " />
<glyph glyph-name="degree" unicode="&#xb0;" horiz-adv-x="418" d="M210 519 Q251 519 277 547 Q303 575 303 617 Q303 662 277 689 Q251 716 210 716 Q170 716 142 689 Q114 662 114 617 Q114 575 142 547 Q170 519 210 519 Z M210 450 Q174 450 143 462.5 Q112 475 89 497.5 Q66 520 53 550.5 Q40 581 40 617 Q40 653 53 683.5 Q66 714 89 736 Q112 758 143 770.5 Q174 783 210 783 Q245 783 276 770.5 Q307 758 329.5 736 Q352 714 365 683.5 Q378 653 378 617 Q378 581 365 550.5 Q352 520 329.5 497.5 Q307 475 276 462.5 Q245 450 210 450 Z " />
<glyph glyph-name="cent" unicode="&#xa2;" horiz-adv-x="511" d="M230 -12 L230 85 Q153 101 109 169 Q65 237 65 350 Q65 462 108.5 528.5 Q152 595 230 612 L230 712 L299 712 L299 615 Q351 610 387.5 585 Q424 560 443 508 L375 482 Q364 511 340 529.5 Q316 548 280 548 Q208 548 173 496 Q138 444 138 350 Q138 255 172 203 Q206 151 275 151 Q313 151 340.5 171.5 Q368 192 379 228 L446 204 Q413 92 299 83 L299 -12 L230 -12 Z " />
<glyph glyph-name="sterling" unicode="&#xa3;" horiz-adv-x="604" d="M95 0 L95 79 Q122 91 140 116 Q158 141 168.5 170.5 Q179 200 183 231 Q187 262 187 286 L187 300 L90 300 L90 357 L171 357 Q163 373 154 388.5 Q145 404 138 422 Q131 440 126.5 463.5 Q122 487 122 519 Q122 556 135.5 591 Q149 626 176.5 653 Q204 680 246.5 696 Q289 712 347 712 Q413 712 460 694 Q507 676 545 647 L518 583 Q507 592 492.5 602.5 Q478 613 457.5 622.5 Q437 632 410 638.5 Q383 645 347 645 Q308 645 279.5 633.5 Q251 622 233 604 Q215 586 206.5 563.5 Q198 541 198 518 Q198 489 205 466 Q212 443 221 423.5 Q230 404 238.5 388 Q247 372 250 357 L414 357 L414 300 L263 300 L263 289 Q263 161 157 65 L559 65 L559 0 L95 0 Z " />
<glyph glyph-name="section" unicode="&#xa7;" horiz-adv-x="543" d="M404 590 Q396 598 385 607 Q374 616 358 624 Q342 632 320 637 Q298 642 268 642 Q214 642 183 622.5 Q152 603 152 563 Q152 541 165 524.5 Q178 508 200.5 494.5 Q223 481 254 468.5 Q285 456 320 443 Q351 431 379.5 418.5 Q408 406 430 387.5 Q452 369 465 343 Q478 317 478 279 Q478 242 463 215 Q448 188 415 173 Q449 148 463.5 115.5 Q478 83 478 41 Q478 -37 423.5 -78.5 Q369 -120 275 -120 Q237 -120 203.5 -112.5 Q170 -105 143 -93 Q116 -81 96.5 -65.5 Q77 -50 65 -34 L118 13 Q125 4 138 -7 Q151 -18 170 -28 Q189 -38 214.5 -45 Q240 -52 272 -52 Q332 -52 368.5 -32.5 Q405 -13 405 38 Q405 68 385.5 89.5 Q366 111 337.5 126.5 Q309 142 277 153.5 Q245 165 219 176 Q190 188 164.5 200.5 Q139 213 119.5 229.5 Q100 246 88.5 267.5 Q77 289 77 321 Q77 362 98.5 390 Q120 418 152 429 Q116 449 96.5 484.5 Q77 520 77 568 Q77 602 92.5 629 Q108 656 134 674.5 Q160 693 194.5 702.5 Q229 712 268 712 Q306 712 336.5 704.5 Q367 697 390.5 685.5 Q414 674 430.5 660 Q447 646 458 633 L404 590 Z M405 276 Q405 299 391.5 316 Q378 333 355 346.5 Q332 360 301.5 371.5 Q271 383 236 395 Q197 389 174.5 369.5 Q152 350 152 321 Q152 297 170 280.5 Q188 264 216.5 251.5 Q245 239 280 228 Q315 217 350 204 Q376 215 390.5 232 Q405 249 405 276 Z " />
<glyph glyph-name="bullet" unicode="&#x2022;" horiz-adv-x="416" d="M207 223 Q178 223 154 233 Q130 243 112.5 260 Q95 277 85 300 Q75 323 75 350 Q75 377 85 400.5 Q95 424 112.5 441.5 Q130 459 154 469 Q178 479 207 479 Q235 479 259.5 469 Q284 459 302 441.5 Q320 424 330.5 400.5 Q341 377 341 350 Q341 323 330.5 300 Q320 277 302 260 Q284 243 259.5 233 Q235 223 207 223 Z " />
<glyph glyph-name="paragraph" unicode="&#xb6;" horiz-adv-x="633" d="M467 -134 L467 630 L365 630 L365 -168 L294 -200 L294 278 Q220 278 170.5 297.5 Q121 317 91 348 Q61 379 48 417 Q35 455 35 491 Q35 530 46.5 567.5 Q58 605 85 634.5 Q112 664 155.5 682 Q199 700 263 700 L538 700 L538 -102 L467 -134 Z " />
<glyph glyph-name="germandbls" unicode="&#xdf;" horiz-adv-x="566" d="M303 51 Q326 51 350 60 Q374 69 393.5 87.5 Q413 106 425.5 135 Q438 164 438 205 Q438 232 429.5 257.5 Q421 283 402 303.5 Q383 324 351.5 336 Q320 348 275 348 L271 348 L271 411 L275 411 Q332 411 367 437.5 Q402 464 402 526 Q402 583 371 616 Q340 649 278 649 Q252 649 228.5 639.5 Q205 630 187.5 609.5 Q170 589 160 557.5 Q150 526 150 481 L150 -167 L80 -203 L80 478 Q80 542 97.5 586.5 Q115 631 143 659 Q171 687 206.5 699.5 Q242 712 277 712 Q321 712 357.5 699 Q394 686 420 662 Q446 638 460.5 604 Q475 570 475 529 Q475 481 452.5 441 Q430 401 380 385 Q445 362 478 315.5 Q511 269 511 209 Q511 159 495 118 Q479 77 451 48 Q423 19 384.5 3.5 Q346 -12 301 -12 Q278 -12 257 -7.5 Q236 -3 222 4 L255 58 Q274 51 303 51 Z " />
<glyph glyph-name="registered" unicode="&#xae;" horiz-adv-x="874" d="M437 -12 Q360 -12 294 15.5 Q228 43 179 92 Q130 141 102.5 207 Q75 273 75 350 Q75 427 102.5 493 Q130 559 179 608 Q228 657 294 684.5 Q360 712 437 712 Q514 712 580 684.5 Q646 657 695 608 Q744 559 771.5 493 Q799 427 799 350 Q799 273 771.5 207 Q744 141 695 92 Q646 43 580 15.5 Q514 -12 437 -12 Z M437 42 Q503 42 558.5 65.5 Q614 89 654.5 130.5 Q695 172 717.5 228 Q740 284 740 350 Q740 416 717.5 472 Q695 528 654.5 569 Q614 610 558.5 633.5 Q503 657 437 657 Q371 657 315.5 633.5 Q260 610 219 569 Q178 528 155 472 Q132 416 132 350 Q132 284 155 228 Q178 172 219 130.5 Q260 89 315.5 65.5 Q371 42 437 42 Z M608 438 Q608 393 580.5 355.5 Q553 318 503 310 L605 137 L533 137 L438 309 L350 309 L350 137 L285 137 L285 560 L492 560 Q523 560 545.5 548 Q568 536 581.5 518 Q595 500 601.5 478.5 Q608 457 608 438 Z M494 365 Q517 365 531 386 Q545 407 545 436 Q545 446 542 457.5 Q539 469 532.5 478.5 Q526 488 516.5 494 Q507 500 494 500 L350 500 L350 365 L494 365 Z " />
<glyph glyph-name="copyright" unicode="&#xa9;" horiz-adv-x="874" d="M437 -12 Q360 -12 294 15.5 Q228 43 179 92 Q130 141 102.5 207 Q75 273 75 350 Q75 427 102.5 493 Q130 559 179 608 Q228 657 294 684.5 Q360 712 437 712 Q514 712 580 684.5 Q646 657 695 608 Q744 559 771.5 493 Q799 427 799 350 Q799 273 771.5 207 Q744 141 695 92 Q646 43 580 15.5 Q514 -12 437 -12 Z M437 42 Q503 42 558.5 65.5 Q614 89 654.5 130.5 Q695 172 717.5 228 Q740 284 740 350 Q740 416 717.5 472 Q695 528 654.5 569 Q614 610 558.5 633.5 Q503 657 437 657 Q371 657 315.5 633.5 Q260 610 219 569 Q178 528 155 472 Q132 416 132 350 Q132 284 155 228 Q178 172 219 130.5 Q260 89 315.5 65.5 Q371 42 437 42 Z M443 138 Q358 138 309.5 193.5 Q261 249 261 355 Q261 455 310.5 514 Q360 573 451 573 Q505 573 542.5 544 Q580 515 599 463 L536 437 Q526 466 503 487 Q480 508 442 508 Q409 508 387 497.5 Q365 487 352.5 467 Q340 447 334.5 419 Q329 391 329 355 Q329 277 353.5 239 Q378 201 445 201 Q480 201 508 219 Q536 237 545 282 L602 259 Q585 200 543 169 Q501 138 443 138 Z " />
<glyph glyph-name="trademark" unicode="&#x2122;" horiz-adv-x="786" d="M206 648 L206 278 L150 278 L150 648 L35 648 L35 700 L320 700 L320 648 L206 648 Z M645 278 L645 527 L532 262 L417 529 L417 278 L361 278 L361 700 L406 700 L531 399 L656 700 L701 700 L701 278 L645 278 Z " />
<glyph glyph-name="acute" unicode="&#xb4;" horiz-adv-x="335" d="M150 576 L79 576 L221 732 L328 732 L150 576 Z " />
<glyph glyph-name="dieresis" unicode="&#xa8;" horiz-adv-x="335" d="M86 606 Q66 606 52.5 619.5 Q39 633 39 653 Q39 673 52.5 686.5 Q66 700 86 700 Q106 700 119.5 686.5 Q133 673 133 653 Q133 633 119.5 619.5 Q106 606 86 606 Z M252 606 Q232 606 218.5 619.5 Q205 633 205 653 Q205 673 218.5 686.5 Q232 700 252 700 Q272 700 285.5 686.5 Q299 673 299 653 Q299 633 285.5 619.5 Q272 606 252 606 Z " />
<glyph glyph-name="notequal" unicode="&#x2260;" horiz-adv-x="660" d="M315 227 L265 123 L193 123 L243 227 L110 227 L110 299 L283 299 L328 386 L110 386 L110 458 L365 458 L411 546 L482 546 L436 458 L575 458 L575 386 L399 386 L353 299 L575 299 L575 227 L315 227 Z " />
<glyph glyph-name="AE" unicode="&#xc6;" horiz-adv-x="859" d="M425 0 L425 181 L166 181 L63 0 L-16 0 L391 700 L767 700 L767 633 L495 633 L495 395 L680 395 L680 329 L495 329 L495 67 L789 67 L789 0 L425 0 Z M425 243 L425 640 L201 243 L425 243 Z " />
<glyph glyph-name="Oslash" unicode="&#xd8;" horiz-adv-x="720" d="M573 614 Q615 561 632.5 491 Q650 421 650 350 Q650 285 635 220.5 Q620 156 586 104 Q552 52 496.5 20 Q441 -12 360 -12 Q306 -12 264 2.5 Q222 17 190 42 L154 -12 L82 -12 L147 86 Q105 139 87.5 208.5 Q70 278 70 350 Q70 415 85 479.5 Q100 544 134 596 Q168 648 223.5 680 Q279 712 360 712 Q413 712 454.5 697.5 Q496 683 528 658 L564 712 L638 712 L573 614 Z M360 51 Q420 51 461.5 78 Q503 105 528.5 148 Q554 191 565.5 244.5 Q577 298 577 350 Q577 406 566.5 458 Q556 510 531 552 L228 98 Q252 76 285 63.5 Q318 51 360 51 Z M143 350 Q143 294 153.5 242 Q164 190 188 148 L491 602 Q466 624 434 636.5 Q402 649 360 649 Q300 649 258.5 622 Q217 595 191.5 552 Q166 509 154.5 455.5 Q143 402 143 350 Z " />
<glyph glyph-name="infinity" unicode="&#x221e;" horiz-adv-x="1015" d="M740 128 Q694 128 658 141 Q622 154 594 177 Q566 200 544.5 231.5 Q523 263 507 301 Q490 265 468 233.5 Q446 202 418 178.5 Q390 155 355 141.5 Q320 128 275 128 Q228 128 187 143 Q146 158 115.5 187.5 Q85 217 67.5 259.5 Q50 302 50 357 Q50 412 67.5 455.5 Q85 499 115.5 528 Q146 557 187 572.5 Q228 588 275 588 Q320 588 355 574 Q390 560 418 536 Q446 512 468 480 Q490 448 507 412 Q524 450 545 482.5 Q566 515 593.5 538.5 Q621 562 656.5 575 Q692 588 738 588 Q786 588 827 572.5 Q868 557 899 528 Q930 499 947.5 455.5 Q965 412 965 357 Q965 302 947.5 259.5 Q930 217 899.5 187.5 Q869 158 828 143 Q787 128 740 128 Z M732 191 Q766 191 795.5 202 Q825 213 847 234.5 Q869 256 881 287 Q893 318 893 357 Q893 396 881 427.5 Q869 459 847 480.5 Q825 502 795.5 513.5 Q766 525 732 525 Q697 525 667.5 510.5 Q638 496 613.5 472.5 Q589 449 569 418.5 Q549 388 533 357 Q549 325 569 295 Q589 265 613.5 242 Q638 219 667.5 205 Q697 191 732 191 Z M283 191 Q318 191 347 205 Q376 219 400 242 Q424 265 444 295 Q464 325 480 357 Q464 388 444 418.5 Q424 449 400 472.5 Q376 496 347 510.5 Q318 525 283 525 Q248 525 218.5 513.5 Q189 502 167.5 480.5 Q146 459 133.5 427.5 Q121 396 121 357 Q121 318 133.5 287 Q146 256 167.5 234.5 Q189 213 218.5 202 Q248 191 283 191 Z " />
<glyph glyph-name="plusminus" unicode="&#xb1;" horiz-adv-x="660" d="M365 373 L365 205 L293 205 L293 373 L95 373 L95 440 L293 440 L293 608 L365 608 L365 440 L565 440 L565 373 L365 373 Z M95 0 L95 67 L565 67 L565 0 L95 0 Z " />
<glyph glyph-name="lessequal" unicode="&#x2264;" horiz-adv-x="660" d="M563 192 L95 361 L95 431 L563 602 L563 522 L185 397 L563 270 L563 192 Z M95 0 L95 67 L565 67 L565 0 L95 0 Z " />
<glyph glyph-name="greaterequal" unicode="&#x2265;" horiz-adv-x="660" d="M95 192 L95 270 L473 397 L95 522 L95 602 L563 431 L563 361 L95 192 Z M95 0 L95 67 L565 67 L565 0 L95 0 Z " />
<glyph glyph-name="yen" unicode="&#xa5;" horiz-adv-x="558" d="M311 309 L466 309 L466 249 L314 249 L314 183 L466 183 L466 123 L314 123 L314 0 L244 0 L244 123 L80 123 L80 183 L244 183 L244 249 L80 249 L80 309 L246 309 L30 700 L108 700 L278 376 L456 700 L528 700 L311 309 Z " />
<glyph glyph-name="mu" unicode="&#xb5;" horiz-adv-x="565" d="M405 0 L405 51 Q367 12 330.5 0 Q294 -12 265 -12 Q229 -12 205 0.5 Q181 13 160 49 L160 -166 L90 -200 L90 511 L160 511 L160 199 Q160 152 168 123 Q176 94 191.5 78 Q207 62 229 56.5 Q251 51 279 51 Q306 51 329 58 Q352 65 369 82 Q386 99 395.5 127 Q405 155 405 197 L405 511 L475 511 L475 0 L405 0 Z " />
<glyph glyph-name="partialdiff" unicode="&#x2202;" horiz-adv-x="596" d="M254 -12 Q206 -12 167.5 3 Q129 18 102 44 Q75 70 60 106 Q45 142 45 183 Q45 242 65 289 Q85 336 118 368.5 Q151 401 193.5 418 Q236 435 281 435 Q317 435 344.5 427 Q372 419 393 405 Q414 391 430 371.5 Q446 352 459 330 Q462 357 462 381 Q462 451 442.5 501 Q423 551 390.5 582.5 Q358 614 315.5 629.5 Q273 645 227 647 L243 712 Q319 703 373 674.5 Q427 646 461 598.5 Q495 551 510.5 484.5 Q526 418 526 333 Q526 265 511.5 203 Q497 141 464.5 93 Q432 45 380 16.5 Q328 -12 254 -12 Z M250 56 Q336 56 384.5 102 Q433 148 433 226 Q433 298 394.5 331.5 Q356 365 284 365 Q206 365 161 323 Q116 281 116 206 Q116 135 154 95.5 Q192 56 250 56 Z " />
<glyph glyph-name="summation" unicode="&#x2211;" horiz-adv-x="630" d="M60 -142 L60 -83 L331 288 L74 639 L74 698 L560 698 L560 630 L167 630 L418 290 L152 -73 L580 -73 L580 -142 L60 -142 Z " />
<glyph glyph-name="product" unicode="&#x220f;" horiz-adv-x="722" d="M545 -140 L545 630 L176 630 L176 -140 L105 -140 L105 700 L617 700 L617 -140 L545 -140 Z " />
<glyph glyph-name="pi" unicode="&#x3c0;" horiz-adv-x="679" d="M513 -12 Q460 -12 436 21.5 Q412 55 412 105 L412 436 L245 436 L245 373 Q245 303 240.5 241 Q236 179 222.5 128.5 Q209 78 184 40 Q159 2 118 -20 L57 27 Q80 41 102 60 Q124 79 141 112.5 Q158 146 168 198 Q178 250 178 330 L178 436 L78 436 L78 511 L613 511 L613 436 L483 436 L483 137 Q483 120 484.5 105 Q486 90 491.5 79 Q497 68 508 61 Q519 54 538 54 Q558 54 577.5 62 Q597 70 615 84 L607 11 Q587 0 565.5 -6 Q544 -12 513 -12 Z " />
<glyph glyph-name="integral" unicode="&#x222b;" horiz-adv-x="437" d="M148 -140 Q113 -140 91.5 -133 Q70 -126 55 -118 L55 -66 Q69 -71 87 -75.5 Q105 -80 128 -80 Q146 -80 157 -75 Q168 -70 174 -61.5 Q180 -53 181.5 -42.5 Q183 -32 183 -21 L183 598 Q183 629 191 651 Q199 673 213.5 686.5 Q228 700 247 706 Q266 712 288 712 Q322 712 343.5 704.5 Q365 697 382 688 L382 636 Q367 641 349 646.5 Q331 652 309 652 Q291 652 280 646.5 Q269 641 263 632.5 Q257 624 255.5 613 Q254 602 254 591 L254 -26 Q254 -58 246 -80 Q238 -102 223.5 -115.5 Q209 -129 189.5 -134.5 Q170 -140 148 -140 Z " />
<glyph glyph-name="ordfeminine" unicode="&#xaa;" horiz-adv-x="462" d="M324 283 L324 313 Q314 305 300 298 Q286 291 270 285.5 Q254 280 237 276.5 Q220 273 204 273 Q136 273 93 309 Q50 345 50 416 Q50 452 65 478 Q80 504 104 521.5 Q128 539 157.5 547.5 Q187 556 216 556 Q241 556 271 549.5 Q301 543 324 533 L324 547 Q324 606 300.5 628 Q277 650 223 650 Q185 650 156 640 Q127 630 107 614 L89 673 Q112 690 148.5 701 Q185 712 233 712 Q260 712 288 707.5 Q316 703 339.5 687 Q363 671 377.5 640 Q392 609 392 557 L392 283 L324 283 Z M212 332 Q242 332 274 346.5 Q306 361 324 378 L324 470 Q303 481 274 488.5 Q245 496 223 496 Q204 496 186 491.5 Q168 487 153.5 477.5 Q139 468 130.5 452.5 Q122 437 122 416 Q122 377 146.5 354.5 Q171 332 212 332 Z " />
<glyph glyph-name="ordmasculine" unicode="&#xba;" horiz-adv-x="469" d="M234 272 Q147 272 96 329 Q45 386 45 492 Q45 596 96 654 Q147 712 234 712 Q322 712 373 654 Q424 596 424 492 Q424 386 373 329 Q322 272 234 272 Z M234 337 Q294 337 324 377 Q354 417 354 492 Q354 567 324 607 Q294 647 234 647 Q179 647 147 607 Q115 567 115 492 Q115 417 147 377 Q179 337 234 337 Z " />
<glyph glyph-name="ae" unicode="&#xe6;" horiz-adv-x="849" d="M596 -12 Q538 -12 492 16 Q446 44 418 91 Q400 64 377.5 44.5 Q355 25 330.5 12.5 Q306 0 281 -6 Q256 -12 234 -12 Q157 -12 108.5 31.5 Q60 75 60 161 Q60 204 75 236 Q90 268 115.5 289 Q141 310 174.5 320 Q208 330 246 330 Q278 330 312 322 Q346 314 384 294 L384 337 Q384 405 354.5 433.5 Q325 462 272 462 Q253 462 232 457 Q211 452 191 444 Q171 436 152.5 426.5 Q134 417 120 407 L100 467 Q131 487 179 505 Q227 523 279 523 Q334 523 371.5 502 Q409 481 428 444 Q463 488 507.5 505.5 Q552 523 596 523 Q641 523 678.5 507 Q716 491 742.5 460 Q769 429 784 382.5 Q799 336 799 276 Q799 268 799 256 Q799 244 797 227 L449 227 Q459 142 499 97.5 Q539 53 599 53 Q627 53 656.5 62 Q686 71 715 93 L753 46 Q726 24 686 6 Q646 -12 596 -12 Z M597 460 Q535 460 493.5 419 Q452 378 447 290 L728 290 Q728 342 715 375 Q702 408 682 427 Q662 446 639 453 Q616 460 597 460 Z M241 49 Q264 49 285 56 Q306 63 324 74 Q342 85 357 99.5 Q372 114 384 128 L384 227 Q359 244 322.5 256.5 Q286 269 253 269 Q227 269 204 262.5 Q181 256 163.5 242.5 Q146 229 135.5 209 Q125 189 125 161 Q125 110 155 79.5 Q185 49 241 49 Z " />
<glyph glyph-name="oslash" unicode="&#xf8;" horiz-adv-x="548" d="M439 446 Q465 412 479 364 Q493 316 493 256 Q493 193 477.5 143 Q462 93 433.5 58.5 Q405 24 364.5 6 Q324 -12 275 -12 Q200 -12 148 27 L120 -12 L55 -12 L109 66 Q55 135 55 255 Q55 318 71 367.5 Q87 417 116 451.5 Q145 486 185.5 504.5 Q226 523 275 523 Q346 523 399 485 L426 523 L492 523 L439 446 Z M275 51 Q345 51 382.5 105 Q420 159 420 256 Q420 332 395 384 L186 82 Q222 51 275 51 Z M128 255 Q128 177 152 128 L361 430 Q325 460 275 460 Q203 460 165.5 407.5 Q128 355 128 255 Z " />
<glyph glyph-name="questiondown" unicode="&#xbf;" horiz-adv-x="526" d="M309 320 Q309 271 295 238 Q281 205 260 181 Q239 157 215 138.5 Q191 120 170 100 Q149 80 135 54.5 Q121 29 121 -9 Q121 -65 156.5 -101 Q192 -137 259 -137 Q335 -137 377 -95 Q419 -53 419 22 L491 22 Q491 -28 474 -69 Q457 -110 426 -139 Q395 -168 352.5 -184 Q310 -200 259 -200 Q208 -200 169 -185.5 Q130 -171 103.5 -145.5 Q77 -120 63.5 -85 Q50 -50 50 -9 Q50 31 64 59.5 Q78 88 98.5 111 Q119 134 143.5 153.5 Q168 173 189 196 Q210 219 224 248.5 Q238 278 238 320 L309 320 Z M276 398 Q249 398 231.5 416 Q214 434 214 459 Q214 483 231.5 503 Q249 523 276 523 Q289 523 301 517.5 Q313 512 322 503 Q331 494 336.5 482.5 Q342 471 342 459 Q342 434 322 416 Q302 398 276 398 Z " />
<glyph glyph-name="exclamdown" unicode="&#xa1;" horiz-adv-x="265" d="M139 316 L169 14 L169 -200 L97 -200 L97 14 L128 316 L139 316 Z M135 523 Q162 523 180 503.5 Q198 484 198 460 Q198 436 180 416.5 Q162 397 135 397 Q108 397 90 416.5 Q72 436 72 460 Q72 484 90 503.5 Q108 523 135 523 Z " />
<glyph glyph-name="logicalnot" unicode="&#xac;" horiz-adv-x="660" d="M493 176 L493 396 L95 396 L95 463 L565 463 L565 176 L493 176 Z " />
<glyph glyph-name="radical" unicode="&#x221a;" horiz-adv-x="558" d="M513 700 L301 0 L230 0 L60 327 L130 327 L260 77 L439 700 L513 700 Z " />
<glyph glyph-name="florin" unicode="&#x192;" horiz-adv-x="368" d="M18 -158 Q54 -155 78 -146 Q102 -137 115.5 -124 Q129 -111 134.5 -94.5 Q140 -78 140 -60 L140 448 L58 448 L58 511 L140 511 L140 598 Q140 629 149 651 Q158 673 173 686.5 Q188 700 207 706 Q226 712 246 712 Q275 712 296 704.5 Q317 697 333 688 L333 627 Q319 635 301 641 Q283 647 260 647 Q242 647 232 642 Q222 637 217 628.5 Q212 620 211 609 Q210 598 210 587 L210 511 L333 511 L333 448 L210 448 L210 -32 Q210 -83 196 -117 Q182 -151 159.5 -171.5 Q137 -192 108.5 -201.5 Q80 -211 50 -213 L18 -158 Z " />
<glyph glyph-name="approxequal" unicode="&#x2248;" horiz-adv-x="660" d="M439 367 Q408 367 378.5 377 Q349 387 321.5 398.5 Q294 410 267 420 Q240 430 215 430 Q182 430 160.5 412.5 Q139 395 137 367 L97 367 Q97 392 103.5 415.5 Q110 439 125 456.5 Q140 474 163.5 484.5 Q187 495 221 495 Q253 495 283 485 Q313 475 341 463.5 Q369 452 395 442 Q421 432 445 432 Q478 432 499.5 450 Q521 468 523 495 L563 495 Q563 469 556 446 Q549 423 534 405.5 Q519 388 495.5 377.5 Q472 367 439 367 Z M439 190 Q408 190 378.5 200 Q349 210 321.5 221.5 Q294 233 267 243 Q240 253 215 253 Q182 253 160.5 236 Q139 219 137 190 L97 190 Q97 215 103.5 238.5 Q110 262 125 280 Q140 298 163.5 309 Q187 320 221 320 Q253 320 283 310 Q313 300 341 288.5 Q369 277 395 267 Q421 257 445 257 Q478 257 499.5 274.5 Q521 292 523 320 L563 320 Q563 294 556 270.5 Q549 247 534 229 Q519 211 495.5 200.5 Q472 190 439 190 Z " />
<glyph glyph-name="Delta" unicode="&#x2206;" horiz-adv-x="662" d="M60 0 L303 700 L357 700 L602 0 L60 0 Z M330 579 L155 65 L508 65 L330 579 Z " />
<glyph glyph-name="guillemotleft" unicode="&#xab;" horiz-adv-x="506" d="M197 0 L45 256 L197 511 L275 511 L123 256 L275 0 L197 0 Z M396 0 L244 256 L396 511 L476 511 L324 256 L476 0 L396 0 Z " />
<glyph glyph-name="guillemotright" unicode="&#xbb;" horiz-adv-x="506" d="M229 0 L381 256 L229 511 L309 511 L461 256 L309 0 L229 0 Z M30 0 L182 256 L30 511 L108 511 L260 256 L108 0 L30 0 Z " />
<glyph glyph-name="ellipsis" unicode="&#x2026;" horiz-adv-x="949" d="M168 -14 Q141 -14 123 5.5 Q105 25 105 49 Q105 73 123 92.5 Q141 112 168 112 Q195 112 213 92.5 Q231 73 231 49 Q231 25 213 5.5 Q195 -14 168 -14 Z M474 -14 Q447 -14 429 5.5 Q411 25 411 49 Q411 73 429 92.5 Q447 112 474 112 Q501 112 519 92.5 Q537 73 537 49 Q537 25 519 5.5 Q501 -14 474 -14 Z M781 -14 Q754 -14 736 5.5 Q718 25 718 49 Q718 73 736 92.5 Q754 112 781 112 Q808 112 826 92.5 Q844 73 844 49 Q844 25 826 5.5 Q808 -14 781 -14 Z " />
<glyph glyph-name="Agrave" unicode="&#xc0;" horiz-adv-x="662" d="M531 0 L467 181 L194 181 L133 0 L60 0 L303 700 L357 700 L602 0 L531 0 Z M446 243 L350 523 Q345 536 338.5 556 Q332 576 330 586 Q327 576 321.5 556 Q316 536 311 523 L215 243 L446 243 Z M363 766 L185 922 L292 922 L434 766 L363 766 Z " />
<glyph glyph-name="Atilde" unicode="&#xc3;" horiz-adv-x="662" d="M531 0 L467 181 L194 181 L133 0 L60 0 L303 700 L357 700 L602 0 L531 0 Z M446 243 L350 523 Q345 536 338.5 556 Q332 576 330 586 Q327 576 321.5 556 Q316 536 311 523 L215 243 L446 243 Z M410 792 Q383 792 361 800 Q339 808 319.5 817 Q300 826 282 834 Q264 842 245 842 Q226 842 213 830.5 Q200 819 198 796 L159 796 Q159 849 181.5 877.5 Q204 906 252 906 Q279 906 301 898 Q323 890 342.5 880.5 Q362 871 380 863 Q398 855 417 855 Q436 855 449 867 Q462 879 464 902 L502 902 Q502 849 480 820.5 Q458 792 410 792 Z " />
<glyph glyph-name="Otilde" unicode="&#xd5;" horiz-adv-x="720" d="M360 51 Q420 51 461.5 78 Q503 105 528.5 148 Q554 191 565.5 244.5 Q577 298 577 350 Q577 407 565.5 461 Q554 515 528.5 556.5 Q503 598 461.5 623.5 Q420 649 360 649 Q300 649 258.5 622 Q217 595 191.5 552 Q166 509 154.5 455.5 Q143 402 143 350 Q143 293 154.5 239 Q166 185 191.5 143.5 Q217 102 258.5 76.5 Q300 51 360 51 Z M360 -12 Q279 -12 223.5 20 Q168 52 134 104 Q100 156 85 220.5 Q70 285 70 350 Q70 415 85 479.5 Q100 544 134 596 Q168 648 223.5 680 Q279 712 360 712 Q441 712 496.5 680 Q552 648 586 596 Q620 544 635 479.5 Q650 415 650 350 Q650 285 635 220.5 Q620 156 586 104 Q552 52 496.5 20 Q441 -12 360 -12 Z M440 792 Q413 792 391 800 Q369 808 349.5 817 Q330 826 312 834 Q294 842 275 842 Q256 842 243 830.5 Q230 819 228 796 L189 796 Q189 849 211.5 877.5 Q234 906 282 906 Q309 906 331 898 Q353 890 372.5 880.5 Q392 871 410 863 Q428 855 447 855 Q466 855 479 867 Q492 879 494 902 L532 902 Q532 849 510 820.5 Q488 792 440 792 Z " />
<glyph glyph-name="OE" unicode="&#x152;" horiz-adv-x="909" d="M450 0 Q409 -12 360 -12 Q279 -12 223.5 20 Q168 52 134 103.5 Q100 155 85 219.5 Q70 284 70 350 Q70 416 85 481 Q100 546 134.5 597 Q169 648 224 680 Q279 712 360 712 Q387 712 408 709 Q429 706 449 700 L817 700 L817 633 L545 633 L545 395 L730 395 L730 329 L545 329 L545 67 L839 67 L839 0 L450 0 Z M360 51 Q394 51 422 60 Q450 69 475 85 L475 615 Q426 649 360 649 Q300 649 258.5 622 Q217 595 191.5 552 Q166 509 154.5 455.5 Q143 402 143 350 Q143 292 154.5 238 Q166 184 191.5 142.5 Q217 101 258.5 76 Q300 51 360 51 Z " />
<glyph glyph-name="oe" unicode="&#x153;" horiz-adv-x="894" d="M641 -12 Q578 -12 532.5 19 Q487 50 460 100 Q433 49 387 18.5 Q341 -12 275 -12 Q175 -12 115 57.5 Q55 127 55 255 Q55 318 70.5 367.5 Q86 417 115 451.5 Q144 486 184.5 504.5 Q225 523 275 523 Q340 523 384.5 495 Q429 467 458 417 Q487 470 534.5 496.5 Q582 523 641 523 Q682 523 719 508.5 Q756 494 783.5 464 Q811 434 827.5 387 Q844 340 844 276 Q844 268 844 256 Q844 244 842 227 L494 227 Q503 149 541 101 Q579 53 644 53 Q673 53 702 62 Q731 71 760 93 L798 46 Q769 22 728 5 Q687 -12 641 -12 Z M275 51 Q344 51 382 105 Q420 159 420 256 Q420 352 383 406 Q346 460 275 460 Q203 460 165.5 407.5 Q128 355 128 255 Q128 159 165.5 105 Q203 51 275 51 Z M641 460 Q580 460 538.5 419 Q497 378 492 290 L773 290 Q773 342 760 375 Q747 408 727.5 427 Q708 446 685 453 Q662 460 641 460 Z " />
<glyph glyph-name="endash" unicode="&#x2013;" horiz-adv-x="525" d="M65 257 L65 317 L460 317 L460 257 L65 257 Z " />
<glyph glyph-name="emdash" unicode="&#x2014;" horiz-adv-x="605" d="M10 257 L10 317 L595 317 L595 257 L10 257 Z " />
<glyph glyph-name="quotedblleft" unicode="&#x201c;" horiz-adv-x="422" d="M153 707 Q146 701 137.5 690.5 Q129 680 121.5 665 Q114 650 108.5 631 Q103 612 103 590 Q135 590 155.5 572.5 Q176 555 176 528 Q176 497 158 479.5 Q140 462 115 462 Q102 462 89 467 Q76 472 66 482 Q56 492 49.5 508 Q43 524 43 546 Q43 603 69 645.5 Q95 688 134 712 L153 707 Z M349 707 Q342 701 333.5 690.5 Q325 680 317.5 665 Q310 650 304.5 631 Q299 612 299 590 Q331 590 351.5 572.5 Q372 555 372 528 Q372 497 354 479.5 Q336 462 311 462 Q298 462 285 467 Q272 472 262 482 Q252 492 245.5 508 Q239 524 239 546 Q239 603 265 645.5 Q291 688 330 712 L349 707 Z " />
<glyph glyph-name="quotedblright" unicode="&#x201d;" horiz-adv-x="422" d="M73 467 Q80 473 88.5 483.5 Q97 494 104.5 509 Q112 524 117.5 543 Q123 562 123 584 Q91 584 70.5 601.5 Q50 619 50 646 Q50 677 68 694.5 Q86 712 111 712 Q124 712 137 707 Q150 702 160 692 Q170 682 176.5 666 Q183 650 183 628 Q183 571 157 528.5 Q131 486 92 462 L73 467 Z M269 467 Q276 473 284.5 483.5 Q293 494 300.5 509 Q308 524 313.5 543 Q319 562 319 584 Q287 584 266.5 601.5 Q246 619 246 646 Q246 677 264 694.5 Q282 712 307 712 Q320 712 333 707 Q346 702 356 692 Q366 682 372.5 666 Q379 650 379 628 Q379 571 353 528.5 Q327 486 288 462 L269 467 Z " />
<glyph glyph-name="quoteleft" unicode="&#x2018;" horiz-adv-x="226" d="M153 707 Q146 701 137.5 690.5 Q129 680 121.5 665 Q114 650 108.5 631 Q103 612 103 590 Q135 590 155.5 572.5 Q176 555 176 528 Q176 497 158 479.5 Q140 462 115 462 Q102 462 89 467 Q76 472 66 482 Q56 492 49.5 508 Q43 524 43 546 Q43 603 69 645.5 Q95 688 134 712 L153 707 Z " />
<glyph glyph-name="quoteright" unicode="&#x2019;" horiz-adv-x="226" d="M73 467 Q80 473 88.5 483.5 Q97 494 104.5 509 Q112 524 117.5 543 Q123 562 123 584 Q91 584 70.5 601.5 Q50 619 50 646 Q50 677 68 694.5 Q86 712 111 712 Q124 712 137 707 Q150 702 160 692 Q170 682 176.5 666 Q183 650 183 628 Q183 571 157 528.5 Q131 486 92 462 L73 467 Z " />
<glyph glyph-name="divide" unicode="&#xf7;" horiz-adv-x="660" d="M95 308 L95 376 L565 376 L565 308 L95 308 Z M327 501 Q306 501 292.5 515 Q279 529 279 549 Q279 568 292.5 583 Q306 598 327 598 Q349 598 363.5 583 Q378 568 378 549 Q378 529 363.5 515 Q349 501 327 501 Z M327 88 Q306 88 292.5 101 Q279 114 279 134 Q279 154 292.5 168.5 Q306 183 327 183 Q349 183 363.5 168.5 Q378 154 378 134 Q378 114 363.5 101 Q349 88 327 88 Z " />
<glyph glyph-name="lozenge" unicode="&#x25ca;" horiz-adv-x="620" d="M273 -12 L71 350 L273 712 L349 712 L551 350 L349 -12 L273 -12 Z M311 665 L137 350 L311 35 L485 350 L311 665 Z " />
<glyph glyph-name="ydieresis" unicode="&#xff;" horiz-adv-x="511" d="M217 16 L30 511 L101 511 L247 99 L396 511 L471 511 L210 -194 L141 -194 L217 16 Z M164 606 Q144 606 130.5 619.5 Q117 633 117 653 Q117 673 130.5 686.5 Q144 700 164 700 Q184 700 197.5 686.5 Q211 673 211 653 Q211 633 197.5 619.5 Q184 606 164 606 Z M330 606 Q310 606 296.5 619.5 Q283 633 283 653 Q283 673 296.5 686.5 Q310 700 330 700 Q350 700 363.5 686.5 Q377 673 377 653 Q377 633 363.5 619.5 Q350 606 330 606 Z " />
<glyph glyph-name="Ydieresis" unicode="&#x178;" horiz-adv-x="616" d="M274 0 L274 275 L45 700 L122 700 L308 340 L499 700 L571 700 L344 278 L344 0 L274 0 Z M225 796 Q205 796 191.5 809.5 Q178 823 178 843 Q178 863 191.5 876.5 Q205 890 225 890 Q245 890 258.5 876.5 Q272 863 272 843 Q272 823 258.5 809.5 Q245 796 225 796 Z M391 796 Q371 796 357.5 809.5 Q344 823 344 843 Q344 863 357.5 876.5 Q371 890 391 890 Q411 890 424.5 876.5 Q438 863 438 843 Q438 823 424.5 809.5 Q411 796 391 796 Z " />
<glyph glyph-name="fraction" unicode="&#x2044;" horiz-adv-x="325" d="M-111 -12 L367 712 L436 712 L-42 -12 L-111 -12 Z " />
<glyph glyph-name="Euro" unicode="&#x20ac;" horiz-adv-x="608" d="M369 -12 Q310 -12 266.5 6.5 Q223 25 192.5 58 Q162 91 144 135.5 Q126 180 117 232 L45 232 L72 290 L110 290 Q108 304 108 318.5 Q108 333 108 348 Q108 360 108 372 Q108 384 109 396 L45 396 L72 454 L117 454 Q126 505 145.5 551.5 Q165 598 197 633.5 Q229 669 274 690.5 Q319 712 380 712 Q426 712 467.5 700 Q509 688 544 665 L517 601 Q492 622 457 634.5 Q422 647 378 647 Q334 647 302 631 Q270 615 248 588.5 Q226 562 213 527 Q200 492 193 454 L456 454 L432 396 L185 396 Q183 379 183 362.5 Q183 346 183 331 Q183 321 183 311 Q183 301 185 290 L388 290 L364 232 L194 232 Q201 198 215 165.5 Q229 133 250 108 Q271 83 300 68 Q329 53 367 53 Q416 53 452 73 Q488 93 512 125 L568 90 Q556 71 537.5 53 Q519 35 494 20.5 Q469 6 437.5 -3 Q406 -12 369 -12 Z " />
<glyph glyph-name="guilsinglleft" unicode="&#x2039;" horiz-adv-x="305" d="M197 0 L45 256 L197 511 L275 511 L123 256 L275 0 L197 0 Z " />
<glyph glyph-name="guilsinglright" unicode="&#x203a;" horiz-adv-x="305" d="M30 0 L182 256 L30 511 L108 511 L260 256 L108 0 L30 0 Z " />
<glyph glyph-name="fi" unicode="&#xfb01;" horiz-adv-x="586" d="M177 448 L177 0 L107 0 L107 448 L25 448 L25 511 L107 511 L107 598 Q107 629 116 651 Q125 673 140 686.5 Q155 700 174 706 Q193 712 213 712 Q242 712 262.5 704.5 Q283 697 300 688 L300 627 Q284 635 266.5 641 Q249 647 227 647 Q209 647 198.5 641.5 Q188 636 183.5 627.5 Q179 619 178 608 Q177 597 177 587 L177 511 L300 511 L300 448 L177 448 Z M425 0 L425 511 L495 511 L495 0 L425 0 Z M460 616 Q440 616 427 629 Q414 642 414 662 Q414 682 427 696 Q440 710 460 710 Q480 710 493 696 Q506 682 506 662 Q506 642 493 629 Q480 616 460 616 Z " />
<glyph glyph-name="fl" unicode="&#xfb02;" horiz-adv-x="590" d="M177 448 L177 0 L107 0 L107 448 L25 448 L25 511 L107 511 L107 598 Q107 629 116 651 Q125 673 140 686.5 Q155 700 174 706 Q193 712 213 712 Q242 712 262.5 704.5 Q283 697 300 688 L300 627 Q284 635 266.5 641 Q249 647 227 647 Q209 647 198.5 641.5 Q188 636 183.5 627.5 Q179 619 178 608 Q177 597 177 587 L177 511 L300 511 L300 448 L177 448 Z M425 0 L425 688 L495 722 L495 0 L425 0 Z " />
<glyph glyph-name="daggerdbl" unicode="&#x2021;" horiz-adv-x="560" d="M443 133 L480 133 L480 63 L443 63 L305 85 L315 -16 L315 -141 L243 -141 L243 -16 L251 85 L115 63 L80 63 L80 133 L115 133 L254 112 L243 232 L243 338 L254 457 L115 438 L80 438 L80 506 L115 506 L251 486 L243 587 L243 712 L315 712 L315 587 L305 486 L443 506 L480 506 L480 438 L443 438 L302 457 L315 338 L315 232 L302 112 L443 133 Z " />
<glyph glyph-name="periodcentered" unicode="&#xb7;" horiz-adv-x="226" d="M113 286 Q86 286 68 305.5 Q50 325 50 349 Q50 373 68 392.5 Q86 412 113 412 Q140 412 158 392.5 Q176 373 176 349 Q176 325 158 305.5 Q140 286 113 286 Z " />
<glyph glyph-name="quotesinglbase" unicode="&#x201a;" horiz-adv-x="226" d="M73 -136 Q80 -130 88.5 -119.5 Q97 -109 104.5 -94 Q112 -79 117.5 -60 Q123 -41 123 -19 Q91 -19 70.5 -1.5 Q50 16 50 43 Q50 74 68 91.5 Q86 109 111 109 Q124 109 137 104 Q150 99 160 89 Q170 79 176.5 63 Q183 47 183 25 Q183 -32 157 -74.5 Q131 -117 92 -141 L73 -136 Z " />
<glyph glyph-name="quotedblbase" unicode="&#x201e;" horiz-adv-x="422" d="M73 -136 Q80 -130 88.5 -119.5 Q97 -109 104.5 -94 Q112 -79 117.5 -60 Q123 -41 123 -19 Q91 -19 70.5 -1.5 Q50 16 50 43 Q50 74 68 91.5 Q86 109 111 109 Q124 109 137 104 Q150 99 160 89 Q170 79 176.5 63 Q183 47 183 25 Q183 -32 157 -74.5 Q131 -117 92 -141 L73 -136 Z M269 -136 Q276 -130 284.5 -119.5 Q293 -109 300.5 -94 Q308 -79 313.5 -60 Q319 -41 319 -19 Q287 -19 266.5 -1.5 Q246 16 246 43 Q246 74 264 91.5 Q282 109 307 109 Q320 109 333 104 Q346 99 356 89 Q366 79 372.5 63 Q379 47 379 25 Q379 -32 353 -74.5 Q327 -117 288 -141 L269 -136 Z " />
<glyph glyph-name="perthousand" unicode="&#x2030;" horiz-adv-x="1271" d="M216 356 Q173 356 143 372 Q113 388 94.5 413.5 Q76 439 67.5 470.5 Q59 502 59 534 Q59 562 67 593.5 Q75 625 94 651 Q113 677 142.5 694.5 Q172 712 216 712 Q259 712 289 696 Q319 680 337.5 654.5 Q356 629 364.5 597.5 Q373 566 373 534 Q373 505 365 473.5 Q357 442 338.5 416 Q320 390 290 373 Q260 356 216 356 Z M216 414 Q239 414 256.5 423.5 Q274 433 285.5 449.5 Q297 466 302.5 488 Q308 510 308 534 Q308 588 285 621 Q262 654 216 654 Q192 654 174.5 644.5 Q157 635 146 618.5 Q135 602 129.5 580 Q124 558 124 534 Q124 482 146 448 Q168 414 216 414 Z M241 -12 L169 -12 L647 712 L719 712 L241 -12 Z M672 -12 Q629 -12 599 4 Q569 20 550.5 45.5 Q532 71 523.5 102.5 Q515 134 515 166 Q515 194 523 225.5 Q531 257 550 283 Q569 309 598.5 326.5 Q628 344 672 344 Q715 344 745 328 Q775 312 793.5 286.5 Q812 261 820.5 229.5 Q829 198 829 166 Q829 137 821 105.5 Q813 74 794.5 48 Q776 22 746 5 Q716 -12 672 -12 Z M672 46 Q695 46 712.5 55.5 Q730 65 741.5 81.5 Q753 98 758.5 120 Q764 142 764 166 Q764 220 741 253 Q718 286 672 286 Q648 286 630.5 276.5 Q613 267 602 250.5 Q591 234 585.5 212 Q580 190 580 166 Q580 114 602 80 Q624 46 672 46 Z M1054 -12 Q1011 -12 981 4 Q951 20 932.5 45.5 Q914 71 905.5 102.5 Q897 134 897 166 Q897 194 905 225.5 Q913 257 932 283 Q951 309 980.5 326.5 Q1010 344 1054 344 Q1097 344 1127 328 Q1157 312 1175.5 286.5 Q1194 261 1202.5 229.5 Q1211 198 1211 166 Q1211 137 1203 105.5 Q1195 74 1176.5 48 Q1158 22 1128 5 Q1098 -12 1054 -12 Z M1054 46 Q1077 46 1094.5 55.5 Q1112 65 1123.5 81.5 Q1135 98 1140.5 120 Q1146 142 1146 166 Q1146 220 1123 253 Q1100 286 1054 286 Q1030 286 1012.5 276.5 Q995 267 984 250.5 Q973 234 967.5 212 Q962 190 962 166 Q962 114 984 80 Q1006 46 1054 46 Z " />
<glyph glyph-name="Acircumflex" unicode="&#xc2;" horiz-adv-x="662" d="M531 0 L467 181 L194 181 L133 0 L60 0 L303 700 L357 700 L602 0 L531 0 Z M446 243 L350 523 Q345 536 338.5 556 Q332 576 330 586 Q327 576 321.5 556 Q316 536 311 523 L215 243 L446 243 Z M446 766 L330 867 L214 766 L149 766 L290 922 L370 922 L511 766 L446 766 Z " />
<glyph glyph-name="Ecircumflex" unicode="&#xca;" horiz-adv-x="596" d="M105 0 L105 700 L504 700 L504 633 L175 633 L175 395 L397 395 L397 329 L175 329 L175 67 L526 67 L526 0 L105 0 Z M421 766 L305 867 L189 766 L124 766 L265 922 L345 922 L486 766 L421 766 Z " />
<glyph glyph-name="Aacute" unicode="&#xc1;" horiz-adv-x="662" d="M531 0 L467 181 L194 181 L133 0 L60 0 L303 700 L357 700 L602 0 L531 0 Z M446 243 L350 523 Q345 536 338.5 556 Q332 576 330 586 Q327 576 321.5 556 Q316 536 311 523 L215 243 L446 243 Z M293 766 L222 766 L364 922 L471 922 L293 766 Z " />
<glyph glyph-name="Edieresis" unicode="&#xcb;" horiz-adv-x="596" d="M105 0 L105 700 L504 700 L504 633 L175 633 L175 395 L397 395 L397 329 L175 329 L175 67 L526 67 L526 0 L105 0 Z M196 796 Q176 796 162.5 809.5 Q149 823 149 843 Q149 863 162.5 876.5 Q176 890 196 890 Q216 890 229.5 876.5 Q243 863 243 843 Q243 823 229.5 809.5 Q216 796 196 796 Z M362 796 Q342 796 328.5 809.5 Q315 823 315 843 Q315 863 328.5 876.5 Q342 890 362 890 Q382 890 395.5 876.5 Q409 863 409 843 Q409 823 395.5 809.5 Q382 796 362 796 Z " />
<glyph glyph-name="Egrave" unicode="&#xc8;" horiz-adv-x="596" d="M105 0 L105 700 L504 700 L504 633 L175 633 L175 395 L397 395 L397 329 L175 329 L175 67 L526 67 L526 0 L105 0 Z M295 766 L117 922 L224 922 L366 766 L295 766 Z " />
<glyph glyph-name="Iacute" unicode="&#xcd;" horiz-adv-x="280" d="M105 0 L105 700 L175 700 L175 0 L105 0 Z M100 766 L29 766 L171 922 L278 922 L100 766 Z " />
<glyph glyph-name="Icircumflex" unicode="&#xce;" horiz-adv-x="280" d="M105 0 L105 700 L175 700 L175 0 L105 0 Z M255 766 L139 867 L23 766 L-42 766 L99 922 L179 922 L320 766 L255 766 Z " />
<glyph glyph-name="Idieresis" unicode="&#xcf;" horiz-adv-x="280" d="M105 0 L105 700 L175 700 L175 0 L105 0 Z M56 796 Q36 796 22.5 809.5 Q9 823 9 843 Q9 863 22.5 876.5 Q36 890 56 890 Q76 890 89.5 876.5 Q103 863 103 843 Q103 823 89.5 809.5 Q76 796 56 796 Z M222 796 Q202 796 188.5 809.5 Q175 823 175 843 Q175 863 188.5 876.5 Q202 890 222 890 Q242 890 255.5 876.5 Q269 863 269 843 Q269 823 255.5 809.5 Q242 796 222 796 Z " />
<glyph glyph-name="Igrave" unicode="&#xcc;" horiz-adv-x="280" d="M105 0 L105 700 L175 700 L175 0 L105 0 Z M175 766 L-3 922 L104 922 L246 766 L175 766 Z " />
<glyph glyph-name="Oacute" unicode="&#xd3;" horiz-adv-x="720" d="M360 51 Q420 51 461.5 78 Q503 105 528.5 148 Q554 191 565.5 244.5 Q577 298 577 350 Q577 407 565.5 461 Q554 515 528.5 556.5 Q503 598 461.5 623.5 Q420 649 360 649 Q300 649 258.5 622 Q217 595 191.5 552 Q166 509 154.5 455.5 Q143 402 143 350 Q143 293 154.5 239 Q166 185 191.5 143.5 Q217 102 258.5 76.5 Q300 51 360 51 Z M360 -12 Q279 -12 223.5 20 Q168 52 134 104 Q100 156 85 220.5 Q70 285 70 350 Q70 415 85 479.5 Q100 544 134 596 Q168 648 223.5 680 Q279 712 360 712 Q441 712 496.5 680 Q552 648 586 596 Q620 544 635 479.5 Q650 415 650 350 Q650 285 635 220.5 Q620 156 586 104 Q552 52 496.5 20 Q441 -12 360 -12 Z M343 766 L272 766 L414 922 L521 922 L343 766 Z " />
<glyph glyph-name="Ocircumflex" unicode="&#xd4;" horiz-adv-x="720" d="M360 51 Q420 51 461.5 78 Q503 105 528.5 148 Q554 191 565.5 244.5 Q577 298 577 350 Q577 407 565.5 461 Q554 515 528.5 556.5 Q503 598 461.5 623.5 Q420 649 360 649 Q300 649 258.5 622 Q217 595 191.5 552 Q166 509 154.5 455.5 Q143 402 143 350 Q143 293 154.5 239 Q166 185 191.5 143.5 Q217 102 258.5 76.5 Q300 51 360 51 Z M360 -12 Q279 -12 223.5 20 Q168 52 134 104 Q100 156 85 220.5 Q70 285 70 350 Q70 415 85 479.5 Q100 544 134 596 Q168 648 223.5 680 Q279 712 360 712 Q441 712 496.5 680 Q552 648 586 596 Q620 544 635 479.5 Q650 415 650 350 Q650 285 635 220.5 Q620 156 586 104 Q552 52 496.5 20 Q441 -12 360 -12 Z M488 766 L372 867 L256 766 L191 766 L332 922 L412 922 L553 766 L488 766 Z " />
<glyph glyph-name="Ograve" unicode="&#xd2;" horiz-adv-x="720" d="M360 51 Q420 51 461.5 78 Q503 105 528.5 148 Q554 191 565.5 244.5 Q577 298 577 350 Q577 407 565.5 461 Q554 515 528.5 556.5 Q503 598 461.5 623.5 Q420 649 360 649 Q300 649 258.5 622 Q217 595 191.5 552 Q166 509 154.5 455.5 Q143 402 143 350 Q143 293 154.5 239 Q166 185 191.5 143.5 Q217 102 258.5 76.5 Q300 51 360 51 Z M360 -12 Q279 -12 223.5 20 Q168 52 134 104 Q100 156 85 220.5 Q70 285 70 350 Q70 415 85 479.5 Q100 544 134 596 Q168 648 223.5 680 Q279 712 360 712 Q441 712 496.5 680 Q552 648 586 596 Q620 544 635 479.5 Q650 415 650 350 Q650 285 635 220.5 Q620 156 586 104 Q552 52 496.5 20 Q441 -12 360 -12 Z M388 766 L210 922 L317 922 L459 766 L388 766 Z " />
<glyph glyph-name="Uacute" unicode="&#xda;" horiz-adv-x="680" d="M340 -12 Q284 -12 239.5 3 Q195 18 164 51 Q133 84 116.5 135.5 Q100 187 100 260 L100 700 L170 700 L170 260 Q170 197 184 156.5 Q198 116 221.5 92.5 Q245 69 275.5 60 Q306 51 340 51 Q374 51 404.5 60 Q435 69 458.5 92.5 Q482 116 496 156.5 Q510 197 510 260 L510 700 L580 700 L580 260 Q580 187 563.5 135.5 Q547 84 516 51 Q485 18 440.5 3 Q396 -12 340 -12 Z M321 766 L250 766 L392 922 L499 922 L321 766 Z " />
<glyph glyph-name="Ucircumflex" unicode="&#xdb;" horiz-adv-x="680" d="M340 -12 Q284 -12 239.5 3 Q195 18 164 51 Q133 84 116.5 135.5 Q100 187 100 260 L100 700 L170 700 L170 260 Q170 197 184 156.5 Q198 116 221.5 92.5 Q245 69 275.5 60 Q306 51 340 51 Q374 51 404.5 60 Q435 69 458.5 92.5 Q482 116 496 156.5 Q510 197 510 260 L510 700 L580 700 L580 260 Q580 187 563.5 135.5 Q547 84 516 51 Q485 18 440.5 3 Q396 -12 340 -12 Z M456 766 L340 867 L224 766 L159 766 L300 922 L380 922 L521 766 L456 766 Z " />
<glyph glyph-name="Ugrave" unicode="&#xd9;" horiz-adv-x="680" d="M340 -12 Q284 -12 239.5 3 Q195 18 164 51 Q133 84 116.5 135.5 Q100 187 100 260 L100 700 L170 700 L170 260 Q170 197 184 156.5 Q198 116 221.5 92.5 Q245 69 275.5 60 Q306 51 340 51 Q374 51 404.5 60 Q435 69 458.5 92.5 Q482 116 496 156.5 Q510 197 510 260 L510 700 L580 700 L580 260 Q580 187 563.5 135.5 Q547 84 516 51 Q485 18 440.5 3 Q396 -12 340 -12 Z M376 766 L198 922 L305 922 L447 766 L376 766 Z " />
<glyph glyph-name="dotlessi" unicode="&#x131;" horiz-adv-x="252" d="M91 0 L91 511 L161 511 L161 0 L91 0 Z " />
<glyph glyph-name="circumflex" unicode="&#x2c6;" horiz-adv-x="335" d="M285 576 L169 677 L53 576 L-12 576 L129 732 L209 732 L350 576 L285 576 Z " />
<glyph glyph-name="tilde" unicode="&#x2dc;" horiz-adv-x="335" d="M247 602 Q220 602 198 610 Q176 618 156.5 627 Q137 636 119 644 Q101 652 82 652 Q63 652 50 640.5 Q37 629 35 606 L-4 606 Q-4 659 18.5 687.5 Q41 716 89 716 Q116 716 138 708 Q160 700 179.5 690.5 Q199 681 217 673 Q235 665 254 665 Q273 665 286 677 Q299 689 301 712 L339 712 Q339 659 317 630.5 Q295 602 247 602 Z " />
<glyph glyph-name="macron" unicode="&#xaf;" horiz-adv-x="335" d="M4 609 L4 670 L334 670 L334 609 L4 609 Z " />
<glyph glyph-name="breve" unicode="&#x2d8;" horiz-adv-x="335" d="M169 581 Q122 581 88.5 593.5 Q55 606 33 628 Q11 650 0.5 679.5 Q-10 709 -10 742 L58 742 Q58 694 90.5 668.5 Q123 643 169 643 Q216 643 248 668.5 Q280 694 280 742 L348 742 Q348 709 337.5 679.5 Q327 650 305.5 628 Q284 606 250 593.5 Q216 581 169 581 Z " />
<glyph glyph-name="dotaccent" unicode="&#x2d9;" horiz-adv-x="335" d="M169 606 Q149 606 135.5 619.5 Q122 633 122 653 Q122 673 135.5 686.5 Q149 700 169 700 Q189 700 202.5 686.5 Q216 673 216 653 Q216 633 202.5 619.5 Q189 606 169 606 Z " />
<glyph glyph-name="ring" unicode="&#x2da;" horiz-adv-x="335" d="M169 540 Q146 540 125 549 Q104 558 88 573.5 Q72 589 63 610 Q54 631 54 654 Q54 677 63 697.5 Q72 718 88 733 Q104 748 125 756.5 Q146 765 169 765 Q192 765 213 756.5 Q234 748 249.5 733 Q265 718 274.5 697.5 Q284 677 284 654 Q284 631 274.5 610 Q265 589 249.5 573.5 Q234 558 213 549 Q192 540 169 540 Z M169 592 Q193 592 209 609.5 Q225 627 225 654 Q225 681 209 697 Q193 713 169 713 Q146 713 129.5 697 Q113 681 113 654 Q113 627 129.5 609.5 Q146 592 169 592 Z " />
<glyph glyph-name="cedilla" unicode="&#xb8;" horiz-adv-x="335" d="M173 -234 Q144 -234 122 -226.5 Q100 -219 85 -206 L131 -176 Q137 -184 145 -185 Q153 -186 167 -186 Q188 -186 204 -171.5 Q220 -157 220 -135 Q220 -116 201 -101.5 Q182 -87 159 -87 Q134 -87 123 -92 L111 -77 L179 10 L220 10 L181 -55 Q210 -55 230 -62 Q250 -69 262.5 -80.5 Q275 -92 280.5 -106.5 Q286 -121 286 -136 Q286 -180 253.5 -207 Q221 -234 173 -234 Z " />
<glyph glyph-name="hungarumlaut" unicode="&#x2dd;" horiz-adv-x="335" d="M140 576 L69 576 L211 732 L318 732 L140 576 Z M338 576 L267 576 L409 732 L516 732 L338 576 Z " />
<glyph glyph-name="ogonek" unicode="&#x2db;" horiz-adv-x="335" d="M172 -234 Q150 -234 130.5 -228 Q111 -222 96 -209.5 Q81 -197 72 -178.5 Q63 -160 63 -136 Q63 -86 99.5 -48.5 Q136 -11 200 10 L256 10 Q188 -18 156 -53.5 Q124 -89 124 -127 Q124 -158 141 -171 Q158 -184 178 -184 Q199 -184 212 -176.5 Q225 -169 233 -161 L272 -190 Q257 -207 232.5 -220.5 Q208 -234 172 -234 Z " />
<glyph glyph-name="caron" unicode="&#x2c7;" horiz-adv-x="335" d="M209 576 L129 576 L-12 732 L53 732 L169 631 L285 732 L350 732 L209 576 Z " />
<glyph glyph-name="currency" unicode="&#xa4;" horiz-adv-x="635" d="M317 86 Q227 86 169 132 L104 66 L51 120 L119 188 Q100 217 91 253.5 Q82 290 82 333 Q82 375 90.5 411 Q99 447 118 479 L51 546 L101 598 L167 533 Q196 555 234 568 Q272 581 317 581 Q362 581 399.5 568.5 Q437 556 466 534 L531 598 L584 543 L519 478 Q554 417 554 333 Q554 245 515 185 L584 117 L534 66 L467 133 Q408 86 317 86 Z M317 153 Q354 153 385 166.5 Q416 180 437.5 204 Q459 228 471 261 Q483 294 483 333 Q483 372 471 405 Q459 438 437.5 462 Q416 486 385 500 Q354 514 317 514 Q280 514 250 500 Q220 486 198.5 462 Q177 438 165 405 Q153 372 153 333 Q153 294 165 261 Q177 228 198.5 204 Q220 180 250 166.5 Q280 153 317 153 Z " />
<glyph glyph-name="uni00AD" unicode="&#xad;" horiz-adv-x="403" d="M90 264 L90 332 L313 332 L313 264 L90 264 Z " />
<glyph glyph-name="Amacron" unicode="&#x100;" horiz-adv-x="662" d="M531 0 L467 181 L194 181 L133 0 L60 0 L303 700 L357 700 L602 0 L531 0 Z M446 243 L350 523 Q345 536 338.5 556 Q332 576 330 586 Q327 576 321.5 556 Q316 536 311 523 L215 243 L446 243 Z M165 799 L165 860 L495 860 L495 799 L165 799 Z " />
<glyph glyph-name="amacron" unicode="&#x101;" horiz-adv-x="519" d="M384 0 L384 50 Q353 22 314.5 5 Q276 -12 234 -12 Q157 -12 108.5 31.5 Q60 75 60 161 Q60 205 75.5 237 Q91 269 116.5 289.5 Q142 310 176 320 Q210 330 246 330 Q278 330 312 322 Q346 314 384 294 L384 337 Q384 376 374.5 400 Q365 424 349.5 438 Q334 452 313.5 457 Q293 462 272 462 Q253 462 232 457 Q211 452 191 444 Q171 436 152.5 426.5 Q134 417 120 407 L100 467 Q131 487 178.5 505 Q226 523 279 523 Q306 523 336 515.5 Q366 508 391 488.5 Q416 469 432.5 434.5 Q449 400 449 346 L449 0 L384 0 Z M241 49 Q264 49 285 56 Q306 63 324 74 Q342 85 357 99.5 Q372 114 384 128 L384 227 Q359 244 322.5 256.5 Q286 269 253 269 Q227 269 204 262.5 Q181 256 163.5 242.5 Q146 229 135.5 209 Q125 189 125 161 Q125 110 155 79.5 Q185 49 241 49 Z M106 609 L106 670 L436 670 L436 609 L106 609 Z " />
<glyph glyph-name="Abreve" unicode="&#x102;" horiz-adv-x="662" d="M531 0 L467 181 L194 181 L133 0 L60 0 L303 700 L357 700 L602 0 L531 0 Z M446 243 L350 523 Q345 536 338.5 556 Q332 576 330 586 Q327 576 321.5 556 Q316 536 311 523 L215 243 L446 243 Z M330 771 Q283 771 249.5 783.5 Q216 796 194 818 Q172 840 161.5 869.5 Q151 899 151 932 L219 932 Q219 884 251.5 858.5 Q284 833 330 833 Q377 833 409 858.5 Q441 884 441 932 L509 932 Q509 899 498.5 869.5 Q488 840 466.5 818 Q445 796 411 783.5 Q377 771 330 771 Z " />
<glyph glyph-name="abreve" unicode="&#x103;" horiz-adv-x="519" d="M384 0 L384 50 Q353 22 314.5 5 Q276 -12 234 -12 Q157 -12 108.5 31.5 Q60 75 60 161 Q60 205 75.5 237 Q91 269 116.5 289.5 Q142 310 176 320 Q210 330 246 330 Q278 330 312 322 Q346 314 384 294 L384 337 Q384 376 374.5 400 Q365 424 349.5 438 Q334 452 313.5 457 Q293 462 272 462 Q253 462 232 457 Q211 452 191 444 Q171 436 152.5 426.5 Q134 417 120 407 L100 467 Q131 487 178.5 505 Q226 523 279 523 Q306 523 336 515.5 Q366 508 391 488.5 Q416 469 432.5 434.5 Q449 400 449 346 L449 0 L384 0 Z M241 49 Q264 49 285 56 Q306 63 324 74 Q342 85 357 99.5 Q372 114 384 128 L384 227 Q359 244 322.5 256.5 Q286 269 253 269 Q227 269 204 262.5 Q181 256 163.5 242.5 Q146 229 135.5 209 Q125 189 125 161 Q125 110 155 79.5 Q185 49 241 49 Z M271 581 Q224 581 190.5 593.5 Q157 606 135 628 Q113 650 102.5 679.5 Q92 709 92 742 L160 742 Q160 694 192.5 668.5 Q225 643 271 643 Q318 643 350 668.5 Q382 694 382 742 L450 742 Q450 709 439.5 679.5 Q429 650 407.5 628 Q386 606 352 593.5 Q318 581 271 581 Z " />
<glyph glyph-name="Aogonek" unicode="&#x104;" horiz-adv-x="662" d="M520 -234 Q498 -234 478.5 -228 Q459 -222 444 -209.5 Q429 -197 420 -178.5 Q411 -160 411 -136 Q411 -91 440.5 -56 Q470 -21 531 0 L467 181 L194 181 L133 0 L60 0 L303 700 L357 700 L602 0 Q565 -13 540 -28 Q515 -43 500 -59.5 Q485 -76 478.5 -93 Q472 -110 472 -127 Q472 -158 489 -171 Q506 -184 526 -184 Q547 -184 560 -176.5 Q573 -169 581 -161 L620 -190 Q605 -207 580.5 -220.5 Q556 -234 520 -234 Z M215 243 L446 243 L330 580 L215 243 Z " />
<glyph glyph-name="aogonek" unicode="&#x105;" horiz-adv-x="519" d="M381 -234 Q359 -234 339.5 -228 Q320 -222 305 -209.5 Q290 -197 281 -178.5 Q272 -160 272 -136 Q272 -88 303.5 -54.5 Q335 -21 384 0 L384 50 Q353 22 314.5 5 Q276 -12 234 -12 Q157 -12 108.5 31.5 Q60 75 60 161 Q60 205 75.5 237 Q91 269 116.5 289.5 Q142 310 176 320 Q210 330 246 330 Q278 330 312 322 Q346 314 384 294 L384 337 Q384 376 374.5 400 Q365 424 349.5 438 Q334 452 313.5 457 Q293 462 272 462 Q253 462 232 457 Q211 452 191 444 Q171 436 152.5 426.5 Q134 417 120 407 L100 467 Q131 487 178.5 505 Q226 523 279 523 Q306 523 336 515.5 Q366 508 391 488.5 Q416 469 432.5 434.5 Q449 400 449 346 L449 0 Q415 -14 393 -30.5 Q371 -47 357.5 -63.5 Q344 -80 338.5 -96.5 Q333 -113 333 -127 Q333 -158 350 -171 Q367 -184 387 -184 Q408 -184 421 -176.5 Q434 -169 442 -161 L481 -190 Q466 -207 441.5 -220.5 Q417 -234 381 -234 Z M241 49 Q264 49 285 56 Q306 63 324 74 Q342 85 357 99.5 Q372 114 384 128 L384 227 Q359 244 322.5 256.5 Q286 269 253 269 Q227 269 204 262.5 Q181 256 163.5 242.5 Q146 229 135.5 209 Q125 189 125 161 Q125 110 155 79.5 Q185 49 241 49 Z " />
<glyph glyph-name="Cacute" unicode="&#x106;" horiz-adv-x="644" d="M360 -12 Q282 -12 227 19 Q172 50 137 100.5 Q102 151 86 216 Q70 281 70 350 Q70 422 87 487.5 Q104 553 139.5 603 Q175 653 229.5 682.5 Q284 712 360 712 Q407 712 441.5 702.5 Q476 693 501 677 Q526 661 543.5 640.5 Q561 620 574 599 L512 563 Q500 580 486.5 595.5 Q473 611 455 623 Q437 635 413.5 642 Q390 649 360 649 Q300 649 258.5 622 Q217 595 191.5 552 Q166 509 154.5 455.5 Q143 402 143 350 Q143 292 155.5 238 Q168 184 194 142.5 Q220 101 261.5 76 Q303 51 360 51 Q423 51 460.5 75.5 Q498 100 522 140 L584 116 Q572 92 552.5 69 Q533 46 505.5 28 Q478 10 441.5 -1 Q405 -12 360 -12 Z M346 766 L275 766 L417 922 L524 922 L346 766 Z " />
<glyph glyph-name="cacute" unicode="&#x107;" horiz-adv-x="481" d="M257 -12 Q164 -12 109.5 57.5 Q55 127 55 255 Q55 382 110.5 452.5 Q166 523 265 523 Q322 523 365 495.5 Q408 468 429 416 L365 391 Q353 420 328.5 440 Q304 460 262 460 Q226 460 201 445.5 Q176 431 159.5 404.5 Q143 378 135.5 340 Q128 302 128 255 Q128 158 160 104.5 Q192 51 260 51 Q302 51 331 72 Q360 93 373 129 L436 105 Q418 51 370.5 19.5 Q323 -12 257 -12 Z M215 576 L144 576 L286 732 L393 732 L215 576 Z " />
<glyph glyph-name="Ccircumflex" unicode="&#x108;" horiz-adv-x="644" d="M360 -12 Q282 -12 227 19 Q172 50 137 100.5 Q102 151 86 216 Q70 281 70 350 Q70 422 87 487.5 Q104 553 139.5 603 Q175 653 229.5 682.5 Q284 712 360 712 Q407 712 441.5 702.5 Q476 693 501 677 Q526 661 543.5 640.5 Q561 620 574 599 L512 563 Q500 580 486.5 595.5 Q473 611 455 623 Q437 635 413.5 642 Q390 649 360 649 Q300 649 258.5 622 Q217 595 191.5 552 Q166 509 154.5 455.5 Q143 402 143 350 Q143 292 155.5 238 Q168 184 194 142.5 Q220 101 261.5 76 Q303 51 360 51 Q423 51 460.5 75.5 Q498 100 522 140 L584 116 Q572 92 552.5 69 Q533 46 505.5 28 Q478 10 441.5 -1 Q405 -12 360 -12 Z M481 766 L365 867 L249 766 L184 766 L325 922 L405 922 L546 766 L481 766 Z " />
<glyph glyph-name="ccircumflex" unicode="&#x109;" horiz-adv-x="481" d="M257 -12 Q164 -12 109.5 57.5 Q55 127 55 255 Q55 382 110.5 452.5 Q166 523 265 523 Q322 523 365 495.5 Q408 468 429 416 L365 391 Q353 420 328.5 440 Q304 460 262 460 Q226 460 201 445.5 Q176 431 159.5 404.5 Q143 378 135.5 340 Q128 302 128 255 Q128 158 160 104.5 Q192 51 260 51 Q302 51 331 72 Q360 93 373 129 L436 105 Q418 51 370.5 19.5 Q323 -12 257 -12 Z M370 576 L254 677 L138 576 L73 576 L214 732 L294 732 L435 576 L370 576 Z " />
<glyph glyph-name="Cdotaccent" unicode="&#x10a;" horiz-adv-x="644" d="M360 -12 Q282 -12 227 19 Q172 50 137 100.5 Q102 151 86 216 Q70 281 70 350 Q70 422 87 487.5 Q104 553 139.5 603 Q175 653 229.5 682.5 Q284 712 360 712 Q407 712 441.5 702.5 Q476 693 501 677 Q526 661 543.5 640.5 Q561 620 574 599 L512 563 Q500 580 486.5 595.5 Q473 611 455 623 Q437 635 413.5 642 Q390 649 360 649 Q300 649 258.5 622 Q217 595 191.5 552 Q166 509 154.5 455.5 Q143 402 143 350 Q143 292 155.5 238 Q168 184 194 142.5 Q220 101 261.5 76 Q303 51 360 51 Q423 51 460.5 75.5 Q498 100 522 140 L584 116 Q572 92 552.5 69 Q533 46 505.5 28 Q478 10 441.5 -1 Q405 -12 360 -12 Z M360 796 Q340 796 326.5 809.5 Q313 823 313 843 Q313 863 326.5 876.5 Q340 890 360 890 Q380 890 393.5 876.5 Q407 863 407 843 Q407 823 393.5 809.5 Q380 796 360 796 Z " />
<glyph glyph-name="cdotaccent" unicode="&#x10b;" horiz-adv-x="481" d="M257 -12 Q164 -12 109.5 57.5 Q55 127 55 255 Q55 382 110.5 452.5 Q166 523 265 523 Q322 523 365 495.5 Q408 468 429 416 L365 391 Q353 420 328.5 440 Q304 460 262 460 Q226 460 201 445.5 Q176 431 159.5 404.5 Q143 378 135.5 340 Q128 302 128 255 Q128 158 160 104.5 Q192 51 260 51 Q302 51 331 72 Q360 93 373 129 L436 105 Q418 51 370.5 19.5 Q323 -12 257 -12 Z M259 606 Q239 606 225.5 619.5 Q212 633 212 653 Q212 673 225.5 686.5 Q239 700 259 700 Q279 700 292.5 686.5 Q306 673 306 653 Q306 633 292.5 619.5 Q279 606 259 606 Z " />
<glyph glyph-name="Ccaron" unicode="&#x10c;" horiz-adv-x="644" d="M360 -12 Q282 -12 227 19 Q172 50 137 100.5 Q102 151 86 216 Q70 281 70 350 Q70 422 87 487.5 Q104 553 139.5 603 Q175 653 229.5 682.5 Q284 712 360 712 Q407 712 441.5 702.5 Q476 693 501 677 Q526 661 543.5 640.5 Q561 620 574 599 L512 563 Q500 580 486.5 595.5 Q473 611 455 623 Q437 635 413.5 642 Q390 649 360 649 Q300 649 258.5 622 Q217 595 191.5 552 Q166 509 154.5 455.5 Q143 402 143 350 Q143 292 155.5 238 Q168 184 194 142.5 Q220 101 261.5 76 Q303 51 360 51 Q423 51 460.5 75.5 Q498 100 522 140 L584 116 Q572 92 552.5 69 Q533 46 505.5 28 Q478 10 441.5 -1 Q405 -12 360 -12 Z M405 766 L325 766 L184 922 L249 922 L365 821 L481 922 L546 922 L405 766 Z " />
<glyph glyph-name="ccaron" unicode="&#x10d;" horiz-adv-x="481" d="M257 -12 Q164 -12 109.5 57.5 Q55 127 55 255 Q55 382 110.5 452.5 Q166 523 265 523 Q322 523 365 495.5 Q408 468 429 416 L365 391 Q353 420 328.5 440 Q304 460 262 460 Q226 460 201 445.5 Q176 431 159.5 404.5 Q143 378 135.5 340 Q128 302 128 255 Q128 158 160 104.5 Q192 51 260 51 Q302 51 331 72 Q360 93 373 129 L436 105 Q418 51 370.5 19.5 Q323 -12 257 -12 Z M306 576 L226 576 L85 732 L150 732 L266 631 L382 732 L447 732 L306 576 Z " />
<glyph glyph-name="Dcaron" unicode="&#x10e;" horiz-adv-x="678" d="M105 700 L291 700 Q380 700 440.5 669.5 Q501 639 538.5 589.5 Q576 540 592 477.5 Q608 415 608 350 Q608 290 593.5 227.5 Q579 165 542 114.5 Q505 64 443 32 Q381 0 287 0 L105 0 L105 700 Z M292 63 Q362 63 409 88.5 Q456 114 484 155.5 Q512 197 523.5 248 Q535 299 535 350 Q535 404 522 456 Q509 508 481 548 Q453 588 409 612.5 Q365 637 303 637 L175 637 L175 63 L292 63 Z M338 766 L258 766 L117 922 L182 922 L298 821 L414 922 L479 922 L338 766 Z " />
<glyph glyph-name="dcaron" unicode="&#x10f;" horiz-adv-x="690" d="M266 -12 Q217 -12 178 7 Q139 26 111.5 61 Q84 96 69.5 145.5 Q55 195 55 256 Q55 383 111.5 453 Q168 523 266 523 Q314 523 346.5 508.5 Q379 494 402 475 L402 687 L472 722 L472 0 L402 0 L402 44 Q379 21 346.5 4.5 Q314 -12 266 -12 Z M274 51 Q312 51 346.5 72 Q381 93 402 131 L402 386 Q394 399 382 412 Q370 425 354.5 435.5 Q339 446 318.5 453 Q298 460 274 460 Q203 460 165.5 407.5 Q128 355 128 256 Q128 213 138 175.5 Q148 138 167 110.5 Q186 83 213 67 Q240 51 274 51 Z M658 712 L658 704 Q658 643 642.5 587.5 Q627 532 578 484 L558 498 Q565 513 570.5 537.5 Q576 562 580 591.5 Q584 621 586 652.5 Q588 684 588 712 L658 712 Z " />
<glyph glyph-name="Dcroat" unicode="&#x110;" horiz-adv-x="678" d="M105 318 L35 318 L35 380 L105 380 L105 700 L291 700 Q380 700 440.5 669.5 Q501 639 538.5 589.5 Q576 540 592 477.5 Q608 415 608 350 Q608 290 593.5 227.5 Q579 165 542 114.5 Q505 64 443 32 Q381 0 287 0 L105 0 L105 318 Z M292 63 Q362 63 409 88.5 Q456 114 484 155.5 Q512 197 523.5 248 Q535 299 535 350 Q535 404 522 456 Q509 508 481 548 Q453 588 409 612.5 Q365 637 303 637 L175 637 L175 380 L330 380 L330 318 L175 318 L175 63 L292 63 Z " />
<glyph glyph-name="dcroat" unicode="&#x111;" horiz-adv-x="562" d="M472 553 L472 0 L402 0 L402 44 Q376 19 345 3.5 Q314 -12 266 -12 Q217 -12 178 6.5 Q139 25 111.5 58.5 Q84 92 69.5 138 Q55 184 55 240 Q55 358 111.5 423.5 Q168 489 266 489 Q314 489 346.5 474.5 Q379 460 402 441 L402 553 L260 553 L260 616 L402 616 L402 687 L472 722 L472 616 L537 616 L537 553 L472 553 Z M274 51 Q312 51 346.5 72 Q381 93 402 131 L402 352 Q394 365 382 378 Q370 391 354.5 401.5 Q339 412 318.5 419 Q298 426 274 426 Q203 426 165.5 378 Q128 330 128 240 Q128 203 138 169 Q148 135 167 108.5 Q186 82 213 66.5 Q240 51 274 51 Z " />
<glyph glyph-name="Emacron" unicode="&#x112;" horiz-adv-x="596" d="M105 0 L105 700 L504 700 L504 633 L175 633 L175 395 L397 395 L397 329 L175 329 L175 67 L526 67 L526 0 L105 0 Z M144 799 L144 860 L474 860 L474 799 L144 799 Z " />
<glyph glyph-name="emacron" unicode="&#x113;" horiz-adv-x="529" d="M129 227 Q138 149 176 101 Q214 53 280 53 Q308 53 337 62 Q366 71 395 93 L433 46 Q403 21 362.5 4.5 Q322 -12 277 -12 Q225 -12 184 9.5 Q143 31 114.5 68 Q86 105 70.5 153.5 Q55 202 55 256 Q55 320 71.5 369.5 Q88 419 117 453 Q146 487 187 505 Q228 523 277 523 Q318 523 354.5 508.5 Q391 494 419 464 Q447 434 463 387 Q479 340 479 276 Q479 268 479 256 Q479 244 477 227 L129 227 Z M277 460 Q215 460 173.5 419 Q132 378 127 290 L408 290 Q408 342 395 375 Q382 408 362.5 427 Q343 446 320 453 Q297 460 277 460 Z M112 609 L112 670 L442 670 L442 609 L112 609 Z " />
<glyph glyph-name="Ebreve" unicode="&#x114;" horiz-adv-x="596" d="M105 0 L105 700 L504 700 L504 633 L175 633 L175 395 L397 395 L397 329 L175 329 L175 67 L526 67 L526 0 L105 0 Z M314 771 Q267 771 233.5 783.5 Q200 796 178 818 Q156 840 145.5 869.5 Q135 899 135 932 L203 932 Q203 884 235.5 858.5 Q268 833 314 833 Q361 833 393 858.5 Q425 884 425 932 L493 932 Q493 899 482.5 869.5 Q472 840 450.5 818 Q429 796 395 783.5 Q361 771 314 771 Z " />
<glyph glyph-name="ebreve" unicode="&#x115;" horiz-adv-x="529" d="M129 227 Q138 149 176 101 Q214 53 280 53 Q308 53 337 62 Q366 71 395 93 L433 46 Q403 21 362.5 4.5 Q322 -12 277 -12 Q225 -12 184 9.5 Q143 31 114.5 68 Q86 105 70.5 153.5 Q55 202 55 256 Q55 320 71.5 369.5 Q88 419 117 453 Q146 487 187 505 Q228 523 277 523 Q318 523 354.5 508.5 Q391 494 419 464 Q447 434 463 387 Q479 340 479 276 Q479 268 479 256 Q479 244 477 227 L129 227 Z M277 460 Q215 460 173.5 419 Q132 378 127 290 L408 290 Q408 342 395 375 Q382 408 362.5 427 Q343 446 320 453 Q297 460 277 460 Z M277 581 Q230 581 196.5 593.5 Q163 606 141 628 Q119 650 108.5 679.5 Q98 709 98 742 L166 742 Q166 694 198.5 668.5 Q231 643 277 643 Q324 643 356 668.5 Q388 694 388 742 L456 742 Q456 709 445.5 679.5 Q435 650 413.5 628 Q392 606 358 593.5 Q324 581 277 581 Z " />
<glyph glyph-name="Edotaccent" unicode="&#x116;" horiz-adv-x="596" d="M105 0 L105 700 L504 700 L504 633 L175 633 L175 395 L397 395 L397 329 L175 329 L175 67 L526 67 L526 0 L105 0 Z M314 796 Q294 796 280.5 809.5 Q267 823 267 843 Q267 863 280.5 876.5 Q294 890 314 890 Q334 890 347.5 876.5 Q361 863 361 843 Q361 823 347.5 809.5 Q334 796 314 796 Z " />
<glyph glyph-name="edotaccent" unicode="&#x117;" horiz-adv-x="529" d="M129 227 Q138 149 176 101 Q214 53 280 53 Q308 53 337 62 Q366 71 395 93 L433 46 Q403 21 362.5 4.5 Q322 -12 277 -12 Q225 -12 184 9.5 Q143 31 114.5 68 Q86 105 70.5 153.5 Q55 202 55 256 Q55 320 71.5 369.5 Q88 419 117 453 Q146 487 187 505 Q228 523 277 523 Q318 523 354.5 508.5 Q391 494 419 464 Q447 434 463 387 Q479 340 479 276 Q479 268 479 256 Q479 244 477 227 L129 227 Z M277 460 Q215 460 173.5 419 Q132 378 127 290 L408 290 Q408 342 395 375 Q382 408 362.5 427 Q343 446 320 453 Q297 460 277 460 Z M277 606 Q257 606 243.5 619.5 Q230 633 230 653 Q230 673 243.5 686.5 Q257 700 277 700 Q297 700 310.5 686.5 Q324 673 324 653 Q324 633 310.5 619.5 Q297 606 277 606 Z " />
<glyph glyph-name="Eogonek" unicode="&#x118;" horiz-adv-x="596" d="M490 0 Q463 0 437 -11 Q411 -22 390.5 -40 Q370 -58 357.5 -81 Q345 -104 345 -127 Q345 -158 362 -171 Q379 -184 399 -184 Q420 -184 433 -176.5 Q446 -169 454 -161 L493 -190 Q478 -207 453.5 -220.5 Q429 -234 393 -234 Q371 -234 351.5 -228 Q332 -222 317 -209.5 Q302 -197 293 -178.5 Q284 -160 284 -136 Q284 -91 313 -56.5 Q342 -22 394 0 L105 0 L105 700 L504 700 L504 633 L175 633 L175 395 L397 395 L397 329 L175 329 L175 67 L526 67 L526 0 L490 0 Z " />
<glyph glyph-name="eogonek" unicode="&#x119;" horiz-adv-x="529" d="M291 -234 Q269 -234 249.5 -228 Q230 -222 215 -209.5 Q200 -197 191 -178.5 Q182 -160 182 -136 Q182 -97 204 -65.5 Q226 -34 267 -12 Q217 -10 178 12.5 Q139 35 111.5 71.5 Q84 108 69.5 155.5 Q55 203 55 256 Q55 320 71.5 369.5 Q88 419 117 453 Q146 487 187 505 Q228 523 277 523 Q318 523 354.5 508.5 Q391 494 419 464 Q447 434 463 387 Q479 340 479 276 Q479 268 479 256 Q479 244 477 227 L129 227 Q138 149 176 101 Q214 53 280 53 Q308 53 337 62 Q366 71 395 93 L433 46 Q410 26 377.5 10 Q345 -6 315 -25 Q285 -44 264 -68 Q243 -92 243 -127 Q243 -158 260 -171 Q277 -184 297 -184 Q318 -184 331 -176.5 Q344 -169 352 -161 L391 -190 Q376 -207 351.5 -220.5 Q327 -234 291 -234 Z M277 460 Q215 460 173.5 419 Q132 378 127 290 L408 290 Q408 342 395 375 Q382 408 362.5 427 Q343 446 320 453 Q297 460 277 460 Z " />
<glyph glyph-name="Ecaron" unicode="&#x11a;" horiz-adv-x="596" d="M105 0 L105 700 L504 700 L504 633 L175 633 L175 395 L397 395 L397 329 L175 329 L175 67 L526 67 L526 0 L105 0 Z M354 766 L274 766 L133 922 L198 922 L314 821 L430 922 L495 922 L354 766 Z " />
<glyph glyph-name="ecaron" unicode="&#x11b;" horiz-adv-x="529" d="M129 227 Q138 149 176 101 Q214 53 280 53 Q308 53 337 62 Q366 71 395 93 L433 46 Q403 21 362.5 4.5 Q322 -12 277 -12 Q225 -12 184 9.5 Q143 31 114.5 68 Q86 105 70.5 153.5 Q55 202 55 256 Q55 320 71.5 369.5 Q88 419 117 453 Q146 487 187 505 Q228 523 277 523 Q318 523 354.5 508.5 Q391 494 419 464 Q447 434 463 387 Q479 340 479 276 Q479 268 479 256 Q479 244 477 227 L129 227 Z M277 460 Q215 460 173.5 419 Q132 378 127 290 L408 290 Q408 342 395 375 Q382 408 362.5 427 Q343 446 320 453 Q297 460 277 460 Z M317 576 L237 576 L96 732 L161 732 L277 631 L393 732 L458 732 L317 576 Z " />
<glyph glyph-name="Gcircumflex" unicode="&#x11c;" horiz-adv-x="685" d="M360 -12 Q282 -12 227 19 Q172 50 137 100.5 Q102 151 86 216 Q70 281 70 350 Q70 422 87 487.5 Q104 553 139.5 603 Q175 653 229.5 682.5 Q284 712 360 712 Q407 712 441.5 702.5 Q476 693 501 677 Q526 661 543.5 640.5 Q561 620 574 599 L512 563 Q500 580 486.5 595.5 Q473 611 455 623 Q437 635 413.5 642 Q390 649 360 649 Q300 649 258.5 622 Q217 595 191.5 552 Q166 509 154.5 455.5 Q143 402 143 350 Q143 292 155.5 238 Q168 184 194 142.5 Q220 101 261.5 76 Q303 51 360 51 Q437 51 481.5 98 Q526 145 526 225 L526 267 L397 267 L397 329 L600 329 L600 252 Q600 187 581.5 138 Q563 89 530.5 55.5 Q498 22 454.5 5 Q411 -12 360 -12 Z M465 766 L349 867 L233 766 L168 766 L309 922 L389 922 L530 766 L465 766 Z " />
<glyph glyph-name="gcircumflex" unicode="&#x11d;" horiz-adv-x="564" d="M202 -158 Q264 -155 303.5 -142.5 Q343 -130 365.5 -111.5 Q388 -93 396 -69.5 Q404 -46 404 -20 L404 58 Q382 26 349.5 7 Q317 -12 264 -12 Q223 -12 185 5 Q147 22 118 55.5 Q89 89 72 139 Q55 189 55 256 Q55 319 70.5 368.5 Q86 418 114.5 452.5 Q143 487 182 505 Q221 523 268 523 Q297 523 319.5 516.5 Q342 510 358.5 500.5 Q375 491 386.5 480.5 Q398 470 404 463 L404 511 L474 511 L474 8 Q474 -55 454 -96.5 Q434 -138 401 -163.5 Q368 -189 324.5 -200 Q281 -211 234 -213 L202 -158 Z M280 51 Q312 51 347.5 73.5 Q383 96 404 136 L404 382 Q393 401 377.5 415.5 Q362 430 345 440 Q328 450 311 455 Q294 460 280 460 Q204 460 166 407.5 Q128 355 128 256 Q128 207 139.5 169 Q151 131 171.5 104.5 Q192 78 219.5 64.5 Q247 51 280 51 Z M403 576 L287 677 L171 576 L106 576 L247 732 L327 732 L468 576 L403 576 Z " />
<glyph glyph-name="Gbreve" unicode="&#x11e;" horiz-adv-x="685" d="M360 -12 Q282 -12 227 19 Q172 50 137 100.5 Q102 151 86 216 Q70 281 70 350 Q70 422 87 487.5 Q104 553 139.5 603 Q175 653 229.5 682.5 Q284 712 360 712 Q407 712 441.5 702.5 Q476 693 501 677 Q526 661 543.5 640.5 Q561 620 574 599 L512 563 Q500 580 486.5 595.5 Q473 611 455 623 Q437 635 413.5 642 Q390 649 360 649 Q300 649 258.5 622 Q217 595 191.5 552 Q166 509 154.5 455.5 Q143 402 143 350 Q143 292 155.5 238 Q168 184 194 142.5 Q220 101 261.5 76 Q303 51 360 51 Q437 51 481.5 98 Q526 145 526 225 L526 267 L397 267 L397 329 L600 329 L600 252 Q600 187 581.5 138 Q563 89 530.5 55.5 Q498 22 454.5 5 Q411 -12 360 -12 Z M349 771 Q302 771 268.5 783.5 Q235 796 213 818 Q191 840 180.5 869.5 Q170 899 170 932 L238 932 Q238 884 270.5 858.5 Q303 833 349 833 Q396 833 428 858.5 Q460 884 460 932 L528 932 Q528 899 517.5 869.5 Q507 840 485.5 818 Q464 796 430 783.5 Q396 771 349 771 Z " />
<glyph glyph-name="gbreve" unicode="&#x11f;" horiz-adv-x="564" d="M202 -158 Q264 -155 303.5 -142.5 Q343 -130 365.5 -111.5 Q388 -93 396 -69.5 Q404 -46 404 -20 L404 58 Q382 26 349.5 7 Q317 -12 264 -12 Q223 -12 185 5 Q147 22 118 55.5 Q89 89 72 139 Q55 189 55 256 Q55 319 70.5 368.5 Q86 418 114.5 452.5 Q143 487 182 505 Q221 523 268 523 Q297 523 319.5 516.5 Q342 510 358.5 500.5 Q375 491 386.5 480.5 Q398 470 404 463 L404 511 L474 511 L474 8 Q474 -55 454 -96.5 Q434 -138 401 -163.5 Q368 -189 324.5 -200 Q281 -211 234 -213 L202 -158 Z M280 51 Q312 51 347.5 73.5 Q383 96 404 136 L404 382 Q393 401 377.5 415.5 Q362 430 345 440 Q328 450 311 455 Q294 460 280 460 Q204 460 166 407.5 Q128 355 128 256 Q128 207 139.5 169 Q151 131 171.5 104.5 Q192 78 219.5 64.5 Q247 51 280 51 Z M287 581 Q240 581 206.5 593.5 Q173 606 151 628 Q129 650 118.5 679.5 Q108 709 108 742 L176 742 Q176 694 208.5 668.5 Q241 643 287 643 Q334 643 366 668.5 Q398 694 398 742 L466 742 Q466 709 455.5 679.5 Q445 650 423.5 628 Q402 606 368 593.5 Q334 581 287 581 Z " />
<glyph glyph-name="Gdotaccent" unicode="&#x120;" horiz-adv-x="685" d="M360 -12 Q282 -12 227 19 Q172 50 137 100.5 Q102 151 86 216 Q70 281 70 350 Q70 422 87 487.5 Q104 553 139.5 603 Q175 653 229.5 682.5 Q284 712 360 712 Q407 712 441.5 702.5 Q476 693 501 677 Q526 661 543.5 640.5 Q561 620 574 599 L512 563 Q500 580 486.5 595.5 Q473 611 455 623 Q437 635 413.5 642 Q390 649 360 649 Q300 649 258.5 622 Q217 595 191.5 552 Q166 509 154.5 455.5 Q143 402 143 350 Q143 292 155.5 238 Q168 184 194 142.5 Q220 101 261.5 76 Q303 51 360 51 Q437 51 481.5 98 Q526 145 526 225 L526 267 L397 267 L397 329 L600 329 L600 252 Q600 187 581.5 138 Q563 89 530.5 55.5 Q498 22 454.5 5 Q411 -12 360 -12 Z M347 796 Q327 796 313.5 809.5 Q300 823 300 843 Q300 863 313.5 876.5 Q327 890 347 890 Q367 890 380.5 876.5 Q394 863 394 843 Q394 823 380.5 809.5 Q367 796 347 796 Z " />
<glyph glyph-name="gdotaccent" unicode="&#x121;" horiz-adv-x="564" d="M202 -158 Q264 -155 303.5 -142.5 Q343 -130 365.5 -111.5 Q388 -93 396 -69.5 Q404 -46 404 -20 L404 58 Q382 26 349.5 7 Q317 -12 264 -12 Q223 -12 185 5 Q147 22 118 55.5 Q89 89 72 139 Q55 189 55 256 Q55 319 70.5 368.5 Q86 418 114.5 452.5 Q143 487 182 505 Q221 523 268 523 Q297 523 319.5 516.5 Q342 510 358.5 500.5 Q375 491 386.5 480.5 Q398 470 404 463 L404 511 L474 511 L474 8 Q474 -55 454 -96.5 Q434 -138 401 -163.5 Q368 -189 324.5 -200 Q281 -211 234 -213 L202 -158 Z M280 51 Q312 51 347.5 73.5 Q383 96 404 136 L404 382 Q393 401 377.5 415.5 Q362 430 345 440 Q328 450 311 455 Q294 460 280 460 Q204 460 166 407.5 Q128 355 128 256 Q128 207 139.5 169 Q151 131 171.5 104.5 Q192 78 219.5 64.5 Q247 51 280 51 Z M287 606 Q267 606 253.5 619.5 Q240 633 240 653 Q240 673 253.5 686.5 Q267 700 287 700 Q307 700 320.5 686.5 Q334 673 334 653 Q334 633 320.5 619.5 Q307 606 287 606 Z " />
<glyph glyph-name="Gcommaaccent" unicode="&#x122;" horiz-adv-x="685" d="M360 -12 Q282 -12 227 19 Q172 50 137 100.5 Q102 151 86 216 Q70 281 70 350 Q70 422 87 487.5 Q104 553 139.5 603 Q175 653 229.5 682.5 Q284 712 360 712 Q407 712 441.5 702.5 Q476 693 501 677 Q526 661 543.5 640.5 Q561 620 574 599 L512 563 Q500 580 486.5 595.5 Q473 611 455 623 Q437 635 413.5 642 Q390 649 360 649 Q300 649 258.5 622 Q217 595 191.5 552 Q166 509 154.5 455.5 Q143 402 143 350 Q143 292 155.5 238 Q168 184 194 142.5 Q220 101 261.5 76 Q303 51 360 51 Q437 51 481.5 98 Q526 145 526 225 L526 267 L397 267 L397 329 L600 329 L600 252 Q600 187 581.5 138 Q563 89 530.5 55.5 Q498 22 454.5 5 Q411 -12 360 -12 Z M313 -239 Q320 -234 334.5 -214.5 Q349 -195 352 -165 Q323 -165 310.5 -148.5 Q298 -132 298 -111 Q298 -87 314 -72.5 Q330 -58 350 -58 Q370 -58 387 -74 Q404 -90 404 -117 Q404 -157 386.5 -189 Q369 -221 331 -244 L313 -239 Z " />
<glyph glyph-name="gcommaaccent" unicode="&#x123;" horiz-adv-x="564" d="M286 603 Q266 603 249 619 Q232 635 232 662 Q232 702 249.5 734 Q267 766 305 789 L323 784 Q316 779 301.5 759.5 Q287 740 284 710 Q313 710 325.5 693.5 Q338 677 338 656 Q338 632 322 617.5 Q306 603 286 603 Z M202 -158 Q264 -155 303.5 -142.5 Q343 -130 365.5 -111.5 Q388 -93 396 -69.5 Q404 -46 404 -20 L404 58 Q382 26 349.5 7 Q317 -12 264 -12 Q223 -12 185 5 Q147 22 118 55.5 Q89 89 72 139 Q55 189 55 256 Q55 319 70.5 368.5 Q86 418 114.5 452.5 Q143 487 182 505 Q221 523 268 523 Q297 523 319.5 516.5 Q342 510 358.5 500.5 Q375 491 386.5 480.5 Q398 470 404 463 L404 511 L474 511 L474 8 Q474 -55 454 -96.5 Q434 -138 401 -163.5 Q368 -189 324.5 -200 Q281 -211 234 -213 L202 -158 Z M280 51 Q312 51 347.5 73.5 Q383 96 404 136 L404 382 Q393 401 377.5 415.5 Q362 430 345 440 Q328 450 311 455 Q294 460 280 460 Q204 460 166 407.5 Q128 355 128 256 Q128 207 139.5 169 Q151 131 171.5 104.5 Q192 78 219.5 64.5 Q247 51 280 51 Z " />
<glyph glyph-name="Hcircumflex" unicode="&#x124;" horiz-adv-x="692" d="M517 0 L517 331 L175 331 L175 0 L105 0 L105 700 L175 700 L175 397 L517 397 L517 700 L587 700 L587 0 L517 0 Z M460 766 L344 867 L228 766 L163 766 L304 922 L384 922 L525 766 L460 766 Z " />
<glyph glyph-name="hcircumflex" unicode="&#x125;" horiz-adv-x="560" d="M292 523 Q386 523 430.5 466.5 Q475 410 475 283 L475 0 L405 0 L405 312 Q405 393 371 426.5 Q337 460 286 460 Q259 460 236 453 Q213 446 196 429 Q179 412 169.5 384 Q160 356 160 314 L160 0 L90 0 L90 689 L160 722 L160 454 Q183 489 217 506 Q251 523 292 523 Z M407 765 L291 866 L175 765 L110 765 L251 921 L331 921 L472 765 L407 765 Z " />
<glyph glyph-name="Hbar" unicode="&#x126;" horiz-adv-x="692" d="M517 0 L517 331 L175 331 L175 0 L105 0 L105 532 L15 532 L15 598 L105 598 L105 700 L175 700 L175 598 L517 598 L517 700 L587 700 L587 598 L677 598 L677 532 L587 532 L587 0 L517 0 Z M517 397 L517 532 L175 532 L175 397 L517 397 Z " />
<glyph glyph-name="hbar" unicode="&#x127;" horiz-adv-x="560" d="M405 0 L405 278 Q405 359 371.5 392.5 Q338 426 287 426 Q260 426 237 419 Q214 412 196.5 395 Q179 378 169.5 350 Q160 322 160 280 L160 0 L90 0 L90 553 L25 553 L25 616 L90 616 L90 689 L160 722 L160 616 L316 616 L316 553 L160 553 L160 420 Q183 455 217.5 472 Q252 489 293 489 Q387 489 431 432.5 Q475 376 475 249 L475 0 L405 0 Z " />
<glyph glyph-name="Itilde" unicode="&#x128;" horiz-adv-x="280" d="M105 0 L105 700 L175 700 L175 0 L105 0 Z M220 792 Q193 792 171 800 Q149 808 129.5 817 Q110 826 92 834 Q74 842 55 842 Q36 842 23 830.5 Q10 819 8 796 L-31 796 Q-31 849 -8.5 877.5 Q14 906 62 906 Q89 906 111 898 Q133 890 152.5 880.5 Q172 871 190 863 Q208 855 227 855 Q246 855 259 867 Q272 879 274 902 L312 902 Q312 849 290 820.5 Q268 792 220 792 Z " />
<glyph glyph-name="itilde" unicode="&#x129;" horiz-adv-x="252" d="M91 0 L91 511 L161 511 L161 0 L91 0 Z M206 602 Q179 602 157 610 Q135 618 115.5 627 Q96 636 78 644 Q60 652 41 652 Q22 652 9 640.5 Q-4 629 -6 606 L-45 606 Q-45 659 -22.5 687.5 Q0 716 48 716 Q75 716 97 708 Q119 700 138.5 690.5 Q158 681 176 673 Q194 665 213 665 Q232 665 245 677 Q258 689 260 712 L298 712 Q298 659 276 630.5 Q254 602 206 602 Z " />
<glyph glyph-name="Imacron" unicode="&#x12a;" horiz-adv-x="280" d="M105 0 L105 700 L175 700 L175 0 L105 0 Z M-25 799 L-25 860 L305 860 L305 799 L-25 799 Z " />
<glyph glyph-name="imacron" unicode="&#x12b;" horiz-adv-x="252" d="M91 0 L91 511 L161 511 L161 0 L91 0 Z M-39 609 L-39 670 L291 670 L291 609 L-39 609 Z " />
<glyph glyph-name="Ibreve" unicode="&#x12c;" horiz-adv-x="280" d="M105 0 L105 700 L175 700 L175 0 L105 0 Z M140 771 Q93 771 59.5 783.5 Q26 796 4 818 Q-18 840 -28.5 869.5 Q-39 899 -39 932 L29 932 Q29 884 61.5 858.5 Q94 833 140 833 Q187 833 219 858.5 Q251 884 251 932 L319 932 Q319 899 308.5 869.5 Q298 840 276.5 818 Q255 796 221 783.5 Q187 771 140 771 Z " />
<glyph glyph-name="ibreve" unicode="&#x12d;" horiz-adv-x="252" d="M91 0 L91 511 L161 511 L161 0 L91 0 Z M126 581 Q79 581 45.5 593.5 Q12 606 -10 628 Q-32 650 -42.5 679.5 Q-53 709 -53 742 L15 742 Q15 694 47.5 668.5 Q80 643 126 643 Q173 643 205 668.5 Q237 694 237 742 L305 742 Q305 709 294.5 679.5 Q284 650 262.5 628 Q241 606 207 593.5 Q173 581 126 581 Z " />
<glyph glyph-name="Iogonek" unicode="&#x12e;" horiz-adv-x="280" d="M101 -234 Q79 -234 59.5 -228 Q40 -222 25 -209.5 Q10 -197 1 -178.5 Q-8 -160 -8 -136 Q-8 -86 24.5 -52.5 Q57 -19 105 0 L105 700 L175 700 L175 0 Q115 -20 84 -54.5 Q53 -89 53 -127 Q53 -158 70 -171 Q87 -184 107 -184 Q128 -184 141 -176.5 Q154 -169 162 -161 L201 -190 Q186 -207 161.5 -220.5 Q137 -234 101 -234 Z " />
<glyph glyph-name="iogonek" unicode="&#x12f;" horiz-adv-x="252" d="M88 -234 Q66 -234 46.5 -228 Q27 -222 12 -209.5 Q-3 -197 -12 -178.5 Q-21 -160 -21 -136 Q-21 -86 11 -52.5 Q43 -19 91 0 L91 511 L162 511 L162 0 Q102 -20 71 -54.5 Q40 -89 40 -127 Q40 -158 57 -171 Q74 -184 94 -184 Q115 -184 128 -176.5 Q141 -169 149 -161 L188 -190 Q173 -207 148.5 -220.5 Q124 -234 88 -234 Z M126 616 Q106 616 93 629 Q80 642 80 662 Q80 682 93 696 Q106 710 126 710 Q146 710 159.5 696 Q173 682 173 662 Q173 642 159.5 629 Q146 616 126 616 Z " />
<glyph glyph-name="Idotaccent" unicode="&#x130;" horiz-adv-x="280" d="M105 0 L105 700 L175 700 L175 0 L105 0 Z M140 796 Q120 796 106.5 809.5 Q93 823 93 843 Q93 863 106.5 876.5 Q120 890 140 890 Q160 890 173.5 876.5 Q187 863 187 843 Q187 823 173.5 809.5 Q160 796 140 796 Z " />
<glyph glyph-name="IJ" unicode="&#x132;" horiz-adv-x="805" d="M105 0 L105 700 L175 700 L175 0 L105 0 Z M491 -12 Q415 -12 373.5 19.5 Q332 51 309 107 L364 137 Q375 116 385 100 Q395 84 408.5 73 Q422 62 442 56.5 Q462 51 494 51 Q518 51 542.5 57.5 Q567 64 586.5 81.5 Q606 99 618 128.5 Q630 158 630 204 L630 700 L700 700 L700 225 Q700 153 680 107 Q660 61 629.5 34.5 Q599 8 562 -2 Q525 -12 491 -12 Z " />
<glyph glyph-name="ij" unicode="&#x133;" horiz-adv-x="510" d="M91 0 L91 511 L161 511 L161 0 L91 0 Z M126 616 Q106 616 93 629 Q80 642 80 662 Q80 682 93 696 Q106 710 126 710 Q146 710 159 696 Q172 682 172 662 Q172 642 159 629 Q146 616 126 616 Z M413 -32 Q413 -83 399 -117 Q385 -151 362.5 -171.5 Q340 -192 311.5 -201.5 Q283 -211 253 -213 L221 -158 Q257 -155 281 -146 Q305 -137 318.5 -124 Q332 -111 337.5 -94.5 Q343 -78 343 -60 L343 511 L413 511 L413 -32 Z M378 616 Q358 616 345 629 Q332 642 332 662 Q332 682 345 696 Q358 710 378 710 Q398 710 411 696 Q424 682 424 662 Q424 642 411 629 Q398 616 378 616 Z " />
<glyph glyph-name="Jcircumflex" unicode="&#x134;" horiz-adv-x="536" d="M222 -12 Q146 -12 104.5 19.5 Q63 51 40 107 L95 137 Q106 116 116 100 Q126 84 139.5 73 Q153 62 173 56.5 Q193 51 225 51 Q249 51 273.5 57.5 Q298 64 317.5 81.5 Q337 99 349 128.5 Q361 158 361 204 L361 700 L431 700 L431 225 Q431 153 411 107 Q391 61 360.5 34.5 Q330 8 293 -2 Q256 -12 222 -12 Z M512 766 L396 867 L280 766 L215 766 L356 922 L436 922 L577 766 L512 766 Z " />
<glyph glyph-name="jcircumflex" unicode="&#x135;" horiz-adv-x="258" d="M162 -32 Q162 -83 148 -117 Q134 -151 111.5 -171.5 Q89 -192 60.5 -201.5 Q32 -211 2 -213 L-30 -158 Q6 -155 30 -146 Q54 -137 67.5 -124 Q81 -111 86.5 -94.5 Q92 -78 92 -60 L92 511 L162 511 L162 -32 Z M243 576 L127 677 L11 576 L-54 576 L87 732 L167 732 L308 576 L243 576 Z " />
<glyph glyph-name="Kcommaaccent" unicode="&#x136;" horiz-adv-x="643" d="M509 0 L289 403 L175 261 L175 0 L105 0 L105 700 L175 700 L175 352 L452 700 L528 700 L337 462 L588 0 L509 0 Z M297 -239 Q304 -234 318.5 -214.5 Q333 -195 336 -165 Q307 -165 294.5 -148.5 Q282 -132 282 -111 Q282 -87 298 -72.5 Q314 -58 334 -58 Q354 -58 371 -74 Q388 -90 388 -117 Q388 -157 370.5 -189 Q353 -221 315 -244 L297 -239 Z " />
<glyph glyph-name="kcommaaccent" unicode="&#x137;" horiz-adv-x="511" d="M294 375 L486 0 L409 0 L245 324 L160 233 L160 0 L90 0 L90 688 L160 722 L160 316 L341 511 L422 511 L294 375 Z M238 -239 Q245 -234 259.5 -214.5 Q274 -195 277 -165 Q248 -165 235.5 -148.5 Q223 -132 223 -111 Q223 -87 239 -72.5 Q255 -58 275 -58 Q295 -58 312 -74 Q329 -90 329 -117 Q329 -157 311.5 -189 Q294 -221 256 -244 L238 -239 Z " />
<glyph glyph-name="kgreenlandic" unicode="&#x138;" horiz-adv-x="522" d="M422 0 L279 264 L160 115 L160 0 L90 0 L90 511 L160 511 L160 208 L398 511 L476 511 L327 323 L502 0 L422 0 Z " />
<glyph glyph-name="Lacute" unicode="&#x139;" horiz-adv-x="562" d="M105 0 L105 700 L175 700 L175 67 L522 67 L522 0 L105 0 Z M129 766 L58 766 L200 922 L307 922 L129 766 Z " />
<glyph glyph-name="lacute" unicode="&#x13a;" horiz-adv-x="260" d="M95 0 L95 688 L165 722 L165 0 L95 0 Z M95 756 L24 756 L166 912 L273 912 L95 756 Z " />
<glyph glyph-name="Lcommaaccent" unicode="&#x13b;" horiz-adv-x="562" d="M105 0 L105 700 L175 700 L175 67 L522 67 L522 0 L105 0 Z M275 -239 Q282 -234 296.5 -214.5 Q311 -195 314 -165 Q285 -165 272.5 -148.5 Q260 -132 260 -111 Q260 -87 276 -72.5 Q292 -58 312 -58 Q332 -58 349 -74 Q366 -90 366 -117 Q366 -157 348.5 -189 Q331 -221 293 -244 L275 -239 Z " />
<glyph glyph-name="lcommaaccent" unicode="&#x13c;" horiz-adv-x="260" d="M95 0 L95 688 L165 722 L165 0 L95 0 Z M92 -239 Q99 -234 113.5 -214.5 Q128 -195 131 -165 Q102 -165 89.5 -148.5 Q77 -132 77 -111 Q77 -87 93 -72.5 Q109 -58 129 -58 Q149 -58 166 -74 Q183 -90 183 -117 Q183 -157 165.5 -189 Q148 -221 110 -244 L92 -239 Z " />
<glyph glyph-name="Lcaron" unicode="&#x13d;" horiz-adv-x="562" d="M105 0 L105 700 L175 700 L175 67 L522 67 L522 0 L105 0 Z M180 766 L100 766 L-41 922 L24 922 L140 821 L256 922 L321 922 L180 766 Z " />
<glyph glyph-name="lcaron" unicode="&#x13e;" horiz-adv-x="403" d="M95 0 L95 688 L165 722 L165 0 L95 0 Z M371 712 L371 704 Q371 643 355.5 587.5 Q340 532 291 484 L271 498 Q278 513 283.5 537.5 Q289 562 293 591.5 Q297 621 299 652.5 Q301 684 301 712 L371 712 Z " />
<glyph glyph-name="Ldot" unicode="&#x13f;" horiz-adv-x="562" d="M105 0 L105 700 L175 700 L175 67 L522 67 L522 0 L105 0 Z M408 301 Q388 301 374.5 314.5 Q361 328 361 348 Q361 368 374.5 381.5 Q388 395 408 395 Q428 395 441.5 381.5 Q455 368 455 348 Q455 328 441.5 314.5 Q428 301 408 301 Z " />
<glyph glyph-name="ldot" unicode="&#x140;" horiz-adv-x="340" d="M95 0 L95 688 L165 722 L165 0 L95 0 Z M286 267 Q266 267 252.5 280.5 Q239 294 239 314 Q239 334 252.5 347.5 Q266 361 286 361 Q306 361 319.5 347.5 Q333 334 333 314 Q333 294 319.5 280.5 Q306 267 286 267 Z " />
<glyph glyph-name="Nacute" unicode="&#x143;" horiz-adv-x="705" d="M529 0 L175 569 L175 0 L105 0 L105 700 L176 700 L530 123 L530 700 L600 700 L600 0 L529 0 Z M343 766 L272 766 L414 922 L521 922 L343 766 Z " />
<glyph glyph-name="nacute" unicode="&#x144;" horiz-adv-x="560" d="M160 455 Q184 490 217.5 506.5 Q251 523 292 523 Q386 523 430.5 466.5 Q475 410 475 283 L475 0 L405 0 L405 312 Q405 393 371 426.5 Q337 460 286 460 Q259 460 236 453 Q213 446 196 429 Q179 412 169.5 384 Q160 356 160 314 L160 0 L90 0 L90 511 L160 511 L160 455 Z M252 576 L181 576 L323 732 L430 732 L252 576 Z " />
<glyph glyph-name="Ncommaaccent" unicode="&#x145;" horiz-adv-x="705" d="M529 0 L175 569 L175 0 L105 0 L105 700 L176 700 L530 123 L530 700 L600 700 L600 0 L529 0 Z M318 -239 Q325 -234 339.5 -214.5 Q354 -195 357 -165 Q328 -165 315.5 -148.5 Q303 -132 303 -111 Q303 -87 319 -72.5 Q335 -58 355 -58 Q375 -58 392 -74 Q409 -90 409 -117 Q409 -157 391.5 -189 Q374 -221 336 -244 L318 -239 Z " />
<glyph glyph-name="ncommaaccent" unicode="&#x146;" horiz-adv-x="560" d="M160 455 Q184 490 217.5 506.5 Q251 523 292 523 Q386 523 430.5 466.5 Q475 410 475 283 L475 0 L405 0 L405 312 Q405 393 371 426.5 Q337 460 286 460 Q259 460 236 453 Q213 446 196 429 Q179 412 169.5 384 Q160 356 160 314 L160 0 L90 0 L90 511 L160 511 L160 455 Z M255 -239 Q262 -234 276.5 -214.5 Q291 -195 294 -165 Q265 -165 252.5 -148.5 Q240 -132 240 -111 Q240 -87 256 -72.5 Q272 -58 292 -58 Q312 -58 329 -74 Q346 -90 346 -117 Q346 -157 328.5 -189 Q311 -221 273 -244 L255 -239 Z " />
<glyph glyph-name="Ncaron" unicode="&#x147;" horiz-adv-x="705" d="M529 0 L175 569 L175 0 L105 0 L105 700 L176 700 L530 123 L530 700 L600 700 L600 0 L529 0 Z M402 766 L322 766 L181 922 L246 922 L362 821 L478 922 L543 922 L402 766 Z " />
<glyph glyph-name="ncaron" unicode="&#x148;" horiz-adv-x="560" d="M160 455 Q184 490 217.5 506.5 Q251 523 292 523 Q386 523 430.5 466.5 Q475 410 475 283 L475 0 L405 0 L405 312 Q405 393 371 426.5 Q337 460 286 460 Q259 460 236 453 Q213 446 196 429 Q179 412 169.5 384 Q160 356 160 314 L160 0 L90 0 L90 511 L160 511 L160 455 Z M344 576 L264 576 L123 732 L188 732 L304 631 L420 732 L485 732 L344 576 Z " />
<glyph glyph-name="napostrophe" unicode="&#x149;" horiz-adv-x="756" d="M356 455 Q380 490 413.5 506.5 Q447 523 488 523 Q582 523 626.5 466.5 Q671 410 671 283 L671 0 L601 0 L601 312 Q601 393 567 426.5 Q533 460 482 460 Q455 460 432 453 Q409 446 392 429 Q375 412 365.5 384 Q356 356 356 314 L356 0 L286 0 L286 511 L356 511 L356 455 Z M73 467 Q80 473 88.5 483.5 Q97 494 104.5 509 Q112 524 117.5 543 Q123 562 123 584 Q91 584 70.5 601.5 Q50 619 50 646 Q50 677 68 694.5 Q86 712 111 712 Q124 712 137 707 Q150 702 160 692 Q170 682 176.5 666 Q183 650 183 628 Q183 571 157 528.5 Q131 486 92 462 L73 467 Z " />
<glyph glyph-name="Eng" unicode="&#x14a;" horiz-adv-x="705" d="M407 -189 Q444 -186 467.5 -173 Q491 -160 505 -142 Q519 -124 524.5 -102.5 Q530 -81 530 -60 L530 -1 L175 569 L175 0 L105 0 L105 700 L176 700 L530 123 L530 700 L600 700 L600 -46 Q600 -126 563.5 -179 Q527 -232 439 -244 L407 -189 Z " />
<glyph glyph-name="eng" unicode="&#x14b;" horiz-adv-x="560" d="M283 -158 Q319 -155 343 -146 Q367 -137 380.5 -124 Q394 -111 399.5 -94.5 Q405 -78 405 -60 L405 312 Q405 352 396 380.5 Q387 409 371 426.5 Q355 444 333.5 452 Q312 460 287 460 Q260 460 236.5 453 Q213 446 196 429 Q179 412 169.5 384 Q160 356 160 314 L160 0 L90 0 L90 511 L160 511 L160 455 Q184 490 217.5 506.5 Q251 523 293 523 Q386 523 430.5 466.5 Q475 410 475 283 L475 -32 Q475 -83 461 -117 Q447 -151 424.5 -171.5 Q402 -192 373.5 -201.5 Q345 -211 315 -213 L283 -158 Z " />
<glyph glyph-name="Omacron" unicode="&#x14c;" horiz-adv-x="720" d="M360 51 Q420 51 461.5 78 Q503 105 528.5 148 Q554 191 565.5 244.5 Q577 298 577 350 Q577 407 565.5 461 Q554 515 528.5 556.5 Q503 598 461.5 623.5 Q420 649 360 649 Q300 649 258.5 622 Q217 595 191.5 552 Q166 509 154.5 455.5 Q143 402 143 350 Q143 293 154.5 239 Q166 185 191.5 143.5 Q217 102 258.5 76.5 Q300 51 360 51 Z M360 -12 Q279 -12 223.5 20 Q168 52 134 104 Q100 156 85 220.5 Q70 285 70 350 Q70 415 85 479.5 Q100 544 134 596 Q168 648 223.5 680 Q279 712 360 712 Q441 712 496.5 680 Q552 648 586 596 Q620 544 635 479.5 Q650 415 650 350 Q650 285 635 220.5 Q620 156 586 104 Q552 52 496.5 20 Q441 -12 360 -12 Z M196 799 L196 860 L526 860 L526 799 L196 799 Z " />
<glyph glyph-name="omacron" unicode="&#x14d;" horiz-adv-x="548" d="M274 51 Q344 51 382 105 Q420 159 420 256 Q420 352 383 406 Q346 460 274 460 Q202 460 165 407.5 Q128 355 128 255 Q128 159 165 105 Q202 51 274 51 Z M274 523 Q323 523 363.5 505 Q404 487 432.5 453 Q461 419 477 369.5 Q493 320 493 256 Q493 193 477 143 Q461 93 432.5 58.5 Q404 24 363.5 6 Q323 -12 274 -12 Q225 -12 184.5 6 Q144 24 115.5 58 Q87 92 71 141.5 Q55 191 55 255 Q55 318 71 367.5 Q87 417 115.5 451.5 Q144 486 184.5 504.5 Q225 523 274 523 Z M109 609 L109 670 L439 670 L439 609 L109 609 Z " />
<glyph glyph-name="Obreve" unicode="&#x14e;" horiz-adv-x="720" d="M360 51 Q420 51 461.5 78 Q503 105 528.5 148 Q554 191 565.5 244.5 Q577 298 577 350 Q577 407 565.5 461 Q554 515 528.5 556.5 Q503 598 461.5 623.5 Q420 649 360 649 Q300 649 258.5 622 Q217 595 191.5 552 Q166 509 154.5 455.5 Q143 402 143 350 Q143 293 154.5 239 Q166 185 191.5 143.5 Q217 102 258.5 76.5 Q300 51 360 51 Z M360 -12 Q279 -12 223.5 20 Q168 52 134 104 Q100 156 85 220.5 Q70 285 70 350 Q70 415 85 479.5 Q100 544 134 596 Q168 648 223.5 680 Q279 712 360 712 Q441 712 496.5 680 Q552 648 586 596 Q620 544 635 479.5 Q650 415 650 350 Q650 285 635 220.5 Q620 156 586 104 Q552 52 496.5 20 Q441 -12 360 -12 Z M360 771 Q313 771 279.5 783.5 Q246 796 224 818 Q202 840 191.5 869.5 Q181 899 181 932 L249 932 Q249 884 281.5 858.5 Q314 833 360 833 Q407 833 439 858.5 Q471 884 471 932 L539 932 Q539 899 528.5 869.5 Q518 840 496.5 818 Q475 796 441 783.5 Q407 771 360 771 Z " />
<glyph glyph-name="obreve" unicode="&#x14f;" horiz-adv-x="548" d="M274 51 Q344 51 382 105 Q420 159 420 256 Q420 352 383 406 Q346 460 274 460 Q202 460 165 407.5 Q128 355 128 255 Q128 159 165 105 Q202 51 274 51 Z M274 523 Q323 523 363.5 505 Q404 487 432.5 453 Q461 419 477 369.5 Q493 320 493 256 Q493 193 477 143 Q461 93 432.5 58.5 Q404 24 363.5 6 Q323 -12 274 -12 Q225 -12 184.5 6 Q144 24 115.5 58 Q87 92 71 141.5 Q55 191 55 255 Q55 318 71 367.5 Q87 417 115.5 451.5 Q144 486 184.5 504.5 Q225 523 274 523 Z M274 581 Q227 581 193.5 593.5 Q160 606 138 628 Q116 650 105.5 679.5 Q95 709 95 742 L163 742 Q163 694 195.5 668.5 Q228 643 274 643 Q321 643 353 668.5 Q385 694 385 742 L453 742 Q453 709 442.5 679.5 Q432 650 410.5 628 Q389 606 355 593.5 Q321 581 274 581 Z " />
<glyph glyph-name="Ohungarumlaut" unicode="&#x150;" horiz-adv-x="720" d="M360 51 Q420 51 461.5 78 Q503 105 528.5 148 Q554 191 565.5 244.5 Q577 298 577 350 Q577 407 565.5 461 Q554 515 528.5 556.5 Q503 598 461.5 623.5 Q420 649 360 649 Q300 649 258.5 622 Q217 595 191.5 552 Q166 509 154.5 455.5 Q143 402 143 350 Q143 293 154.5 239 Q166 185 191.5 143.5 Q217 102 258.5 76.5 Q300 51 360 51 Z M360 -12 Q279 -12 223.5 20 Q168 52 134 104 Q100 156 85 220.5 Q70 285 70 350 Q70 415 85 479.5 Q100 544 134 596 Q168 648 223.5 680 Q279 712 360 712 Q441 712 496.5 680 Q552 648 586 596 Q620 544 635 479.5 Q650 415 650 350 Q650 285 635 220.5 Q620 156 586 104 Q552 52 496.5 20 Q441 -12 360 -12 Z M262 766 L191 766 L333 922 L440 922 L262 766 Z M460 766 L389 766 L531 922 L638 922 L460 766 Z " />
<glyph glyph-name="ohungarumlaut" unicode="&#x151;" horiz-adv-x="548" d="M274 51 Q344 51 382 105 Q420 159 420 256 Q420 352 383 406 Q346 460 274 460 Q202 460 165 407.5 Q128 355 128 255 Q128 159 165 105 Q202 51 274 51 Z M274 523 Q323 523 363.5 505 Q404 487 432.5 453 Q461 419 477 369.5 Q493 320 493 256 Q493 193 477 143 Q461 93 432.5 58.5 Q404 24 363.5 6 Q323 -12 274 -12 Q225 -12 184.5 6 Q144 24 115.5 58 Q87 92 71 141.5 Q55 191 55 255 Q55 318 71 367.5 Q87 417 115.5 451.5 Q144 486 184.5 504.5 Q225 523 274 523 Z M175 576 L104 576 L246 732 L353 732 L175 576 Z M373 576 L302 576 L444 732 L551 732 L373 576 Z " />
<glyph glyph-name="Racute" unicode="&#x154;" horiz-adv-x="658" d="M578 508 Q578 476 569 445 Q560 414 539.5 387.5 Q519 361 486 342 Q453 323 405 316 L560 0 L483 0 L333 313 L175 313 L175 0 L105 0 L105 700 L362 700 Q424 700 465.5 683 Q507 666 532 639 Q557 612 567.5 577.5 Q578 543 578 508 Z M364 376 Q405 376 433 387.5 Q461 399 478.5 417 Q496 435 503.5 458 Q511 481 511 505 Q511 526 504 549 Q497 572 480.5 591.5 Q464 611 435.5 624 Q407 637 364 637 L175 637 L175 376 L364 376 Z M293 766 L222 766 L364 922 L471 922 L293 766 Z " />
<glyph glyph-name="racute" unicode="&#x155;" horiz-adv-x="386" d="M90 0 L90 511 L160 511 L160 439 Q188 481 225 502 Q262 523 297 523 Q335 523 361 502 L350 434 Q340 440 324.5 446.5 Q309 453 284 453 Q267 453 245.5 445 Q224 437 205 418 Q186 399 173 367.5 Q160 336 160 289 L160 0 L90 0 Z M200 576 L129 576 L271 732 L378 732 L200 576 Z " />
<glyph glyph-name="Rcommaaccent" unicode="&#x156;" horiz-adv-x="658" d="M578 508 Q578 476 569 445 Q560 414 539.5 387.5 Q519 361 486 342 Q453 323 405 316 L560 0 L483 0 L333 313 L175 313 L175 0 L105 0 L105 700 L362 700 Q424 700 465.5 683 Q507 666 532 639 Q557 612 567.5 577.5 Q578 543 578 508 Z M364 376 Q405 376 433 387.5 Q461 399 478.5 417 Q496 435 503.5 458 Q511 481 511 505 Q511 526 504 549 Q497 572 480.5 591.5 Q464 611 435.5 624 Q407 637 364 637 L175 637 L175 376 L364 376 Z M266 -239 Q273 -234 287.5 -214.5 Q302 -195 305 -165 Q276 -165 263.5 -148.5 Q251 -132 251 -111 Q251 -87 267 -72.5 Q283 -58 303 -58 Q323 -58 340 -74 Q357 -90 357 -117 Q357 -157 339.5 -189 Q322 -221 284 -244 L266 -239 Z " />
<glyph glyph-name="rcommaaccent" unicode="&#x157;" horiz-adv-x="386" d="M90 0 L90 511 L160 511 L160 439 Q188 481 225 502 Q262 523 297 523 Q335 523 361 502 L350 434 Q340 440 324.5 446.5 Q309 453 284 453 Q267 453 245.5 445 Q224 437 205 418 Q186 399 173 367.5 Q160 336 160 289 L160 0 L90 0 Z M90 -259 Q97 -254 111.5 -234.5 Q126 -215 129 -185 Q100 -185 87.5 -168.5 Q75 -152 75 -131 Q75 -107 91 -92.5 Q107 -78 127 -78 Q147 -78 164 -94 Q181 -110 181 -137 Q181 -177 163.5 -209 Q146 -241 108 -264 L90 -259 Z " />
<glyph glyph-name="Rcaron" unicode="&#x158;" horiz-adv-x="658" d="M578 508 Q578 476 569 445 Q560 414 539.5 387.5 Q519 361 486 342 Q453 323 405 316 L560 0 L483 0 L333 313 L175 313 L175 0 L105 0 L105 700 L362 700 Q424 700 465.5 683 Q507 666 532 639 Q557 612 567.5 577.5 Q578 543 578 508 Z M364 376 Q405 376 433 387.5 Q461 399 478.5 417 Q496 435 503.5 458 Q511 481 511 505 Q511 526 504 549 Q497 572 480.5 591.5 Q464 611 435.5 624 Q407 637 364 637 L175 637 L175 376 L364 376 Z M350 766 L270 766 L129 922 L194 922 L310 821 L426 922 L491 922 L350 766 Z " />
<glyph glyph-name="rcaron" unicode="&#x159;" horiz-adv-x="386" d="M90 0 L90 511 L160 511 L160 439 Q188 481 225 502 Q262 523 297 523 Q335 523 361 502 L350 434 Q340 440 324.5 446.5 Q309 453 284 453 Q267 453 245.5 445 Q224 437 205 418 Q186 399 173 367.5 Q160 336 160 289 L160 0 L90 0 Z M271 576 L191 576 L50 732 L115 732 L231 631 L347 732 L412 732 L271 576 Z " />
<glyph glyph-name="Sacute" unicode="&#x15a;" horiz-adv-x="594" d="M420 579 Q407 607 373.5 628 Q340 649 287 649 Q225 649 190.5 622 Q156 595 156 550 Q156 522 169.5 501.5 Q183 481 205.5 464.5 Q228 448 257 435 Q286 422 317 410 Q353 396 389 377 Q425 358 454 331 Q483 304 501 267.5 Q519 231 519 182 Q519 135 502.5 99 Q486 63 457 38.5 Q428 14 387 1 Q346 -12 298 -12 Q254 -12 216 -0.5 Q178 11 148 30.5 Q118 50 96.5 75.5 Q75 101 65 130 L131 154 Q152 108 195.5 79.5 Q239 51 299 51 Q368 51 407.5 84 Q447 117 447 180 Q447 212 434 237.5 Q421 263 399 282.5 Q377 302 348.5 316.5 Q320 331 289 343 Q252 357 215.5 374.5 Q179 392 149.5 416.5 Q120 441 102 473 Q84 505 84 549 Q84 582 98 612 Q112 642 138.5 664 Q165 686 203 699 Q241 712 290 712 Q367 712 419 680.5 Q471 649 485 601 L420 579 Z M272 766 L201 766 L343 922 L450 922 L272 766 Z " />
<glyph glyph-name="sacute" unicode="&#x15b;" horiz-adv-x="463" d="M345 406 Q325 426 295 443.5 Q265 461 223 461 Q178 461 152 443 Q126 425 126 394 Q126 374 136 360 Q146 346 162 334.5 Q178 323 199 314 Q220 305 243 296 Q271 285 300.5 271.5 Q330 258 353 239 Q376 220 391 193.5 Q406 167 406 128 Q406 64 360 26 Q314 -12 234 -12 Q182 -12 136 13.5 Q90 39 58 77 L107 120 Q130 92 165 71 Q200 50 240 50 Q282 50 311 69 Q340 88 340 124 Q340 147 329 164.5 Q318 182 300 195 Q282 208 259 218.5 Q236 229 213 238 Q183 250 155 264 Q127 278 106 296 Q85 314 72.5 337.5 Q60 361 60 393 Q60 422 72.5 446 Q85 470 106.5 487 Q128 504 158.5 513.5 Q189 523 225 523 Q277 523 318.5 502.5 Q360 482 391 445 L345 406 Z M199 576 L128 576 L270 732 L377 732 L199 576 Z " />
<glyph glyph-name="Scircumflex" unicode="&#x15c;" horiz-adv-x="594" d="M420 579 Q407 607 373.5 628 Q340 649 287 649 Q225 649 190.5 622 Q156 595 156 550 Q156 522 169.5 501.5 Q183 481 205.5 464.5 Q228 448 257 435 Q286 422 317 410 Q353 396 389 377 Q425 358 454 331 Q483 304 501 267.5 Q519 231 519 182 Q519 135 502.5 99 Q486 63 457 38.5 Q428 14 387 1 Q346 -12 298 -12 Q254 -12 216 -0.5 Q178 11 148 30.5 Q118 50 96.5 75.5 Q75 101 65 130 L131 154 Q152 108 195.5 79.5 Q239 51 299 51 Q368 51 407.5 84 Q447 117 447 180 Q447 212 434 237.5 Q421 263 399 282.5 Q377 302 348.5 316.5 Q320 331 289 343 Q252 357 215.5 374.5 Q179 392 149.5 416.5 Q120 441 102 473 Q84 505 84 549 Q84 582 98 612 Q112 642 138.5 664 Q165 686 203 699 Q241 712 290 712 Q367 712 419 680.5 Q471 649 485 601 L420 579 Z M407 766 L291 867 L175 766 L110 766 L251 922 L331 922 L472 766 L407 766 Z " />
<glyph glyph-name="scircumflex" unicode="&#x15d;" horiz-adv-x="463" d="M345 406 Q325 426 295 443.5 Q265 461 223 461 Q178 461 152 443 Q126 425 126 394 Q126 374 136 360 Q146 346 162 334.5 Q178 323 199 314 Q220 305 243 296 Q271 285 300.5 271.5 Q330 258 353 239 Q376 220 391 193.5 Q406 167 406 128 Q406 64 360 26 Q314 -12 234 -12 Q182 -12 136 13.5 Q90 39 58 77 L107 120 Q130 92 165 71 Q200 50 240 50 Q282 50 311 69 Q340 88 340 124 Q340 147 329 164.5 Q318 182 300 195 Q282 208 259 218.5 Q236 229 213 238 Q183 250 155 264 Q127 278 106 296 Q85 314 72.5 337.5 Q60 361 60 393 Q60 422 72.5 446 Q85 470 106.5 487 Q128 504 158.5 513.5 Q189 523 225 523 Q277 523 318.5 502.5 Q360 482 391 445 L345 406 Z M347 576 L231 677 L115 576 L50 576 L191 732 L271 732 L412 576 L347 576 Z " />
<glyph glyph-name="Scedilla" unicode="&#x15e;" horiz-adv-x="594" d="M293 -234 Q264 -234 242 -226.5 Q220 -219 205 -206 L251 -176 Q257 -184 265 -185 Q273 -186 287 -186 Q308 -186 324 -171.5 Q340 -157 340 -135 Q340 -116 321 -101.5 Q302 -87 279 -87 Q254 -87 243 -92 L231 -77 L282 -11 Q241 -9 205.5 3 Q170 15 142 34 Q114 53 94.5 78 Q75 103 65 130 L131 154 Q152 108 195.5 80.5 Q239 53 299 53 Q368 53 407 85 Q446 117 446 180 Q446 211 433 236.5 Q420 262 398 281.5 Q376 301 348 316 Q320 331 289 343 Q252 357 215.5 374.5 Q179 392 149.5 416 Q120 440 102 472.5 Q84 505 84 549 Q84 582 98 612 Q112 642 138.5 664 Q165 686 203 699 Q241 712 290 712 Q367 712 419 680.5 Q471 649 485 601 L420 579 Q407 607 373.5 627 Q340 647 287 647 Q225 647 191 621 Q157 595 157 550 Q157 523 170.5 502 Q184 481 206 464.5 Q228 448 257 435 Q286 422 317 410 Q353 396 389 377.5 Q425 359 454 332 Q483 305 501 268.5 Q519 232 519 182 Q519 139 505 105 Q491 71 465.5 46.5 Q440 22 405 7.5 Q370 -7 327 -11 L301 -55 Q330 -55 350 -62 Q370 -69 382.5 -80.5 Q395 -92 400.5 -106.5 Q406 -121 406 -136 Q406 -180 373.5 -207 Q341 -234 293 -234 Z " />
<glyph glyph-name="scedilla" unicode="&#x15f;" horiz-adv-x="463" d="M214 -234 Q185 -234 163 -226.5 Q141 -219 126 -206 L172 -176 Q178 -184 186 -185 Q194 -186 208 -186 Q229 -186 245 -171.5 Q261 -157 261 -135 Q261 -116 242 -101.5 Q223 -87 200 -87 Q175 -87 164 -92 L152 -77 L204 -9 Q161 -2 123.5 21 Q86 44 58 77 L107 120 Q130 92 165 71 Q200 50 240 50 Q282 50 311 69 Q340 88 340 124 Q340 147 329 164.5 Q318 182 300 195 Q282 208 259 218.5 Q236 229 213 238 Q183 250 155 264 Q127 278 106 296 Q85 314 72.5 337.5 Q60 361 60 393 Q60 422 72.5 446 Q85 470 106.5 487 Q128 504 158.5 513.5 Q189 523 225 523 Q277 523 318.5 502.5 Q360 482 391 445 L345 406 Q325 426 295 443.5 Q265 461 223 461 Q178 461 152 443 Q126 425 126 394 Q126 374 136 360 Q146 346 162 334.5 Q178 323 199 314 Q220 305 243 296 Q271 285 300.5 271.5 Q330 258 353 239 Q376 220 391 193.5 Q406 167 406 128 Q406 67 363.5 29.5 Q321 -8 248 -11 L222 -55 Q251 -55 271 -62 Q291 -69 303.5 -80.5 Q316 -92 321.5 -106.5 Q327 -121 327 -136 Q327 -180 294.5 -207 Q262 -234 214 -234 Z " />
<glyph glyph-name="uni0162" unicode="&#x162;" horiz-adv-x="575" d="M266 -234 Q237 -234 215 -226.5 Q193 -219 178 -206 L224 -176 Q230 -184 238 -185 Q246 -186 260 -186 Q281 -186 297 -171.5 Q313 -157 313 -135 Q313 -116 294 -101.5 Q275 -87 252 -87 Q227 -87 216 -92 L204 -77 L266 0 L252 0 L252 635 L60 635 L60 700 L515 700 L515 635 L322 635 L322 0 L308 0 L274 -55 Q303 -55 323 -62 Q343 -69 355.5 -80.5 Q368 -92 373.5 -106.5 Q379 -121 379 -136 Q379 -180 346.5 -207 Q314 -234 266 -234 Z " />
<glyph glyph-name="uni0163" unicode="&#x163;" horiz-adv-x="369" d="M173 -234 Q144 -234 122 -226.5 Q100 -219 85 -206 L131 -176 Q137 -184 145 -185 Q153 -186 167 -186 Q188 -186 204 -171.5 Q220 -157 220 -135 Q220 -116 201 -101.5 Q182 -87 159 -87 Q134 -87 123 -92 L111 -77 L169 -2 Q142 11 129.5 39 Q117 67 117 105 L117 448 L30 448 L30 511 L117 511 L117 687 L187 722 L187 511 L317 511 L317 448 L187 448 L187 135 Q187 118 188.5 103.5 Q190 89 196 78 Q202 67 213 60.5 Q224 54 242 54 Q268 54 286.5 64 Q305 74 319 84 L311 11 Q291 0 269 -6 Q247 -12 218 -12 Q210 -12 207 -11 L181 -55 Q210 -55 230 -62 Q250 -69 262.5 -80.5 Q275 -92 280.5 -106.5 Q286 -121 286 -136 Q286 -180 253.5 -207 Q221 -234 173 -234 Z " />
<glyph glyph-name="Tcaron" unicode="&#x164;" horiz-adv-x="575" d="M322 633 L322 0 L252 0 L252 633 L60 633 L60 700 L515 700 L515 633 L322 633 Z M327 766 L247 766 L106 922 L171 922 L287 821 L403 922 L468 922 L327 766 Z " />
<glyph glyph-name="tcaron" unicode="&#x165;" horiz-adv-x="419" d="M218 -12 Q163 -12 140 21.5 Q117 55 117 105 L117 448 L30 448 L30 511 L117 511 L117 687 L187 722 L187 511 L317 511 L317 448 L187 448 L187 135 Q187 118 188.5 103.5 Q190 89 196 78 Q202 67 213 60.5 Q224 54 242 54 Q268 54 286.5 64 Q305 74 319 84 L311 11 Q291 0 269 -6 Q247 -12 218 -12 Z M376 840 L376 832 Q376 771 360.5 715.5 Q345 660 296 612 L276 626 Q283 641 288.5 665.5 Q294 690 298 719.5 Q302 749 304 780.5 Q306 812 306 840 L376 840 Z " />
<glyph glyph-name="Tbar" unicode="&#x166;" horiz-adv-x="575" d="M322 633 L322 350 L450 350 L450 283 L322 283 L322 0 L252 0 L252 283 L123 283 L123 350 L252 350 L252 633 L60 633 L60 700 L515 700 L515 633 L322 633 Z " />
<glyph glyph-name="tbar" unicode="&#x167;" horiz-adv-x="399" d="M207 238 L207 135 Q207 118 208.5 103.5 Q210 89 216 78 Q222 67 233 60.5 Q244 54 262 54 Q288 54 306.5 64 Q325 74 339 84 L331 11 Q311 0 289 -6 Q267 -12 238 -12 Q183 -12 160 21.5 Q137 55 137 105 L137 238 L50 238 L50 301 L137 301 L137 448 L50 448 L50 511 L137 511 L137 687 L207 722 L207 511 L337 511 L337 448 L207 448 L207 301 L337 301 L337 238 L207 238 Z " />
<glyph glyph-name="Utilde" unicode="&#x168;" horiz-adv-x="680" d="M340 -12 Q284 -12 239.5 3 Q195 18 164 51 Q133 84 116.5 135.5 Q100 187 100 260 L100 700 L170 700 L170 260 Q170 197 184 156.5 Q198 116 221.5 92.5 Q245 69 275.5 60 Q306 51 340 51 Q374 51 404.5 60 Q435 69 458.5 92.5 Q482 116 496 156.5 Q510 197 510 260 L510 700 L580 700 L580 260 Q580 187 563.5 135.5 Q547 84 516 51 Q485 18 440.5 3 Q396 -12 340 -12 Z M420 792 Q393 792 371 800 Q349 808 329.5 817 Q310 826 292 834 Q274 842 255 842 Q236 842 223 830.5 Q210 819 208 796 L169 796 Q169 849 191.5 877.5 Q214 906 262 906 Q289 906 311 898 Q333 890 352.5 880.5 Q372 871 390 863 Q408 855 427 855 Q446 855 459 867 Q472 879 474 902 L512 902 Q512 849 490 820.5 Q468 792 420 792 Z " />
<glyph glyph-name="utilde" unicode="&#x169;" horiz-adv-x="560" d="M400 0 L400 49 Q373 14 343 1 Q313 -12 273 -12 Q174 -12 129.5 44 Q85 100 85 226 L85 511 L155 511 L155 199 Q155 119 188.5 85 Q222 51 273 51 Q300 51 323 58 Q346 65 363.5 82 Q381 99 390.5 127 Q400 155 400 197 L400 511 L470 511 L470 0 L400 0 Z M357 602 Q330 602 308 610 Q286 618 266.5 627 Q247 636 229 644 Q211 652 192 652 Q173 652 160 640.5 Q147 629 145 606 L106 606 Q106 659 128.5 687.5 Q151 716 199 716 Q226 716 248 708 Q270 700 289.5 690.5 Q309 681 327 673 Q345 665 364 665 Q383 665 396 677 Q409 689 411 712 L449 712 Q449 659 427 630.5 Q405 602 357 602 Z " />
<glyph glyph-name="Umacron" unicode="&#x16a;" horiz-adv-x="680" d="M340 -12 Q284 -12 239.5 3 Q195 18 164 51 Q133 84 116.5 135.5 Q100 187 100 260 L100 700 L170 700 L170 260 Q170 197 184 156.5 Q198 116 221.5 92.5 Q245 69 275.5 60 Q306 51 340 51 Q374 51 404.5 60 Q435 69 458.5 92.5 Q482 116 496 156.5 Q510 197 510 260 L510 700 L580 700 L580 260 Q580 187 563.5 135.5 Q547 84 516 51 Q485 18 440.5 3 Q396 -12 340 -12 Z M175 799 L175 860 L505 860 L505 799 L175 799 Z " />
<glyph glyph-name="umacron" unicode="&#x16b;" horiz-adv-x="560" d="M400 0 L400 49 Q373 14 343 1 Q313 -12 273 -12 Q174 -12 129.5 44 Q85 100 85 226 L85 511 L155 511 L155 199 Q155 119 188.5 85 Q222 51 273 51 Q300 51 323 58 Q346 65 363.5 82 Q381 99 390.5 127 Q400 155 400 197 L400 511 L470 511 L470 0 L400 0 Z M112 609 L112 670 L442 670 L442 609 L112 609 Z " />
<glyph glyph-name="Ubreve" unicode="&#x16c;" horiz-adv-x="680" d="M340 -12 Q284 -12 239.5 3 Q195 18 164 51 Q133 84 116.5 135.5 Q100 187 100 260 L100 700 L170 700 L170 260 Q170 197 184 156.5 Q198 116 221.5 92.5 Q245 69 275.5 60 Q306 51 340 51 Q374 51 404.5 60 Q435 69 458.5 92.5 Q482 116 496 156.5 Q510 197 510 260 L510 700 L580 700 L580 260 Q580 187 563.5 135.5 Q547 84 516 51 Q485 18 440.5 3 Q396 -12 340 -12 Z M340 771 Q293 771 259.5 783.5 Q226 796 204 818 Q182 840 171.5 869.5 Q161 899 161 932 L229 932 Q229 884 261.5 858.5 Q294 833 340 833 Q387 833 419 858.5 Q451 884 451 932 L519 932 Q519 899 508.5 869.5 Q498 840 476.5 818 Q455 796 421 783.5 Q387 771 340 771 Z " />
<glyph glyph-name="ubreve" unicode="&#x16d;" horiz-adv-x="560" d="M400 0 L400 49 Q373 14 343 1 Q313 -12 273 -12 Q174 -12 129.5 44 Q85 100 85 226 L85 511 L155 511 L155 199 Q155 119 188.5 85 Q222 51 273 51 Q300 51 323 58 Q346 65 363.5 82 Q381 99 390.5 127 Q400 155 400 197 L400 511 L470 511 L470 0 L400 0 Z M277 581 Q230 581 196.5 593.5 Q163 606 141 628 Q119 650 108.5 679.5 Q98 709 98 742 L166 742 Q166 694 198.5 668.5 Q231 643 277 643 Q324 643 356 668.5 Q388 694 388 742 L456 742 Q456 709 445.5 679.5 Q435 650 413.5 628 Q392 606 358 593.5 Q324 581 277 581 Z " />
<glyph glyph-name="Uring" unicode="&#x16e;" horiz-adv-x="680" d="M340 -12 Q284 -12 239.5 3 Q195 18 164 51 Q133 84 116.5 135.5 Q100 187 100 260 L100 700 L170 700 L170 260 Q170 197 184 156.5 Q198 116 221.5 92.5 Q245 69 275.5 60 Q306 51 340 51 Q374 51 404.5 60 Q435 69 458.5 92.5 Q482 116 496 156.5 Q510 197 510 260 L510 700 L580 700 L580 260 Q580 187 563.5 135.5 Q547 84 516 51 Q485 18 440.5 3 Q396 -12 340 -12 Z M340 730 Q317 730 296 739 Q275 748 259 763.5 Q243 779 234 800 Q225 821 225 844 Q225 867 234 887.5 Q243 908 259 923 Q275 938 296 946.5 Q317 955 340 955 Q363 955 384 946.5 Q405 938 420.5 923 Q436 908 445.5 887.5 Q455 867 455 844 Q455 821 445.5 800 Q436 779 420.5 763.5 Q405 748 384 739 Q363 730 340 730 Z M340 782 Q364 782 380 799.5 Q396 817 396 844 Q396 871 380 887 Q364 903 340 903 Q317 903 300.5 887 Q284 871 284 844 Q284 817 300.5 799.5 Q317 782 340 782 Z " />
<glyph glyph-name="uring" unicode="&#x16f;" horiz-adv-x="560" d="M400 0 L400 49 Q373 14 343 1 Q313 -12 273 -12 Q174 -12 129.5 44 Q85 100 85 226 L85 511 L155 511 L155 199 Q155 119 188.5 85 Q222 51 273 51 Q300 51 323 58 Q346 65 363.5 82 Q381 99 390.5 127 Q400 155 400 197 L400 511 L470 511 L470 0 L400 0 Z M277 540 Q254 540 233 549 Q212 558 196 573.5 Q180 589 171 610 Q162 631 162 654 Q162 677 171 697.5 Q180 718 196 733 Q212 748 233 756.5 Q254 765 277 765 Q300 765 321 756.5 Q342 748 357.5 733 Q373 718 382.5 697.5 Q392 677 392 654 Q392 631 382.5 610 Q373 589 357.5 573.5 Q342 558 321 549 Q300 540 277 540 Z M277 592 Q301 592 317 609.5 Q333 627 333 654 Q333 681 317 697 Q301 713 277 713 Q254 713 237.5 697 Q221 681 221 654 Q221 627 237.5 609.5 Q254 592 277 592 Z " />
<glyph glyph-name="Uhungarumlaut" unicode="&#x170;" horiz-adv-x="680" d="M340 -12 Q284 -12 239.5 3 Q195 18 164 51 Q133 84 116.5 135.5 Q100 187 100 260 L100 700 L170 700 L170 260 Q170 197 184 156.5 Q198 116 221.5 92.5 Q245 69 275.5 60 Q306 51 340 51 Q374 51 404.5 60 Q435 69 458.5 92.5 Q482 116 496 156.5 Q510 197 510 260 L510 700 L580 700 L580 260 Q580 187 563.5 135.5 Q547 84 516 51 Q485 18 440.5 3 Q396 -12 340 -12 Z M236 766 L165 766 L307 922 L414 922 L236 766 Z M434 766 L363 766 L505 922 L612 922 L434 766 Z " />
<glyph glyph-name="uhungarumlaut" unicode="&#x171;" horiz-adv-x="560" d="M400 0 L400 49 Q373 14 343 1 Q313 -12 273 -12 Q174 -12 129.5 44 Q85 100 85 226 L85 511 L155 511 L155 199 Q155 119 188.5 85 Q222 51 273 51 Q300 51 323 58 Q346 65 363.5 82 Q381 99 390.5 127 Q400 155 400 197 L400 511 L470 511 L470 0 L400 0 Z M180 576 L109 576 L251 732 L358 732 L180 576 Z M378 576 L307 576 L449 732 L556 732 L378 576 Z " />
<glyph glyph-name="Uogonek" unicode="&#x172;" horiz-adv-x="680" d="M366 -234 Q344 -234 324.5 -228 Q305 -222 290 -209.5 Q275 -197 266 -178.5 Q257 -160 257 -136 Q257 -97 280.5 -65.5 Q304 -34 343 -12 Q227 -12 163.5 51 Q100 114 100 260 L100 700 L170 700 L170 260 Q170 198 183 158 Q196 118 219.5 94 Q243 70 274.5 60.5 Q306 51 343 51 Q374 51 404 59.5 Q434 68 457.5 91.5 Q481 115 495.5 155.5 Q510 196 510 260 L510 700 L580 700 L580 260 Q580 202 570.5 160 Q561 118 544 88 Q527 58 503.5 38.5 Q480 19 452 6 Q387 -23 352.5 -52.5 Q318 -82 318 -127 Q318 -158 335 -171 Q352 -184 372 -184 Q393 -184 406 -176.5 Q419 -169 427 -161 L466 -190 Q451 -207 426.5 -220.5 Q402 -234 366 -234 Z " />
<glyph glyph-name="uogonek" unicode="&#x173;" horiz-adv-x="560" d="M393 -234 Q371 -234 351.5 -228 Q332 -222 317 -209.5 Q302 -197 293 -178.5 Q284 -160 284 -136 Q284 -86 316.5 -53 Q349 -20 400 0 L400 49 Q373 14 343 1 Q313 -12 273 -12 Q174 -12 129.5 44 Q85 100 85 226 L85 511 L155 511 L155 199 Q155 119 188.5 85 Q222 51 273 51 Q300 51 323 58 Q346 65 363.5 82 Q381 99 390.5 127 Q400 155 400 197 L400 511 L470 511 L470 0 Q403 -20 374 -54.5 Q345 -89 345 -127 Q345 -158 362 -171 Q379 -184 399 -184 Q420 -184 433 -176.5 Q446 -169 454 -161 L493 -190 Q478 -207 453.5 -220.5 Q429 -234 393 -234 Z " />
<glyph glyph-name="Wcircumflex" unicode="&#x174;" horiz-adv-x="827" d="M772 700 L620 0 L576 0 L408 562 L238 0 L190 0 L55 700 L129 700 L226 151 L383 700 L435 700 L586 163 L699 700 L772 700 Z M524 766 L408 867 L292 766 L227 766 L368 922 L448 922 L589 766 L524 766 Z " />
<glyph glyph-name="wcircumflex" unicode="&#x175;" horiz-adv-x="704" d="M538 0 L475 0 L351 375 L230 0 L166 0 L40 511 L110 511 L206 90 L328 511 L376 511 L500 85 L594 511 L664 511 L538 0 Z M467 576 L351 677 L235 576 L170 576 L311 732 L391 732 L532 576 L467 576 Z " />
<glyph glyph-name="Ycircumflex" unicode="&#x176;" horiz-adv-x="616" d="M274 0 L274 275 L45 700 L122 700 L308 340 L499 700 L571 700 L344 278 L344 0 L274 0 Z M425 766 L309 867 L193 766 L128 766 L269 922 L349 922 L490 766 L425 766 Z " />
<glyph glyph-name="ycircumflex" unicode="&#x177;" horiz-adv-x="511" d="M217 16 L30 511 L101 511 L247 99 L396 511 L471 511 L210 -194 L141 -194 L217 16 Z M363 576 L247 677 L131 576 L66 576 L207 732 L287 732 L428 576 L363 576 Z " />
<glyph glyph-name="Zacute" unicode="&#x179;" horiz-adv-x="637" d="M70 0 L70 49 L478 634 L93 634 L93 700 L567 700 L567 649 L164 66 L567 66 L567 0 L70 0 Z M310 766 L239 766 L381 922 L488 922 L310 766 Z " />
<glyph glyph-name="zacute" unicode="&#x17a;" horiz-adv-x="499" d="M70 0 L70 43 L331 448 L90 448 L90 511 L424 511 L424 469 L161 63 L423 63 L423 0 L70 0 Z M225 576 L154 576 L296 732 L403 732 L225 576 Z " />
<glyph glyph-name="Zdotaccent" unicode="&#x17b;" horiz-adv-x="637" d="M70 0 L70 49 L478 634 L93 634 L93 700 L567 700 L567 649 L164 66 L567 66 L567 0 L70 0 Z M329 796 Q309 796 295.5 809.5 Q282 823 282 843 Q282 863 295.5 876.5 Q309 890 329 890 Q349 890 362.5 876.5 Q376 863 376 843 Q376 823 362.5 809.5 Q349 796 329 796 Z " />
<glyph glyph-name="zdotaccent" unicode="&#x17c;" horiz-adv-x="499" d="M70 0 L70 43 L331 448 L90 448 L90 511 L424 511 L424 469 L161 63 L423 63 L423 0 L70 0 Z M254 606 Q234 606 220.5 619.5 Q207 633 207 653 Q207 673 220.5 686.5 Q234 700 254 700 Q274 700 287.5 686.5 Q301 673 301 653 Q301 633 287.5 619.5 Q274 606 254 606 Z " />
<glyph glyph-name="longs" unicode="&#x17f;" horiz-adv-x="308" d="M95 0 L95 598 Q95 629 104 651 Q113 673 128 686.5 Q143 700 162 706 Q181 712 201 712 Q229 712 250.5 704.5 Q272 697 288 688 L288 627 Q274 635 255 641 Q236 647 215 647 Q181 647 173 629.5 Q165 612 165 587 L165 0 L95 0 Z " />
<glyph glyph-name="uni01CD" unicode="&#x1cd;" horiz-adv-x="662" d="M531 0 L467 181 L194 181 L133 0 L60 0 L303 700 L357 700 L602 0 L531 0 Z M446 243 L350 523 Q345 536 338.5 556 Q332 576 330 586 Q327 576 321.5 556 Q316 536 311 523 L215 243 L446 243 Z M368 766 L288 766 L147 922 L212 922 L328 821 L444 922 L509 922 L368 766 Z " />
<glyph glyph-name="uni01CE" unicode="&#x1ce;" horiz-adv-x="519" d="M384 0 L384 50 Q353 22 314.5 5 Q276 -12 234 -12 Q157 -12 108.5 31.5 Q60 75 60 161 Q60 205 75.5 237 Q91 269 116.5 289.5 Q142 310 176 320 Q210 330 246 330 Q278 330 312 322 Q346 314 384 294 L384 337 Q384 376 374.5 400 Q365 424 349.5 438 Q334 452 313.5 457 Q293 462 272 462 Q253 462 232 457 Q211 452 191 444 Q171 436 152.5 426.5 Q134 417 120 407 L100 467 Q131 487 178.5 505 Q226 523 279 523 Q306 523 336 515.5 Q366 508 391 488.5 Q416 469 432.5 434.5 Q449 400 449 346 L449 0 L384 0 Z M241 49 Q264 49 285 56 Q306 63 324 74 Q342 85 357 99.5 Q372 114 384 128 L384 227 Q359 244 322.5 256.5 Q286 269 253 269 Q227 269 204 262.5 Q181 256 163.5 242.5 Q146 229 135.5 209 Q125 189 125 161 Q125 110 155 79.5 Q185 49 241 49 Z M319 576 L239 576 L98 732 L163 732 L279 631 L395 732 L460 732 L319 576 Z " />
<glyph glyph-name="uni01CF" unicode="&#x1cf;" horiz-adv-x="280" d="M105 0 L105 700 L175 700 L175 0 L105 0 Z M180 766 L100 766 L-41 922 L24 922 L140 821 L256 922 L321 922 L180 766 Z " />
<glyph glyph-name="uni01D0" unicode="&#x1d0;" horiz-adv-x="252" d="M91 0 L91 511 L161 511 L161 0 L91 0 Z M166 576 L86 576 L-55 732 L10 732 L126 631 L242 732 L307 732 L166 576 Z " />
<glyph glyph-name="uni01D1" unicode="&#x1d1;" horiz-adv-x="720" d="M360 51 Q420 51 461.5 78 Q503 105 528.5 148 Q554 191 565.5 244.5 Q577 298 577 350 Q577 407 565.5 461 Q554 515 528.5 556.5 Q503 598 461.5 623.5 Q420 649 360 649 Q300 649 258.5 622 Q217 595 191.5 552 Q166 509 154.5 455.5 Q143 402 143 350 Q143 293 154.5 239 Q166 185 191.5 143.5 Q217 102 258.5 76.5 Q300 51 360 51 Z M360 -12 Q279 -12 223.5 20 Q168 52 134 104 Q100 156 85 220.5 Q70 285 70 350 Q70 415 85 479.5 Q100 544 134 596 Q168 648 223.5 680 Q279 712 360 712 Q441 712 496.5 680 Q552 648 586 596 Q620 544 635 479.5 Q650 415 650 350 Q650 285 635 220.5 Q620 156 586 104 Q552 52 496.5 20 Q441 -12 360 -12 Z M400 766 L320 766 L179 922 L244 922 L360 821 L476 922 L541 922 L400 766 Z " />
<glyph glyph-name="uni01D2" unicode="&#x1d2;" horiz-adv-x="548" d="M274 51 Q344 51 382 105 Q420 159 420 256 Q420 352 383 406 Q346 460 274 460 Q202 460 165 407.5 Q128 355 128 255 Q128 159 165 105 Q202 51 274 51 Z M274 523 Q323 523 363.5 505 Q404 487 432.5 453 Q461 419 477 369.5 Q493 320 493 256 Q493 193 477 143 Q461 93 432.5 58.5 Q404 24 363.5 6 Q323 -12 274 -12 Q225 -12 184.5 6 Q144 24 115.5 58 Q87 92 71 141.5 Q55 191 55 255 Q55 318 71 367.5 Q87 417 115.5 451.5 Q144 486 184.5 504.5 Q225 523 274 523 Z M314 576 L234 576 L93 732 L158 732 L274 631 L390 732 L455 732 L314 576 Z " />
<glyph glyph-name="uni01D3" unicode="&#x1d3;" horiz-adv-x="680" d="M340 -12 Q284 -12 239.5 3 Q195 18 164 51 Q133 84 116.5 135.5 Q100 187 100 260 L100 700 L170 700 L170 260 Q170 197 184 156.5 Q198 116 221.5 92.5 Q245 69 275.5 60 Q306 51 340 51 Q374 51 404.5 60 Q435 69 458.5 92.5 Q482 116 496 156.5 Q510 197 510 260 L510 700 L580 700 L580 260 Q580 187 563.5 135.5 Q547 84 516 51 Q485 18 440.5 3 Q396 -12 340 -12 Z M380 766 L300 766 L159 922 L224 922 L340 821 L456 922 L521 922 L380 766 Z " />
<glyph glyph-name="uni01D4" unicode="&#x1d4;" horiz-adv-x="560" d="M400 0 L400 49 Q373 14 343 1 Q313 -12 273 -12 Q174 -12 129.5 44 Q85 100 85 226 L85 511 L155 511 L155 199 Q155 119 188.5 85 Q222 51 273 51 Q300 51 323 58 Q346 65 363.5 82 Q381 99 390.5 127 Q400 155 400 197 L400 511 L470 511 L470 0 L400 0 Z M317 576 L237 576 L96 732 L161 732 L277 631 L393 732 L458 732 L317 576 Z " />
<glyph glyph-name="AEacute" unicode="&#x1fc;" horiz-adv-x="859" d="M425 0 L425 181 L166 181 L63 0 L-16 0 L391 700 L767 700 L767 633 L495 633 L495 395 L680 395 L680 329 L495 329 L495 67 L789 67 L789 0 L425 0 Z M425 243 L425 640 L201 243 L425 243 Z M530 766 L459 766 L601 922 L708 922 L530 766 Z " />
<glyph glyph-name="aeacute" unicode="&#x1fd;" horiz-adv-x="849" d="M596 -12 Q538 -12 492 16 Q446 44 418 91 Q400 64 377.5 44.5 Q355 25 330.5 12.5 Q306 0 281 -6 Q256 -12 234 -12 Q157 -12 108.5 31.5 Q60 75 60 161 Q60 204 75 236 Q90 268 115.5 289 Q141 310 174.5 320 Q208 330 246 330 Q278 330 312 322 Q346 314 384 294 L384 337 Q384 405 354.5 433.5 Q325 462 272 462 Q253 462 232 457 Q211 452 191 444 Q171 436 152.5 426.5 Q134 417 120 407 L100 467 Q131 487 179 505 Q227 523 279 523 Q334 523 371.5 502 Q409 481 428 444 Q463 488 507.5 505.5 Q552 523 596 523 Q641 523 678.5 507 Q716 491 742.5 460 Q769 429 784 382.5 Q799 336 799 276 Q799 268 799 256 Q799 244 797 227 L449 227 Q459 142 499 97.5 Q539 53 599 53 Q627 53 656.5 62 Q686 71 715 93 L753 46 Q726 24 686 6 Q646 -12 596 -12 Z M597 460 Q535 460 493.5 419 Q452 378 447 290 L728 290 Q728 342 715 375 Q702 408 682 427 Q662 446 639 453 Q616 460 597 460 Z M241 49 Q264 49 285 56 Q306 63 324 74 Q342 85 357 99.5 Q372 114 384 128 L384 227 Q359 244 322.5 256.5 Q286 269 253 269 Q227 269 204 262.5 Q181 256 163.5 242.5 Q146 229 135.5 209 Q125 189 125 161 Q125 110 155 79.5 Q185 49 241 49 Z M420 576 L349 576 L491 732 L598 732 L420 576 Z " />
<glyph glyph-name="Oslashacute" unicode="&#x1fe;" horiz-adv-x="720" d="M573 614 Q615 561 632.5 491 Q650 421 650 350 Q650 285 635 220.5 Q620 156 586 104 Q552 52 496.5 20 Q441 -12 360 -12 Q306 -12 264 2.5 Q222 17 190 42 L154 -12 L82 -12 L147 86 Q105 139 87.5 208.5 Q70 278 70 350 Q70 415 85 479.5 Q100 544 134 596 Q168 648 223.5 680 Q279 712 360 712 Q413 712 454.5 697.5 Q496 683 528 658 L564 712 L638 712 L573 614 Z M360 51 Q420 51 461.5 78 Q503 105 528.5 148 Q554 191 565.5 244.5 Q577 298 577 350 Q577 406 566.5 458 Q556 510 531 552 L228 98 Q252 76 285 63.5 Q318 51 360 51 Z M143 350 Q143 294 153.5 242 Q164 190 188 148 L491 602 Q466 624 434 636.5 Q402 649 360 649 Q300 649 258.5 622 Q217 595 191.5 552 Q166 509 154.5 455.5 Q143 402 143 350 Z M343 766 L272 766 L414 922 L521 922 L343 766 Z " />
<glyph glyph-name="oslashacute" unicode="&#x1ff;" horiz-adv-x="548" d="M439 446 Q465 412 479 364 Q493 316 493 256 Q493 193 477.5 143 Q462 93 433.5 58.5 Q405 24 364.5 6 Q324 -12 275 -12 Q200 -12 148 27 L120 -12 L55 -12 L109 66 Q55 135 55 255 Q55 318 71 367.5 Q87 417 116 451.5 Q145 486 185.5 504.5 Q226 523 275 523 Q346 523 399 485 L426 523 L492 523 L439 446 Z M275 51 Q345 51 382.5 105 Q420 159 420 256 Q420 332 395 384 L186 82 Q222 51 275 51 Z M128 255 Q128 177 152 128 L361 430 Q325 460 275 460 Q203 460 165.5 407.5 Q128 355 128 255 Z M248 576 L177 576 L319 732 L426 732 L248 576 Z " />
<glyph glyph-name="uni0218" unicode="&#x218;" horiz-adv-x="594" d="M420 579 Q407 607 373.5 628 Q340 649 287 649 Q225 649 190.5 622 Q156 595 156 550 Q156 522 169.5 501.5 Q183 481 205.5 464.5 Q228 448 257 435 Q286 422 317 410 Q353 396 389 377 Q425 358 454 331 Q483 304 501 267.5 Q519 231 519 182 Q519 135 502.5 99 Q486 63 457 38.5 Q428 14 387 1 Q346 -12 298 -12 Q254 -12 216 -0.5 Q178 11 148 30.5 Q118 50 96.5 75.5 Q75 101 65 130 L131 154 Q152 108 195.5 79.5 Q239 51 299 51 Q368 51 407.5 84 Q447 117 447 180 Q447 212 434 237.5 Q421 263 399 282.5 Q377 302 348.5 316.5 Q320 331 289 343 Q252 357 215.5 374.5 Q179 392 149.5 416.5 Q120 441 102 473 Q84 505 84 549 Q84 582 98 612 Q112 642 138.5 664 Q165 686 203 699 Q241 712 290 712 Q367 712 419 680.5 Q471 649 485 601 L420 579 Z M258 -239 Q265 -234 279.5 -214.5 Q294 -195 297 -165 Q268 -165 255.5 -148.5 Q243 -132 243 -111 Q243 -87 259 -72.5 Q275 -58 295 -58 Q315 -58 332 -74 Q349 -90 349 -117 Q349 -157 331.5 -189 Q314 -221 276 -244 L258 -239 Z " />
<glyph glyph-name="uni0219" unicode="&#x219;" horiz-adv-x="463" d="M345 406 Q325 426 295 443.5 Q265 461 223 461 Q178 461 152 443 Q126 425 126 394 Q126 374 136 360 Q146 346 162 334.5 Q178 323 199 314 Q220 305 243 296 Q271 285 300.5 271.5 Q330 258 353 239 Q376 220 391 193.5 Q406 167 406 128 Q406 64 360 26 Q314 -12 234 -12 Q182 -12 136 13.5 Q90 39 58 77 L107 120 Q130 92 165 71 Q200 50 240 50 Q282 50 311 69 Q340 88 340 124 Q340 147 329 164.5 Q318 182 300 195 Q282 208 259 218.5 Q236 229 213 238 Q183 250 155 264 Q127 278 106 296 Q85 314 72.5 337.5 Q60 361 60 393 Q60 422 72.5 446 Q85 470 106.5 487 Q128 504 158.5 513.5 Q189 523 225 523 Q277 523 318.5 502.5 Q360 482 391 445 L345 406 Z M185 -239 Q192 -234 206.5 -214.5 Q221 -195 224 -165 Q195 -165 182.5 -148.5 Q170 -132 170 -111 Q170 -87 186 -72.5 Q202 -58 222 -58 Q242 -58 259 -74 Q276 -90 276 -117 Q276 -157 258.5 -189 Q241 -221 203 -244 L185 -239 Z " />
<glyph glyph-name="uni021A" unicode="&#x21a;" horiz-adv-x="575" d="M322 633 L322 0 L252 0 L252 633 L60 633 L60 700 L515 700 L515 633 L322 633 Z M251 -239 Q258 -234 272.5 -214.5 Q287 -195 290 -165 Q261 -165 248.5 -148.5 Q236 -132 236 -111 Q236 -87 252 -72.5 Q268 -58 288 -58 Q308 -58 325 -74 Q342 -90 342 -117 Q342 -157 324.5 -189 Q307 -221 269 -244 L251 -239 Z " />
<glyph glyph-name="uni021B" unicode="&#x21b;" horiz-adv-x="369" d="M218 -12 Q163 -12 140 21.5 Q117 55 117 105 L117 448 L30 448 L30 511 L117 511 L117 687 L187 722 L187 511 L317 511 L317 448 L187 448 L187 135 Q187 118 188.5 103.5 Q190 89 196 78 Q202 67 213 60.5 Q224 54 242 54 Q268 54 286.5 64 Q305 74 319 84 L311 11 Q291 0 269 -6 Q247 -12 218 -12 Z M166 -239 Q173 -234 187.5 -214.5 Q202 -195 205 -165 Q176 -165 163.5 -148.5 Q151 -132 151 -111 Q151 -87 167 -72.5 Q183 -58 203 -58 Q223 -58 240 -74 Q257 -90 257 -117 Q257 -157 239.5 -189 Q222 -221 184 -244 L166 -239 Z " />
<glyph glyph-name="dotlessj" unicode="&#x237;" horiz-adv-x="258" d="M162 -32 Q162 -83 148 -117 Q134 -151 111.5 -171.5 Q89 -192 60.5 -201.5 Q32 -211 2 -213 L-30 -158 Q6 -155 30 -146 Q54 -137 67.5 -124 Q81 -111 86.5 -94.5 Q92 -78 92 -60 L92 511 L162 511 L162 -32 Z " />
<glyph glyph-name="firsttonechinese" unicode="&#x2c9;" horiz-adv-x="335" d="M4 609 L4 670 L334 670 L334 609 L4 609 Z " />
<glyph glyph-name="uni03BC" unicode="&#x3bc;" horiz-adv-x="565" d="M405 0 L405 51 Q367 12 330.5 0 Q294 -12 265 -12 Q229 -12 205 0.5 Q181 13 160 49 L160 -166 L90 -200 L90 511 L160 511 L160 199 Q160 152 168 123 Q176 94 191.5 78 Q207 62 229 56.5 Q251 51 279 51 Q306 51 329 58 Q352 65 369 82 Q386 99 395.5 127 Q405 155 405 197 L405 511 L475 511 L475 0 L405 0 Z " />
<glyph glyph-name="Wgrave" unicode="&#x1e80;" horiz-adv-x="827" d="M772 700 L620 0 L576 0 L408 562 L238 0 L190 0 L55 700 L129 700 L226 151 L383 700 L435 700 L586 163 L699 700 L772 700 Z M444 766 L266 922 L373 922 L515 766 L444 766 Z " />
<glyph glyph-name="wgrave" unicode="&#x1e81;" horiz-adv-x="704" d="M538 0 L475 0 L351 375 L230 0 L166 0 L40 511 L110 511 L206 90 L328 511 L376 511 L500 85 L594 511 L664 511 L538 0 Z M387 576 L209 732 L316 732 L458 576 L387 576 Z " />
<glyph glyph-name="Wacute" unicode="&#x1e82;" horiz-adv-x="827" d="M772 700 L620 0 L576 0 L408 562 L238 0 L190 0 L55 700 L129 700 L226 151 L383 700 L435 700 L586 163 L699 700 L772 700 Z M369 766 L298 766 L440 922 L547 922 L369 766 Z " />
<glyph glyph-name="wacute" unicode="&#x1e83;" horiz-adv-x="704" d="M538 0 L475 0 L351 375 L230 0 L166 0 L40 511 L110 511 L206 90 L328 511 L376 511 L500 85 L594 511 L664 511 L538 0 Z M312 576 L241 576 L383 732 L490 732 L312 576 Z " />
<glyph glyph-name="Wdieresis" unicode="&#x1e84;" horiz-adv-x="827" d="M772 700 L620 0 L576 0 L408 562 L238 0 L190 0 L55 700 L129 700 L226 151 L383 700 L435 700 L586 163 L699 700 L772 700 Z M325 796 Q305 796 291.5 809.5 Q278 823 278 843 Q278 863 291.5 876.5 Q305 890 325 890 Q345 890 358.5 876.5 Q372 863 372 843 Q372 823 358.5 809.5 Q345 796 325 796 Z M491 796 Q471 796 457.5 809.5 Q444 823 444 843 Q444 863 457.5 876.5 Q471 890 491 890 Q511 890 524.5 876.5 Q538 863 538 843 Q538 823 524.5 809.5 Q511 796 491 796 Z " />
<glyph glyph-name="wdieresis" unicode="&#x1e85;" horiz-adv-x="704" d="M538 0 L475 0 L351 375 L230 0 L166 0 L40 511 L110 511 L206 90 L328 511 L376 511 L500 85 L594 511 L664 511 L538 0 Z M268 606 Q248 606 234.5 619.5 Q221 633 221 653 Q221 673 234.5 686.5 Q248 700 268 700 Q288 700 301.5 686.5 Q315 673 315 653 Q315 633 301.5 619.5 Q288 606 268 606 Z M434 606 Q414 606 400.5 619.5 Q387 633 387 653 Q387 673 400.5 686.5 Q414 700 434 700 Q454 700 467.5 686.5 Q481 673 481 653 Q481 633 467.5 619.5 Q454 606 434 606 Z " />
<glyph glyph-name="Ygrave" unicode="&#x1ef2;" horiz-adv-x="616" d="M274 0 L274 275 L45 700 L122 700 L308 340 L499 700 L571 700 L344 278 L344 0 L274 0 Z M325 766 L147 922 L254 922 L396 766 L325 766 Z " />
<glyph glyph-name="ygrave" unicode="&#x1ef3;" horiz-adv-x="511" d="M217 16 L30 511 L101 511 L247 99 L396 511 L471 511 L210 -194 L141 -194 L217 16 Z M273 576 L95 732 L202 732 L344 576 L273 576 Z " />
<glyph glyph-name="afii00208" unicode="&#x2015;" horiz-adv-x="605" d="M10 257 L10 317 L595 317 L595 257 L10 257 Z " />
<glyph glyph-name="quotereversed" unicode="&#x201b;" horiz-adv-x="226" d="M134 462 Q95 486 69 528.5 Q43 571 43 628 Q43 650 49.5 666 Q56 682 66 692 Q76 702 89 707 Q102 712 115 712 Q140 712 158 694.5 Q176 677 176 646 Q176 619 155.5 601.5 Q135 584 103 584 Q103 562 108.5 543 Q114 524 121.5 509 Q129 494 137.5 483.5 Q146 473 153 467 L134 462 Z " />
<glyph glyph-name="minute" unicode="&#x2032;" horiz-adv-x="215" d="M70 730 L165 730 L105 425 L50 425 L70 730 Z " />
<glyph glyph-name="second" unicode="&#x2033;" horiz-adv-x="415" d="M70 730 L165 730 L105 425 L50 425 L70 730 Z M270 730 L365 730 L305 425 L250 425 L270 730 Z " />
<glyph glyph-name="nsuperior" unicode="&#x207f;" horiz-adv-x="459" d="M318 283 L318 527 Q318 594 295.5 620.5 Q273 647 236 647 Q217 647 200.5 641.5 Q184 636 172 622.5 Q160 609 153.5 586.5 Q147 564 147 531 L147 283 L75 283 L75 702 L147 702 L147 651 Q165 677 190.5 694.5 Q216 712 259 712 Q329 712 359 666 Q389 620 389 515 L389 283 L318 283 Z " />
<glyph glyph-name="afii08941" unicode="&#x20a4;" horiz-adv-x="589" d="M257 239 Q249 191 224.5 147.5 Q200 104 157 65 L559 65 L559 0 L95 0 L95 79 Q116 89 131 107 Q146 125 156.5 147 Q167 169 173 193 Q179 217 182 239 L90 239 L90 296 L187 296 Q187 312 182.5 328.5 Q178 345 170 362 L90 362 L90 419 L146 419 Q136 442 129 467 Q122 492 122 519 Q122 556 135.5 591 Q149 626 176.5 653 Q204 680 246.5 696 Q289 712 347 712 Q412 712 457 694.5 Q502 677 545 647 L516 578 Q505 589 491.5 601 Q478 613 458.5 622.5 Q439 632 412 638.5 Q385 645 347 645 Q308 645 279.5 633.5 Q251 622 233 604 Q215 586 206.5 563.5 Q198 541 198 518 Q198 492 206.5 467.5 Q215 443 226 419 L414 419 L414 362 L251 362 Q256 347 259.5 331.5 Q263 316 263 300 L263 296 L414 296 L414 239 L257 239 Z " />
<glyph glyph-name="afii61248" unicode="&#x2105;" horiz-adv-x="1023" d="M236 272 Q152 272 108.5 332 Q65 392 65 492 Q65 596 111.5 654 Q158 712 239 712 Q282 712 309.5 699.5 Q337 687 353 671 Q369 655 376 639.5 Q383 624 385 618 L317 592 Q314 601 308 610.5 Q302 620 292 628 Q282 636 267.5 641.5 Q253 647 232 647 Q182 647 158.5 606.5 Q135 566 135 492 Q135 416 159.5 376.5 Q184 337 234 337 Q276 337 294.5 353.5 Q313 370 324 397 L385 374 Q379 354 366.5 335.5 Q354 317 335 303 Q316 289 291.5 280.5 Q267 272 236 272 Z M768 -12 Q681 -12 630 45 Q579 102 579 208 Q579 312 630 370 Q681 428 768 428 Q856 428 907 370 Q958 312 958 208 Q958 102 907 45 Q856 -12 768 -12 Z M768 53 Q828 53 858 93 Q888 133 888 208 Q888 283 858 323 Q828 363 768 363 Q713 363 681 323 Q649 283 649 208 Q649 133 681 93 Q713 53 768 53 Z M214 -12 L692 712 L766 712 L288 -12 L214 -12 Z " />
<glyph glyph-name="afii61289" unicode="&#x2113;" horiz-adv-x="453" d="M248 -12 Q229 -12 211.5 -7 Q194 -2 180.5 11 Q167 24 158.5 46 Q150 68 150 102 L150 249 Q130 236 115.5 229 Q101 222 93 217 L70 274 Q82 279 107 291.5 Q132 304 150 318 L150 523 Q150 577 159 613 Q168 649 184.5 671 Q201 693 224 702.5 Q247 712 274 712 Q298 712 319.5 703 Q341 694 357.5 675 Q374 656 383.5 628 Q393 600 393 563 Q393 508 375 464.5 Q357 421 330.5 387.5 Q304 354 274.5 329 Q245 304 222 286 L222 144 Q222 115 226.5 97 Q231 79 239.5 69.5 Q248 60 259 56.5 Q270 53 282 53 Q302 53 319.5 63 Q337 73 350 87 L368 46 Q351 24 320.5 6 Q290 -12 248 -12 Z M272 645 Q260 645 250.5 639 Q241 633 235 618 Q229 603 225.5 576.5 Q222 550 222 509 L222 358 Q278 406 299.5 451 Q321 496 321 546 Q321 589 310 617 Q299 645 272 645 Z " />
<glyph glyph-name="afii61352" unicode="&#x2116;" horiz-adv-x="1207" d="M753 130 L753 185 L1102 185 L1102 130 L753 130 Z M529 0 L175 569 L175 0 L105 0 L105 700 L176 700 L530 123 L530 700 L600 700 L600 0 L529 0 Z M927 272 Q840 272 789 329 Q738 386 738 492 Q738 596 789 654 Q840 712 927 712 Q1015 712 1066 654 Q1117 596 1117 492 Q1117 386 1066 329 Q1015 272 927 272 Z M927 337 Q987 337 1017 377 Q1047 417 1047 492 Q1047 567 1017 607 Q987 647 927 647 Q872 647 840 607 Q808 567 808 492 Q808 417 840 377 Q872 337 927 337 Z " />
<glyph glyph-name="Ohm" unicode="&#x2126;" horiz-adv-x="738" d="M438 0 L438 71 Q471 108 496 142 Q521 176 537.5 212.5 Q554 249 562 292 Q570 335 570 389 Q570 436 559.5 482.5 Q549 529 525 566 Q501 603 462.5 626 Q424 649 368 649 Q312 649 273.5 626 Q235 603 211 566 Q187 529 176.5 482 Q166 435 166 388 Q166 334 174.5 291.5 Q183 249 199.5 212 Q216 175 241 141.5 Q266 108 299 71 L299 0 L85 0 L85 63 L254 63 Q176 113 134.5 193.5 Q93 274 93 390 Q93 446 107.5 503.5 Q122 561 154.5 607.5 Q187 654 239.5 683 Q292 712 368 712 Q445 712 497.5 683 Q550 654 582.5 607.5 Q615 561 629 503.5 Q643 446 643 390 Q643 274 601.5 193.5 Q560 113 482 63 L653 63 L653 0 L438 0 Z " />
<glyph glyph-name="estimated" unicode="&#x212e;" horiz-adv-x="810" d="M410 -12 Q339 -12 276.5 13.5 Q214 39 167 86 Q120 133 92.5 200 Q65 267 65 350 Q65 442 94 510.5 Q123 579 171.5 624.5 Q220 670 283 692.5 Q346 715 413 715 Q477 715 535.5 692 Q594 669 639 623 Q684 577 712.5 509 Q741 441 745 350 L222 350 L222 131 Q246 96 295 72 Q344 48 410 48 Q482 48 543 80.5 Q604 113 652 187 L703 156 Q677 118 648.5 87 Q620 56 584.5 34 Q549 12 506.5 0 Q464 -12 410 -12 Z M593 577 Q565 610 516 632.5 Q467 655 410 655 Q351 655 304 637 Q257 619 222 586 L222 408 L593 409 L593 577 Z " />
<glyph glyph-name="onethird" unicode="&#x2153;" horiz-adv-x="718" d="M14 -12 L492 712 L561 712 L83 -12 L14 -12 Z M82 283 L82 607 L35 607 L35 650 Q63 650 78 665 Q93 680 101 705 L143 705 L143 283 L82 283 Z M440 114 Q455 78 479 58 Q503 38 537 38 Q575 38 595.5 59 Q616 80 616 112 Q616 126 611 140 Q606 154 597 165 Q588 176 575 183 Q562 190 546 190 L512 190 L512 240 L534 240 Q569 240 584 261.5 Q599 283 599 310 Q599 336 582.5 357.5 Q566 379 531 379 Q502 379 480 360.5 Q458 342 446 315 L393 333 Q410 374 447.5 401.5 Q485 429 535 429 Q591 429 627 399.5 Q663 370 663 316 Q663 289 648 262.5 Q633 236 606 224 Q638 213 659 186.5 Q680 160 680 120 Q680 57 640 22.5 Q600 -12 537 -12 Q480 -12 442 16.5 Q404 45 385 91 L440 114 Z " />
<glyph glyph-name="twothirds" unicode="&#x2154;" horiz-adv-x="875" d="M171 -12 L649 712 L718 712 L240 -12 L171 -12 Z M41 612 Q52 655 87.5 683.5 Q123 712 184 712 Q241 712 279 679 Q317 646 317 588 Q317 534 288 499.5 Q259 465 200 429 Q161 405 138.5 385 Q116 365 105 338 L316 338 L316 283 L40 283 Q40 323 50.5 351.5 Q61 380 80.5 403 Q100 426 127 445.5 Q154 465 187 487 Q219 508 237 531 Q255 554 255 593 Q255 603 251 615.5 Q247 628 237.5 638 Q228 648 213 655 Q198 662 176 662 Q107 662 92 591 L41 612 Z M597 114 Q612 78 636 58 Q660 38 694 38 Q732 38 752.5 59 Q773 80 773 112 Q773 126 768 140 Q763 154 754 165 Q745 176 732 183 Q719 190 703 190 L669 190 L669 240 L691 240 Q726 240 741 261.5 Q756 283 756 310 Q756 336 739.5 357.5 Q723 379 688 379 Q659 379 637 360.5 Q615 342 603 315 L550 333 Q567 374 604.5 401.5 Q642 429 692 429 Q748 429 784 399.5 Q820 370 820 316 Q820 289 805 262.5 Q790 236 763 224 Q795 213 816 186.5 Q837 160 837 120 Q837 57 797 22.5 Q757 -12 694 -12 Q637 -12 599 16.5 Q561 45 542 91 L597 114 Z " />
<glyph glyph-name="oneeighth" unicode="&#x215b;" horiz-adv-x="710" d="M14 -12 L492 712 L561 712 L83 -12 L14 -12 Z M82 283 L82 607 L35 607 L35 650 Q63 650 78 665 Q93 680 101 705 L143 705 L143 283 L82 283 Z M521 -12 Q489 -12 463.5 -2.5 Q438 7 419 24.5 Q400 42 390 65.5 Q380 89 380 117 Q380 164 400.5 191.5 Q421 219 451 233 Q431 242 415.5 264.5 Q400 287 400 316 Q400 366 434 397.5 Q468 429 521 429 Q574 429 608 397.5 Q642 366 642 316 Q642 288 626.5 265 Q611 242 591 233 Q620 219 641 191.5 Q662 164 662 117 Q662 60 623.5 24 Q585 -12 521 -12 Z M521 38 Q556 38 578.5 60.5 Q601 83 601 123 Q601 156 579.5 180.5 Q558 205 521 205 Q486 205 463.5 180.5 Q441 156 441 123 Q441 83 464 60.5 Q487 38 521 38 Z M521 251 Q551 251 568.5 268 Q586 285 586 312 Q586 343 568 361 Q550 379 521 379 Q493 379 474.5 361 Q456 343 456 312 Q456 285 474 268 Q492 251 521 251 Z " />
<glyph glyph-name="threeeighths" unicode="&#x215c;" horiz-adv-x="855" d="M157 -12 L635 712 L704 712 L226 -12 L157 -12 Z M89 397 Q104 361 128 341 Q152 321 186 321 Q224 321 244.5 342 Q265 363 265 395 Q265 409 260 423 Q255 437 246 448 Q237 459 224 466 Q211 473 195 473 L161 473 L161 523 L183 523 Q218 523 233 544.5 Q248 566 248 593 Q248 619 231.5 640.5 Q215 662 180 662 Q151 662 129 643.5 Q107 625 95 598 L42 616 Q59 657 96.5 684.5 Q134 712 184 712 Q240 712 276 682.5 Q312 653 312 599 Q312 572 297 545.5 Q282 519 255 507 Q287 496 308 469.5 Q329 443 329 403 Q329 340 289 305.5 Q249 271 186 271 Q129 271 91 299.5 Q53 328 34 374 L89 397 Z M665 -12 Q633 -12 607.5 -2.5 Q582 7 563 24.5 Q544 42 534 65.5 Q524 89 524 117 Q524 164 544.5 191.5 Q565 219 595 233 Q575 242 559.5 264.5 Q544 287 544 316 Q544 366 578 397.5 Q612 429 665 429 Q718 429 752 397.5 Q786 366 786 316 Q786 288 770.5 265 Q755 242 735 233 Q764 219 785 191.5 Q806 164 806 117 Q806 60 767.5 24 Q729 -12 665 -12 Z M665 38 Q700 38 722.5 60.5 Q745 83 745 123 Q745 156 723.5 180.5 Q702 205 665 205 Q630 205 607.5 180.5 Q585 156 585 123 Q585 83 608 60.5 Q631 38 665 38 Z M665 251 Q695 251 712.5 268 Q730 285 730 312 Q730 343 712 361 Q694 379 665 379 Q637 379 618.5 361 Q600 343 600 312 Q600 285 618 268 Q636 251 665 251 Z " />
<glyph glyph-name="fiveeighths" unicode="&#x215d;" horiz-adv-x="838" d="M141 -12 L619 712 L688 712 L210 -12 L141 -12 Z M63 366 Q79 347 106 334 Q133 321 162 321 Q210 321 234 348.5 Q258 376 258 415 Q258 453 237.5 479.5 Q217 506 174 506 Q139 506 116.5 493 Q94 480 82 465 L41 478 L76 700 L286 700 L286 645 L121 645 L103 532 Q136 556 184 556 Q244 556 281.5 517.5 Q319 479 319 415 Q319 385 308 359 Q297 333 276.5 313.5 Q256 294 228 282.5 Q200 271 166 271 Q116 271 80.5 289 Q45 307 31 325 L63 366 Z M648 -12 Q616 -12 590.5 -2.5 Q565 7 546 24.5 Q527 42 517 65.5 Q507 89 507 117 Q507 164 527.5 191.5 Q548 219 578 233 Q558 242 542.5 264.5 Q527 287 527 316 Q527 366 561 397.5 Q595 429 648 429 Q701 429 735 397.5 Q769 366 769 316 Q769 288 753.5 265 Q738 242 718 233 Q747 219 768 191.5 Q789 164 789 117 Q789 60 750.5 24 Q712 -12 648 -12 Z M648 38 Q683 38 705.5 60.5 Q728 83 728 123 Q728 156 706.5 180.5 Q685 205 648 205 Q613 205 590.5 180.5 Q568 156 568 123 Q568 83 591 60.5 Q614 38 648 38 Z M648 251 Q678 251 695.5 268 Q713 285 713 312 Q713 343 695 361 Q677 379 648 379 Q620 379 601.5 361 Q583 343 583 312 Q583 285 601 268 Q619 251 648 251 Z " />
<glyph glyph-name="seveneighths" unicode="&#x215e;" horiz-adv-x="747" d="M49 -12 L527 712 L596 712 L118 -12 L49 -12 Z M97 283 Q97 343 107.5 394.5 Q118 446 135 490.5 Q152 535 174 573.5 Q196 612 221 645 L20 645 L20 700 L288 700 L288 642 Q250 600 226 553 Q202 506 188 459.5 Q174 413 168 367.5 Q162 322 162 283 L97 283 Z M558 -12 Q526 -12 500.5 -2.5 Q475 7 456 24.5 Q437 42 427 65.5 Q417 89 417 117 Q417 164 437.5 191.5 Q458 219 488 233 Q468 242 452.5 264.5 Q437 287 437 316 Q437 366 471 397.5 Q505 429 558 429 Q611 429 645 397.5 Q679 366 679 316 Q679 288 663.5 265 Q648 242 628 233 Q657 219 678 191.5 Q699 164 699 117 Q699 60 660.5 24 Q622 -12 558 -12 Z M558 38 Q593 38 615.5 60.5 Q638 83 638 123 Q638 156 616.5 180.5 Q595 205 558 205 Q523 205 500.5 180.5 Q478 156 478 123 Q478 83 501 60.5 Q524 38 558 38 Z M558 251 Q588 251 605.5 268 Q623 285 623 312 Q623 343 605 361 Q587 379 558 379 Q530 379 511.5 361 Q493 343 493 312 Q493 285 511 268 Q529 251 558 251 Z " />
<glyph glyph-name="divisionslash" unicode="&#x2215;" horiz-adv-x="325" d="M-111 -12 L367 712 L436 712 L-42 -12 L-111 -12 Z " />
<glyph glyph-name="bulletoperator" unicode="&#x2219;" horiz-adv-x="226" d="M113 286 Q86 286 68 305.5 Q50 325 50 349 Q50 373 68 392.5 Q86 412 113 412 Q140 412 158 392.5 Q176 373 176 349 Q176 325 158 305.5 Q140 286 113 286 Z " />
<glyph glyph-name="dottedcircle" unicode="&#x25cc;" horiz-adv-x="674" d="M70 359 Q70 373 79 381.5 Q88 390 102 390 Q116 390 124 381.5 Q132 373 132 359 Q132 345 124 337 Q116 329 102 329 Q88 329 79 337 Q70 345 70 359 Z M542 359 Q542 373 550 381.5 Q558 390 572 390 Q585 390 594.5 381.5 Q604 373 604 359 Q604 345 594.5 337 Q585 329 572 329 Q558 329 550 337 Q542 345 542 359 Z M307 124 Q307 138 315 146.5 Q323 155 337 155 Q351 155 359 146.5 Q367 138 367 124 Q367 110 359 101.5 Q351 93 337 93 Q323 93 315 101.5 Q307 110 307 124 Z M307 594 Q307 608 315 617 Q323 626 337 626 Q351 626 359 617 Q367 608 367 594 Q367 580 359 572 Q351 564 337 564 Q323 564 315 572 Q307 580 307 594 Z M473 526 Q473 540 481 548 Q489 556 503 556 Q517 556 525.5 548 Q534 540 534 526 Q534 512 525.5 503.5 Q517 495 503 495 Q489 495 481 503.5 Q473 512 473 526 Z M140 526 Q140 540 148.5 548 Q157 556 171 556 Q185 556 193 548 Q201 540 201 526 Q201 512 193 503.5 Q185 495 171 495 Q157 495 148.5 503.5 Q140 512 140 526 Z M473 193 Q473 207 481 215.5 Q489 224 503 224 Q517 224 525.5 215.5 Q534 207 534 193 Q534 179 525.5 171 Q517 163 503 163 Q489 163 481 171 Q473 179 473 193 Z M140 193 Q140 207 148.5 215.5 Q157 224 171 224 Q185 224 193 215.5 Q201 207 201 193 Q201 179 193 171 Q185 163 171 163 Q157 163 148.5 171 Q140 179 140 193 Z M89 269 Q89 283 97.5 291.5 Q106 300 120 300 Q133 300 141.5 291.5 Q150 283 150 269 Q150 255 141.5 246.5 Q133 238 120 238 Q106 238 97.5 247 Q89 256 89 269 Z M524 449 Q524 462 532.5 471.5 Q541 481 554 481 Q568 481 576.5 471.5 Q585 462 585 449 Q585 436 576.5 427.5 Q568 419 554 419 Q541 419 532.5 427.5 Q524 436 524 449 Z M397 142 Q397 156 405.5 164.5 Q414 173 427 173 Q441 173 449.5 164.5 Q458 156 458 142 Q458 128 449.5 119.5 Q441 111 427 111 Q414 111 405.5 119.5 Q397 128 397 142 Z M216 576 Q216 590 224.5 599 Q233 608 247 608 Q260 608 268.5 599 Q277 590 277 576 Q277 563 268.5 554.5 Q260 546 247 546 Q233 546 224.5 554.5 Q216 563 216 576 Z M396 576 Q396 590 405 598.5 Q414 607 426 607 Q440 607 449 598.5 Q458 590 458 576 Q458 563 449 554.5 Q440 546 426 546 Q412 546 404 554.5 Q396 563 396 576 Z M89 449 Q89 463 97.5 471.5 Q106 480 120 480 Q134 480 142.5 471.5 Q151 463 151 449 Q151 436 141.5 427 Q132 418 120 418 Q106 418 97.5 427 Q89 436 89 449 Z M523 270 Q523 283 532 291.5 Q541 300 554 300 Q568 300 576.5 291.5 Q585 283 585 270 Q585 256 576.5 247.5 Q568 239 554 239 Q540 239 531.5 247.5 Q523 256 523 270 Z M216 143 Q216 156 225 164.5 Q234 173 248 173 Q261 173 269.5 164.5 Q278 156 278 143 Q278 129 268.5 120 Q259 111 248 111 Q234 111 225 120 Q216 129 216 143 Z " />
<glyph glyph-name="zero.denominator" unicode="&#xe10a;" horiz-adv-x="389" d="M194 -7 Q152 -7 124 12.5 Q96 32 79.5 63.5 Q63 95 56.5 134 Q50 173 50 211 Q50 247 56.5 285.5 Q63 324 79.5 356 Q96 388 123.5 408.5 Q151 429 194 429 Q237 429 265 409.5 Q293 390 309.5 358.5 Q326 327 332.5 288 Q339 249 339 211 Q339 175 333 136 Q327 97 310.5 65.5 Q294 34 266 13.5 Q238 -7 194 -7 Z M194 48 Q221 48 237.5 64 Q254 80 263 104.5 Q272 129 275 157.5 Q278 186 278 211 Q278 239 274.5 268 Q271 297 262 320.5 Q253 344 236.5 359 Q220 374 194 374 Q168 374 151.5 358 Q135 342 126 318 Q117 294 114 265 Q111 236 111 211 Q111 183 114.5 154 Q118 125 127 101.5 Q136 78 152 63 Q168 48 194 48 Z " />
<glyph glyph-name="one.denominator" unicode="&#xe10b;" horiz-adv-x="198" d="M72 0 L72 324 L25 324 L25 367 Q53 367 68 382 Q83 397 91 422 L133 422 L133 0 L72 0 Z " />
<glyph glyph-name="two.denominator" unicode="&#xe10c;" horiz-adv-x="367" d="M41 329 Q52 372 87.5 400.5 Q123 429 184 429 Q241 429 279 396 Q317 363 317 305 Q317 251 288 216.5 Q259 182 200 146 Q161 122 138.5 102 Q116 82 105 55 L316 55 L316 0 L40 0 Q40 40 50.5 68.5 Q61 97 80.5 120 Q100 143 127 162.5 Q154 182 187 204 Q219 225 237 248 Q255 271 255 310 Q255 320 251 332.5 Q247 345 237.5 355 Q228 365 213 372 Q198 379 176 379 Q107 379 92 308 L41 329 Z " />
<glyph glyph-name="three.denominator" unicode="&#xe10d;" horiz-adv-x="380" d="M90 114 Q105 78 129 58 Q153 38 187 38 Q225 38 245.5 59 Q266 80 266 112 Q266 126 261 140 Q256 154 247 165 Q238 176 225 183 Q212 190 196 190 L162 190 L162 240 L184 240 Q219 240 234 261.5 Q249 283 249 310 Q249 336 232.5 357.5 Q216 379 181 379 Q152 379 130 360.5 Q108 342 96 315 L43 333 Q60 374 97.5 401.5 Q135 429 185 429 Q241 429 277 399.5 Q313 370 313 316 Q313 289 298 262.5 Q283 236 256 224 Q288 213 309 186.5 Q330 160 330 120 Q330 57 290 22.5 Q250 -12 187 -12 Q130 -12 92 16.5 Q54 45 35 91 L90 114 Z " />
<glyph glyph-name="four.denominator" unicode="&#xe10e;" horiz-adv-x="383" d="M230 0 L230 108 L20 108 L20 138 L244 423 L291 423 L291 163 L343 163 L343 108 L291 108 L291 0 L230 0 Z M230 163 L230 335 L101 163 L230 163 Z " />
<glyph glyph-name="five.denominator" unicode="&#xe10f;" horiz-adv-x="368" d="M72 83 Q88 64 115 51 Q142 38 171 38 Q219 38 243 65.5 Q267 93 267 132 Q267 170 246.5 196.5 Q226 223 183 223 Q148 223 125.5 210 Q103 197 91 182 L50 195 L85 417 L295 417 L295 362 L130 362 L112 249 Q145 273 193 273 Q253 273 290.5 234.5 Q328 196 328 132 Q328 102 317 76 Q306 50 285.5 30.5 Q265 11 237 -0.5 Q209 -12 175 -12 Q125 -12 89.5 6 Q54 24 40 42 L72 83 Z " />
<glyph glyph-name="six.denominator" unicode="&#xe110;" horiz-adv-x="366" d="M187 -12 Q153 -12 127.5 1 Q102 14 84.5 35.5 Q67 57 58.5 86 Q50 115 50 148 Q50 198 67.5 244.5 Q85 291 115 328.5 Q145 366 185 392 Q225 418 271 427 L271 377 Q223 365 182 325.5 Q141 286 123 226 Q138 243 158.5 250 Q179 257 203 257 Q230 257 252.5 246 Q275 235 291.5 217 Q308 199 317 175 Q326 151 326 125 Q326 97 316 72 Q306 47 288 28.5 Q270 10 244 -1 Q218 -12 187 -12 Z M190 38 Q219 38 242 60.5 Q265 83 265 120 Q265 161 243.5 184 Q222 207 190 207 Q154 207 132.5 183 Q111 159 111 122 Q111 82 133 60 Q155 38 190 38 Z " />
<glyph glyph-name="seven.denominator" unicode="&#xe111;" horiz-adv-x="313" d="M97 0 Q97 60 107.5 111.5 Q118 163 135 207.5 Q152 252 174 290.5 Q196 329 221 362 L20 362 L20 417 L288 417 L288 359 Q250 317 226 270 Q202 223 188 176.5 Q174 130 168 84.5 Q162 39 162 0 L97 0 Z " />
</font>
</svg>
